  0
SECTION
  2
HEADER
  9
$ACADVER
  1
AC1015
  9
$ACADMAINTVER
 70
     6
  9
$DWGCODEPAGE
  3
ANSI_1252
  9
$INSBASE
 10
0.0
 20
0.0
 30
0.0
  9
$EXTMIN
 10
0.0
 20
0.0
 30
0.0
  9
$EXTMAX
 10
4749.8
 20
3073.4
 30
0.0
  9
$LIMMIN
 10
0.0
 20
0.0
  9
$LIMMAX
 10
4749.8
 20
3073.4
  9
$ORTHOMODE
 70
     0
  9
$REGENMODE
 70
     1
  9
$FILLMODE
 70
     1
  9
$QTEXTMODE
 70
     0
  9
$MIRRTEXT
 70
     1
  9
$LTSCALE
 40
11.0
  9
$ATTMODE
 70
     1
  9
$TEXTSIZE
 40
34.925
  9
$TRACEWID
 40
1.0
  9
$TEXTSTYLE
  7
STANDARD
  9
$CLAYER
  8
0
  9
$CELTYPE
  6
ByLayer
  9
$CECOLOR
 62
   256
  9
$CELTSCALE
 40
1.0
  9
$DISPSILH
 70
     0
  9
$DIMSCALE
 40
1.0
  9
$DIMASZ
 40
22.0
  9
$DIMEXO
 40
8.382
  9
$DIMDLI
 40
3.75
  9
$DIMRND
 40
0.0
  9
$DIMDLE
 40
0.0
  9
$DIMEXE
 40
8.382
  9
$DIMTP
 40
0.0
  9
$DIMTM
 40
0.0
  9
$DIMTXT
 40
34.925
  9
$DIMCEN
 40
2.5
  9
$DIMTSZ
 40
0.0
  9
$DIMTOL
 70
     0
  9
$DIMLIM
 70
     0
  9
$DIMTIH
 70
     1
  9
$DIMTOH
 70
     1
  9
$DIMSE1
 70
     0
  9
$DIMSE2
 70
     0
  9
$DIMTAD
 70
     0
  9
$DIMZIN
 70
     1
  9
$DIMBLK
  1

  9
$DIMASO
 70
     1
  9
$DIMSHO
 70
     1
  9
$DIMPOST
  1

  9
$DIMAPOST
  1

  9
$DIMALT
 70
     0
  9
$DIMALTD
 70
     3
  9
$DIMALTF
 40
0.0393700787
  9
$DIMLFAC
 40
1.0
  9
$DIMTOFL
 70
     1
  9
$DIMTVP
 40
0.0
  9
$DIMTIX
 70
     0
  9
$DIMSOXD
 70
     0
  9
$DIMSAH
 70
     0
  9
$DIMBLK1
  1

  9
$DIMBLK2
  1

  9
$DIMSTYLE
  2
ISO-25
  9
$DIMCLRD
 70
     0
  9
$DIMCLRE
 70
     0
  9
$DIMCLRT
 70
     0
  9
$DIMTFAC
 40
1.0
  9
$DIMGAP
 40
16.764
  9
$DIMJUST
 70
     0
  9
$DIMSD1
 70
     0
  9
$DIMSD2
 70
     0
  9
$DIMTOLJ
 70
     0
  9
$DIMTZIN
 70
     1
  9
$DIMALTZ
 70
     0
  9
$DIMALTTZ
 70
     0
  9
$DIMUPT
 70
     0
  9
$DIMDEC
 70
     2
  9
$DIMTDEC
 70
     2
  9
$DIMALTU
 70
     2
  9
$DIMALTTD
 70
     3
  9
$DIMTXSTY
  7
STANDARD
  9
$DIMAUNIT
 70
     0
  9
$DIMADEC
 70
     0
  9
$DIMALTRND
 40
0.0
  9
$DIMAZIN
 70
     0
  9
$DIMDSEP
 70
    44
  9
$DIMATFIT
 70
     3
  9
$DIMFRAC
 70
     0
  9
$DIMLDRBLK
  1

  9
$DIMLUNIT
 70
     2
  9
$DIMLWD
 70
    -2
  9
$DIMLWE
 70
    -2
  9
$DIMTMOVE
 70
     0
  9
$LUNITS
 70
     2
  9
$LUPREC
 70
     6
  9
$SKETCHINC
 40
1.0
  9
$FILLETRAD
 40
0.0
  9
$AUNITS
 70
     0
  9
$AUPREC
 70
     0
  9
$MENU
  1
.
  9
$ELEVATION
 40
0.0
  9
$PELEVATION
 40
0.0
  9
$THICKNESS
 40
0.0
  9
$LIMCHECK
 70
     0
  9
$CHAMFERA
 40
0.0
  9
$CHAMFERB
 40
0.0
  9
$CHAMFERC
 40
0.0
  9
$CHAMFERD
 40
0.0
  9
$SKPOLY
 70
     0
  9
$TDCREATE
 40
2460461.48102728
  9
$TDUCREATE
 40
2460461.772693947
  9
$TDUPDATE
 40
2460461.481032384
  9
$TDUUPDATE
 40
2460461.772699051
  9
$TDINDWG
 40
0.0000000116
  9
$TDUSRTIMER
 40
0.0000000116
  9
$USRTIMER
 70
     1
  9
$ANGBASE
 50
0.0
  9
$ANGDIR
 70
     0
  9
$PDMODE
 70
     0
  9
$PDSIZE
 40
-1.0
  9
$PLINEWID
 40
0.0
  9
$SPLFRAME
 70
     0
  9
$SPLINETYPE
 70
     6
  9
$SPLINESEGS
 70
     8
  9
$HANDSEED
  5
5F0
  9
$SURFTAB1
 70
     6
  9
$SURFTAB2
 70
     6
  9
$SURFTYPE
 70
     6
  9
$SURFU
 70
     6
  9
$SURFV
 70
     6
  9
$UCSBASE
  2

  9
$UCSNAME
  2

  9
$UCSORG
 10
0.0
 20
0.0
 30
0.0
  9
$UCSXDIR
 10
1.0
 20
0.0
 30
0.0
  9
$UCSYDIR
 10
0.0
 20
1.0
 30
0.0
  9
$UCSORTHOREF
  2

  9
$UCSORTHOVIEW
 70
     0
  9
$UCSORGTOP
 10
0.0
 20
0.0
 30
0.0
  9
$UCSORGBOTTOM
 10
0.0
 20
0.0
 30
0.0
  9
$UCSORGLEFT
 10
0.0
 20
0.0
 30
0.0
  9
$UCSORGRIGHT
 10
0.0
 20
0.0
 30
0.0
  9
$UCSORGFRONT
 10
0.0
 20
0.0
 30
0.0
  9
$UCSORGBACK
 10
0.0
 20
0.0
 30
0.0
  9
$PUCSBASE
  2

  9
$PUCSNAME
  2

  9
$PUCSORG
 10
0.0
 20
0.0
 30
0.0
  9
$PUCSXDIR
 10
1.0
 20
0.0
 30
0.0
  9
$PUCSYDIR
 10
0.0
 20
1.0
 30
0.0
  9
$PUCSORTHOREF
  2

  9
$PUCSORTHOVIEW
 70
     0
  9
$PUCSORGTOP
 10
0.0
 20
0.0
 30
0.0
  9
$PUCSORGBOTTOM
 10
0.0
 20
0.0
 30
0.0
  9
$PUCSORGLEFT
 10
0.0
 20
0.0
 30
0.0
  9
$PUCSORGRIGHT
 10
0.0
 20
0.0
 30
0.0
  9
$PUCSORGFRONT
 10
0.0
 20
0.0
 30
0.0
  9
$PUCSORGBACK
 10
0.0
 20
0.0
 30
0.0
  9
$USERI1
 70
     0
  9
$USERI2
 70
     0
  9
$USERI3
 70
     0
  9
$USERI4
 70
     0
  9
$USERI5
 70
     0
  9
$USERR1
 40
0.0
  9
$USERR2
 40
0.0
  9
$USERR3
 40
0.0
  9
$USERR4
 40
0.0
  9
$USERR5
 40
0.0
  9
$WORLDVIEW
 70
     1
  9
$SHADEDGE
 70
     3
  9
$SHADEDIF
 70
    70
  9
$TILEMODE
 70
     1
  9
$MAXACTVP
 70
    64
  9
$PINSBASE
 10
0.0
 20
0.0
 30
0.0
  9
$PLIMCHECK
 70
     0
  9
$PEXTMIN
 10
1.0000000000E+20
 20
1.0000000000E+20
 30
1.0000000000E+20
  9
$PEXTMAX
 10
-1.0000000000E+20
 20
-1.0000000000E+20
 30
-1.0000000000E+20
  9
$PLIMMIN
 10
0.0
 20
0.0
  9
$PLIMMAX
 10
420.0
 20
297.0
  9
$UNITMODE
 70
     0
  9
$VISRETAIN
 70
     1
  9
$PLINEGEN
 70
     0
  9
$PSLTSCALE
 70
     1
  9
$TREEDEPTH
 70
  3020
  9
$CMLSTYLE
  2
Standard
  9
$CMLJUST
 70
     0
  9
$CMLSCALE
 40
20.0
  9
$PROXYGRAPHICS
 70
     1
  9
$MEASUREMENT
 70
     1
  9
$CELWEIGHT
370
    -1
  9
$ENDCAPS
280
     0
  9
$JOINSTYLE
280
     0
  9
$LWDISPLAY
290
     1
  9
$INSUNITS
 70
     4
  9
$HYPERLINKBASE
  1

  9
$STYLESHEET
  1

  9
$XEDIT
290
     1
  9
$CEPSNTYPE
380
     0
  9
$PSTYLEMODE
290
     1
  9
$FINGERPRINTGUID
  2
{290bfe5c-dda3-4000-9de0-b1c780b072e1}
  9
$VERSIONGUID
  2
{FAEB1C32-E019-11D5-929B-00C0DF256EC4}
  9
$EXTNAMES
290
     1
  9
$PSVPSCALE
 40
0.0
  9
$OLESTARTUP
290
     0
  0
ENDSEC
  0
SECTION
  2
CLASSES
  0
CLASS
  1
ACDBDICTIONARYWDFLT
  2
AcDbDictionaryWithDefault
  3
ObjectDBX Classes
 90
        0
280
     0
281
     0
  0
CLASS
  1
VISUALSTYLE
  2
AcDbVisualStyle
  3
ObjectDBX Classes
 90
     4095
280
     0
281
     0
  0
CLASS
  1
MATERIAL
  2
AcDbMaterial
  3
ObjectDBX Classes
 90
     1153
280
     0
281
     0
  0
CLASS
  1
SCALE
  2
AcDbScale
  3
ObjectDBX Classes
 90
     1153
280
     0
281
     0
  0
CLASS
  1
TABLESTYLE
  2
AcDbTableStyle
  3
ObjectDBX Classes
 90
     4095
280
     0
281
     0
  0
CLASS
  1
MLEADERSTYLE
  2
AcDbMLeaderStyle
  3
ACDB_MLEADERSTYLE_CLASS
 90
     4095
280
     0
281
     0
  0
CLASS
  1
SUN
  2
AcDbSun
  3
SCENEOE
 90
     1153
280
     0
281
     0
  0
CLASS
  1
ACDBPLACEHOLDER
  2
AcDbPlaceHolder
  3
ObjectDBX Classes
 90
        0
280
     0
281
     0
  0
CLASS
  1
LAYOUT
  2
AcDbLayout
  3
ObjectDBX Classes
 90
        0
280
     0
281
     0
  0
ENDSEC
  0
SECTION
  2
TABLES
  0
TABLE
  2
VPORT
  5
8
330
0
100
AcDbSymbolTable
 70
     1
  0
VPORT
  5
29
330
8
100
AcDbSymbolTableRecord
100
AcDbViewportTableRecord
  2
*Active
 70
     0
 10
0.0
 20
0.0
 11
1.0
 21
1.0
 12
2374.9
 22
1536.7
 13
0.0
 23
0.0
 14
10.0
 24
10.0
 15
10.0
 25
10.0
 16
0.0
 26
0.0
 36
1.0
 17
0.0
 27
0.0
 37
0.0
 40
3073.4
 41
1.5454545455
 42
50.0
 43
0.0
 44
0.0
 50
0.0
 51
0.0
 71
     0
 72
  2000
 73
     1
 74
     3
 75
     0
 76
     0
 77
     0
 78
     0
281
     0
 65
     1
110
0.0
120
0.0
130
0.0
111
1.0
121
0.0
131
0.0
112
0.0
122
1.0
132
0.0
 79
     0
146
0.0
  0
ENDTAB
  0
TABLE
  2
LTYPE
  5
5
330
0
100
AcDbSymbolTable
 70
     6
  0
LTYPE
  5
14
330
5
100
AcDbSymbolTableRecord
100
AcDbLinetypeTableRecord
  2
ByBlock
 70
     0
  3

 72
    65
 73
     0
 40
0.0
  0
LTYPE
  5
15
330
5
100
AcDbSymbolTableRecord
100
AcDbLinetypeTableRecord
  2
ByLayer
 70
     0
  3

 72
    65
 73
     0
 40
0.0
  0
LTYPE
  5
16
330
5
100
AcDbSymbolTableRecord
100
AcDbLinetypeTableRecord
  2
Continuous
 70
     0
  3
Solid line
 72
    65
 73
     0
 40
0.0
  0
LTYPE
  5
5E
330
5
100
AcDbSymbolTableRecord
100
AcDbLinetypeTableRecord
  2
HIDDEN
 70
     0
  3
Hidden __ __ __ __ __ __ __ __ __ __ __ __ __ __
 72
    65
 73
     2
 40
1.905
 49
1.27
 74
     0
 49
-0.635
 74
     0
  0
LTYPE
  5
5F
330
5
100
AcDbSymbolTableRecord
100
AcDbLinetypeTableRecord
  2
PHANTOM
 70
     0
  3
Phantom ______  __  __  ______  __  __  ______
 72
    65
 73
     6
 40
12.7
 49
6.35
 74
     0
 49
-1.27
 74
     0
 49
1.27
 74
     0
 49
-1.27
 74
     0
 49
1.27
 74
     0
 49
-1.27
 74
     0
  0
LTYPE
  5
60
330
5
100
AcDbSymbolTableRecord
100
AcDbLinetypeTableRecord
  2
CENTER
 70
     0
  3
Center ____ _ ____ _ ____ _ ____ _ ____ _ ____
 72
    65
 73
     4
 40
10.16
 49
6.35
 74
     0
 49
-1.27
 74
     0
 49
1.27
 74
     0
 49
-1.27
 74
     0
  0
LTYPE
  5
61
330
5
100
AcDbSymbolTableRecord
100
AcDbLinetypeTableRecord
  2
CENTERX2
 70
     0
  3
Center (2x) ________  __  ________  __  _____
 72
    65
 73
     4
 40
20.32
 49
12.7
 74
     0
 49
-2.54
 74
     0
 49
2.54
 74
     0
 49
-2.54
 74
     0
  0
LTYPE
  5
62
330
5
100
AcDbSymbolTableRecord
100
AcDbLinetypeTableRecord
  2
DOT2
 70
     0
  3
Dot (.5x) ........................................
 72
    65
 73
     2
 40
0.635
 49
0.0
 74
     0
 49
-0.635
 74
     0
  0
ENDTAB
  0
TABLE
  2
LAYER
  5
2
330
0
100
AcDbSymbolTable
 70
     6
  0
LAYER
  5
10
330
2
100
AcDbSymbolTableRecord
100
AcDbLayerTableRecord
  2
0
 70
     0
 62
     7
  6
Continuous
370
    -3
390
F
  0
LAYER
  5
63
330
2
100
AcDbSymbolTableRecord
100
AcDbLayerTableRecord
  2
SLD-0
 70
     0
 62
   179
  6
Continuous
370
    -3
390
F
  0
LAYER
  5
64
330
2
100
AcDbSymbolTableRecord
100
AcDbLayerTableRecord
  2
WIRE_BOND
 70
     0
 62
     6
  6
Continuous
370
   100
390
F
  0
LAYER
  5
65
330
2
100
AcDbSymbolTableRecord
100
AcDbLayerTableRecord
  2
HIGHLIGHT-BLUE
 70
     0
 62
     5
  6
Continuous
370
    70
390
F
  0
LAYER
  5
66
330
2
100
AcDbSymbolTableRecord
100
AcDbLayerTableRecord
  2
MANUAL_DIM
 70
     0
 62
   114
  6
Continuous
370
    -3
390
F
  0
LAYER
  5
67
330
2
100
AcDbSymbolTableRecord
100
AcDbLayerTableRecord
  2
TORQUE_9-10
 70
     0
 62
   155
  6
Continuous
370
    -3
390
F
  0
ENDTAB
  0
TABLE
  2
STYLE
  5
3
330
0
100
AcDbSymbolTable
 70
     5
  0
STYLE
  5
11
330
3
100
AcDbSymbolTableRecord
100
AcDbTextStyleTableRecord
  2
STANDARD
 70
     0
 40
0.0
 41
1.0
 50
0.0
 71
     0
 42
34.925
  3
GOTHIC.TTF
  4

1001
ACAD
1000
CENTURY GOTHIC
1071
       34
  0
STYLE
  5
7E
330
3
100
AcDbSymbolTableRecord
100
AcDbTextStyleTableRecord
  2
SLDTEXTSTYLE0
 70
     0
 40
0.0
 41
0.913
 50
0.0
 71
     0
 42
34.925
  3
GOTHIC.TTF
  4

1001
ACAD
1000
Century Gothic
1071
      290
  0
STYLE
  5
BA
330
3
100
AcDbSymbolTableRecord
100
AcDbTextStyleTableRecord
  2
SLDTEXTSTYLE1
 70
     0
 40
0.0
 41
0.87
 50
0.0
 71
     0
 42
34.925
  3
ARIALN.TTF
  4

1001
ACAD
1000
Arial Narrow
1071
      290
  0
STYLE
  5
C5
330
3
100
AcDbSymbolTableRecord
100
AcDbTextStyleTableRecord
  2
SLDTEXTSTYLE2
 70
     0
 40
0.0
 41
0.8969072165
 50
0.0
 71
     0
 42
34.925
  3
ARIALN.TTF
  4

1001
ACAD
1000
Arial Narrow
1071
      290
  0
STYLE
  5
CA
330
3
100
AcDbSymbolTableRecord
100
AcDbTextStyleTableRecord
  2
SLDTEXTSTYLE3
 70
     0
 40
0.0
 41
0.8969072165
 50
0.0
 71
     0
 42
34.925
  3
ARIALN.TTF
  4
bigfont
1001
ACAD
1000
Arial Narrow
1071
      290
  0
ENDTAB
  0
TABLE
  2
VIEW
  5
6
330
0
100
AcDbSymbolTable
 70
     0
  0
ENDTAB
  0
TABLE
  2
UCS
  5
7
330
0
100
AcDbSymbolTable
 70
     0
  0
ENDTAB
  0
TABLE
  2
APPID
  5
9
330
0
100
AcDbSymbolTable
 70
     1
  0
APPID
  5
12
330
9
100
AcDbSymbolTableRecord
100
AcDbRegAppTableRecord
  2
ACAD
 70
     0
  0
ENDTAB
  0
TABLE
  2
DIMSTYLE
  5
A
330
0
100
AcDbSymbolTable
 70
    11
100
AcDbDimStyleTable
  0
DIMSTYLE
105
27
330
A
100
AcDbSymbolTableRecord
100
AcDbDimStyleTableRecord
  2
ISO-25
 70
     0
 41
2.5
 42
0.625
 43
3.75
 44
1.25
 73
     0
 74
     0
 77
     1
 78
     8
140
2.5
141
2.5
143
0.0393700787
147
0.625
171
     3
172
     1
178
     0
271
     2
272
     2
274
     3
278
    44
283
     0
284
     8
340
11
  0
DIMSTYLE
105
13E
102
{ACAD_REACTORS
330
13D
330
414
330
49A
102
}
330
A
100
AcDbSymbolTableRecord
100
AcDbDimStyleTableRecord
  2
SLDDIMSTYLE0
 70
     0
 41
22.0
 44
0.0
 45
0.000000001
 78
    12
 79
     3
140
26.19375
143
0.0393700787
147
6.5484375
148
0.000000001
170
     1
172
     1
173
     1
178
     0
271
     1
272
     2
274
     3
276
     2
284
    12
289
     0
340
7E
  0
DIMSTYLE
105
153
102
{ACAD_REACTORS
330
152
330
196
330
1AA
330
471
330
486
102
}
330
A
100
AcDbSymbolTableRecord
100
AcDbDimStyleTableRecord
  2
SLDDIMSTYLE1
 70
     0
 41
22.0
 44
0.0
 45
0.000000001
 78
     4
 79
     1
140
26.19375
143
0.0393700787
147
6.5484375
148
0.000000001
170
     1
173
     1
178
     0
271
     1
272
     2
274
     3
276
     2
284
    12
340
7E
  0
DIMSTYLE
105
1BF
102
{ACAD_REACTORS
330
1BE
330
1E7
330
210
330
224
330
2A3
330
2CD
330
2E1
330
2F5
330
3EB
330
3FF
330
54E
330
58A
330
59F
102
}
330
A
100
AcDbSymbolTableRecord
100
AcDbDimStyleTableRecord
  2
SLDDIMSTYLE2
 70
     0
 41
22.0
 44
0.0
 45
0.000000001
 78
     4
 79
     1
140
26.19375
143
0.0393700787
147
6.5484375
148
0.000000001
170
     1
173
     1
178
     0
271
     1
272
     2
276
     2
284
    12
340
7E
  0
DIMSTYLE
105
1D3
102
{ACAD_REACTORS
330
1D2
102
}
330
A
100
AcDbSymbolTableRecord
100
AcDbDimStyleTableRecord
  2
SLDDIMSTYLE3
 70
     0
 41
22.0
 44
0.0
 45
0.000000001
 78
    12
 79
     3
140
26.19375
143
0.0393700787
147
6.5484375
148
0.000000001
170
     1
172
     1
173
     1
178
     0
271
     1
272
     2
274
     1
276
     2
284
    12
289
     0
340
7E
  0
DIMSTYLE
105
1FB
102
{ACAD_REACTORS
330
1FA
330
576
102
}
330
A
100
AcDbSymbolTableRecord
100
AcDbDimStyleTableRecord
  2
SLDDIMSTYLE4
 70
     0
 41
22.0
 44
0.0
 45
0.000000001
 78
    12
 79
     3
140
26.19375
143
0.0393700787
147
6.5484375
148
0.000000001
170
     1
172
     1
173
     1
178
     0
271
     1
272
     2
276
     2
284
    12
289
     0
340
7E
  0
DIMSTYLE
105
241
330
A
100
AcDbSymbolTableRecord
100
AcDbDimStyleTableRecord
  2
SLDDIMSTYLE5
 70
     0
 41
22.0
 44
0.0
 45
0.000000001
146
22.0
147
0.0
173
     1
178
     0
271
     0
272
     0
276
     2
340
11
  0
DIMSTYLE
105
2B8
102
{ACAD_REACTORS
330
2B7
102
}
330
A
100
AcDbSymbolTableRecord
100
AcDbDimStyleTableRecord
  2
SLDDIMSTYLE6
 70
     0
 41
22.0
 44
0.0
 45
0.000000001
 78
     4
 79
     1
140
26.19375
143
0.0393700787
147
6.5484375
148
0.000000001
170
     1
172
     1
173
     1
178
     0
271
     1
272
     2
276
     2
284
    12
289
     0
340
7E
  0
DIMSTYLE
105
30A
102
{ACAD_REACTORS
330
309
330
333
330
429
330
562
102
}
330
A
100
AcDbSymbolTableRecord
100
AcDbDimStyleTableRecord
  2
SLDDIMSTYLE7
 70
     0
 41
22.0
 44
0.0
 45
0.000000001
 78
    12
 79
     3
140
26.19375
143
0.0393700787
147
6.5484375
148
0.000000001
170
     1
173
     1
178
     0
271
     1
272
     2
276
     2
284
    12
340
7E
  0
DIMSTYLE
105
31F
102
{ACAD_REACTORS
330
31E
102
}
330
A
100
AcDbSymbolTableRecord
100
AcDbDimStyleTableRecord
  2
SLDDIMSTYLE8
 70
     0
 41
22.0
 44
0.0
 45
0.000000001
 78
     4
 79
     1
140
26.19375
143
0.0393700787
147
6.5484375
148
0.000000001
170
     1
171
     1
173
     1
178
     0
271
     1
272
     2
276
     2
284
    12
340
7E
  0
DIMSTYLE
105
449
102
{ACAD_REACTORS
330
448
330
45D
102
}
330
A
100
AcDbSymbolTableRecord
100
AcDbDimStyleTableRecord
  2
SLDDIMSTYLE9
 70
     0
 41
22.0
 44
0.0
 45
0.000000001
 78
    12
 79
     3
140
26.19375
143
0.0393700787
147
6.5484375
148
0.000000001
170
     1
173
     1
178
     0
271
     1
272
     2
274
     3
276
     2
284
    12
340
7E
  0
ENDTAB
  0
TABLE
  2
BLOCK_RECORD
  5
1
330
0
100
AcDbSymbolTable
 70
    59
  0
BLOCK_RECORD
  5
1F
330
1
100
AcDbSymbolTableRecord
100
AcDbBlockTableRecord
  2
*Model_Space
340
22
  0
BLOCK_RECORD
  5
1B
330
1
100
AcDbSymbolTableRecord
100
AcDbBlockTableRecord
  2
*Paper_Space
340
1E
  0
BLOCK_RECORD
  5
23
330
1
100
AcDbSymbolTableRecord
100
AcDbBlockTableRecord
  2
*Paper_Space0
340
26
  0
BLOCK_RECORD
  5
73
330
1
100
AcDbSymbolTableRecord
100
AcDbBlockTableRecord
  2
SW_NOTE_0
340
0
102
{BLKREFS
331
A5
102
}
  0
BLOCK_RECORD
  5
85
330
1
100
AcDbSymbolTableRecord
100
AcDbBlockTableRecord
  2
SW_SYMBOL_MOD_COM
340
0
102
{BLKREFS
331
91
331
16D
331
4AE
102
}
  0
BLOCK_RECORD
  5
95
330
1
100
AcDbSymbolTableRecord
100
AcDbBlockTableRecord
  2
SW_SYMBOL_GTOL_CONC
340
0
102
{BLKREFS
331
9A
331
9F
102
}
  0
BLOCK_RECORD
  5
13F
330
1
100
AcDbSymbolTableRecord
100
AcDbBlockTableRecord
  2
_D
340
0
  0
BLOCK_RECORD
  5
154
330
1
100
AcDbSymbolTableRecord
100
AcDbBlockTableRecord
  2
_D_1
340
0
  0
BLOCK_RECORD
  5
167
330
1
100
AcDbSymbolTableRecord
100
AcDbBlockTableRecord
  2
SW_SYMBOL_MOD_CL
340
0
102
{BLKREFS
331
16C
102
}
  0
BLOCK_RECORD
  5
197
330
1
100
AcDbSymbolTableRecord
100
AcDbBlockTableRecord
  2
_D_2
340
0
  0
BLOCK_RECORD
  5
1AB
330
1
100
AcDbSymbolTableRecord
100
AcDbBlockTableRecord
  2
_D_3
340
0
  0
BLOCK_RECORD
  5
1C0
330
1
100
AcDbSymbolTableRecord
100
AcDbBlockTableRecord
  2
_D_4
340
0
  0
BLOCK_RECORD
  5
1D4
330
1
100
AcDbSymbolTableRecord
100
AcDbBlockTableRecord
  2
_D_5
340
0
  0
BLOCK_RECORD
  5
1E8
330
1
100
AcDbSymbolTableRecord
100
AcDbBlockTableRecord
  2
_D_6
340
0
  0
BLOCK_RECORD
  5
1FC
330
1
100
AcDbSymbolTableRecord
100
AcDbBlockTableRecord
  2
_D_7
340
0
  0
BLOCK_RECORD
  5
211
330
1
100
AcDbSymbolTableRecord
100
AcDbBlockTableRecord
  2
_D_8
340
0
  0
BLOCK_RECORD
  5
225
330
1
100
AcDbSymbolTableRecord
100
AcDbBlockTableRecord
  2
_D_9
340
0
  0
BLOCK_RECORD
  5
238
330
1
100
AcDbSymbolTableRecord
100
AcDbBlockTableRecord
  2
SW_NOTE_0_1
340
0
102
{BLKREFS
331
240
102
}
  0
BLOCK_RECORD
  5
244
330
1
100
AcDbSymbolTableRecord
100
AcDbBlockTableRecord
  2
SW_NOTE_0_2
340
0
102
{BLKREFS
331
24C
102
}
  0
BLOCK_RECORD
  5
24F
330
1
100
AcDbSymbolTableRecord
100
AcDbBlockTableRecord
  2
SW_CENTERMARKSYMBOL_0
340
0
102
{BLKREFS
331
25A
102
}
  0
BLOCK_RECORD
  5
25B
330
1
100
AcDbSymbolTableRecord
100
AcDbBlockTableRecord
  2
SW_CENTERMARKSYMBOL_1
340
0
102
{BLKREFS
331
266
102
}
  0
BLOCK_RECORD
  5
267
330
1
100
AcDbSymbolTableRecord
100
AcDbBlockTableRecord
  2
SW_CENTERMARKSYMBOL_2
340
0
102
{BLKREFS
331
272
102
}
  0
BLOCK_RECORD
  5
273
330
1
100
AcDbSymbolTableRecord
100
AcDbBlockTableRecord
  2
SW_CENTERMARKSYMBOL_3
340
0
102
{BLKREFS
331
27E
102
}
  0
BLOCK_RECORD
  5
2A4
330
1
100
AcDbSymbolTableRecord
100
AcDbBlockTableRecord
  2
_D_10
340
0
  0
BLOCK_RECORD
  5
2B9
330
1
100
AcDbSymbolTableRecord
100
AcDbBlockTableRecord
  2
_D_11
340
0
  0
BLOCK_RECORD
  5
2CE
330
1
100
AcDbSymbolTableRecord
100
AcDbBlockTableRecord
  2
_D_12
340
0
  0
BLOCK_RECORD
  5
2E2
330
1
100
AcDbSymbolTableRecord
100
AcDbBlockTableRecord
  2
_D_13
340
0
  0
BLOCK_RECORD
  5
2F6
330
1
100
AcDbSymbolTableRecord
100
AcDbBlockTableRecord
  2
_D_14
340
0
  0
BLOCK_RECORD
  5
30B
330
1
100
AcDbSymbolTableRecord
100
AcDbBlockTableRecord
  2
_D_15
340
0
  0
BLOCK_RECORD
  5
320
330
1
100
AcDbSymbolTableRecord
100
AcDbBlockTableRecord
  2
_D_16
340
0
  0
BLOCK_RECORD
  5
334
330
1
100
AcDbSymbolTableRecord
100
AcDbBlockTableRecord
  2
_D_17
340
0
  0
BLOCK_RECORD
  5
349
330
1
100
AcDbSymbolTableRecord
100
AcDbBlockTableRecord
  2
SW_NOTE_0_3
340
0
102
{BLKREFS
331
351
102
}
  0
BLOCK_RECORD
  5
354
330
1
100
AcDbSymbolTableRecord
100
AcDbBlockTableRecord
  2
SW_NOTE_0_4
340
0
102
{BLKREFS
331
35C
102
}
  0
BLOCK_RECORD
  5
35F
330
1
100
AcDbSymbolTableRecord
100
AcDbBlockTableRecord
  2
SW_CENTERMARKSYMBOL_4
340
0
102
{BLKREFS
331
36A
102
}
  0
BLOCK_RECORD
  5
36B
330
1
100
AcDbSymbolTableRecord
100
AcDbBlockTableRecord
  2
SW_CENTERMARKSYMBOL_5
340
0
102
{BLKREFS
331
376
102
}
  0
BLOCK_RECORD
  5
377
330
1
100
AcDbSymbolTableRecord
100
AcDbBlockTableRecord
  2
SW_CENTERMARKSYMBOL_6
340
0
102
{BLKREFS
331
382
102
}
  0
BLOCK_RECORD
  5
383
330
1
100
AcDbSymbolTableRecord
100
AcDbBlockTableRecord
  2
SW_CENTERMARKSYMBOL_7
340
0
102
{BLKREFS
331
38E
102
}
  0
BLOCK_RECORD
  5
38F
330
1
100
AcDbSymbolTableRecord
100
AcDbBlockTableRecord
  2
SW_CENTERMARKSYMBOL_8
340
0
102
{BLKREFS
331
39A
102
}
  0
BLOCK_RECORD
  5
39B
330
1
100
AcDbSymbolTableRecord
100
AcDbBlockTableRecord
  2
SW_CENTERMARKSYMBOL_9
340
0
102
{BLKREFS
331
3A6
102
}
  0
BLOCK_RECORD
  5
3EC
330
1
100
AcDbSymbolTableRecord
100
AcDbBlockTableRecord
  2
_D_18
340
0
  0
BLOCK_RECORD
  5
400
330
1
100
AcDbSymbolTableRecord
100
AcDbBlockTableRecord
  2
_D_19
340
0
  0
BLOCK_RECORD
  5
415
330
1
100
AcDbSymbolTableRecord
100
AcDbBlockTableRecord
  2
_D_20
340
0
  0
BLOCK_RECORD
  5
42A
330
1
100
AcDbSymbolTableRecord
100
AcDbBlockTableRecord
  2
_D_21
340
0
  0
BLOCK_RECORD
  5
44A
330
1
100
AcDbSymbolTableRecord
100
AcDbBlockTableRecord
  2
_D_22
340
0
  0
BLOCK_RECORD
  5
45E
330
1
100
AcDbSymbolTableRecord
100
AcDbBlockTableRecord
  2
_D_23
340
0
  0
BLOCK_RECORD
  5
472
330
1
100
AcDbSymbolTableRecord
100
AcDbBlockTableRecord
  2
_D_24
340
0
  0
BLOCK_RECORD
  5
487
330
1
100
AcDbSymbolTableRecord
100
AcDbBlockTableRecord
  2
_D_25
340
0
  0
BLOCK_RECORD
  5
49B
330
1
100
AcDbSymbolTableRecord
100
AcDbBlockTableRecord
  2
_D_26
340
0
  0
BLOCK_RECORD
  5
4AF
330
1
100
AcDbSymbolTableRecord
100
AcDbBlockTableRecord
  2
SW_NOTE_0_5
340
0
102
{BLKREFS
331
4B7
102
}
  0
BLOCK_RECORD
  5
4BA
330
1
100
AcDbSymbolTableRecord
100
AcDbBlockTableRecord
  2
SW_CENTERMARKSYMBOL_10
340
0
102
{BLKREFS
331
4C5
102
}
  0
BLOCK_RECORD
  5
4C6
330
1
100
AcDbSymbolTableRecord
100
AcDbBlockTableRecord
  2
SW_CENTERMARKSYMBOL_11
340
0
102
{BLKREFS
331
4D1
102
}
  0
BLOCK_RECORD
  5
54F
330
1
100
AcDbSymbolTableRecord
100
AcDbBlockTableRecord
  2
_D_27
340
0
  0
BLOCK_RECORD
  5
563
330
1
100
AcDbSymbolTableRecord
100
AcDbBlockTableRecord
  2
_D_28
340
0
  0
BLOCK_RECORD
  5
577
330
1
100
AcDbSymbolTableRecord
100
AcDbBlockTableRecord
  2
_D_29
340
0
  0
BLOCK_RECORD
  5
58B
330
1
100
AcDbSymbolTableRecord
100
AcDbBlockTableRecord
  2
_D_30
340
0
  0
BLOCK_RECORD
  5
5A0
330
1
100
AcDbSymbolTableRecord
100
AcDbBlockTableRecord
  2
_D_31
340
0
  0
BLOCK_RECORD
  5
5B3
330
1
100
AcDbSymbolTableRecord
100
AcDbBlockTableRecord
  2
SW_NOTE_0_6
340
0
102
{BLKREFS
331
5BB
102
}
  0
BLOCK_RECORD
  5
5BE
330
1
100
AcDbSymbolTableRecord
100
AcDbBlockTableRecord
  2
SW_CENTERMARKSYMBOL_12
340
0
102
{BLKREFS
331
5C9
102
}
  0
BLOCK_RECORD
  5
5CA
330
1
100
AcDbSymbolTableRecord
100
AcDbBlockTableRecord
  2
SW_CENTERMARKSYMBOL_13
340
0
102
{BLKREFS
331
5D5
102
}
  0
BLOCK_RECORD
  5
5D6
330
1
100
AcDbSymbolTableRecord
100
AcDbBlockTableRecord
  2
SW_CENTERMARKSYMBOL_14
340
0
102
{BLKREFS
331
5E1
102
}
  0
BLOCK_RECORD
  5
5E2
330
1
100
AcDbSymbolTableRecord
100
AcDbBlockTableRecord
  2
SW_CENTERMARKSYMBOL_15
340
0
102
{BLKREFS
331
5ED
102
}
  0
ENDTAB
  0
ENDSEC
  0
SECTION
  2
BLOCKS
  0
BLOCK
  5
20
330
1F
100
AcDbEntity
  8
0
100
AcDbBlockBegin
  2
*Model_Space
 70
     0
 10
0.0
 20
0.0
 30
0.0
  3
*Model_Space
  1

  0
ENDBLK
  5
21
330
1F
100
AcDbEntity
  8
0
100
AcDbBlockEnd
  0
BLOCK
  5
1C
330
1B
100
AcDbEntity
 67
     1
  8
0
100
AcDbBlockBegin
  2
*Paper_Space
 70
     0
 10
0.0
 20
0.0
 30
0.0
  3
*Paper_Space
  1

  0
ENDBLK
  5
1D
330
1B
100
AcDbEntity
 67
     1
  8
0
100
AcDbBlockEnd
  0
BLOCK
  5
24
330
23
100
AcDbEntity
  8
0
100
AcDbBlockBegin
  2
*Paper_Space0
 70
     0
 10
0.0
 20
0.0
 30
0.0
  3
*Paper_Space0
  1

  0
ENDBLK
  5
25
330
23
100
AcDbEntity
  8
0
100
AcDbBlockEnd
  0
BLOCK
  5
74
330
73
100
AcDbEntity
  8
0
100
AcDbBlockBegin
  2
SW_NOTE_0
 70
     0
 10
0.0
 20
0.0
 30
0.0
  3
SW_NOTE_0
  1

  0
LINE
  5
76
330
73
100
AcDbEntity
  8
0
  6
Continuous
 62
     0
370
     0
100
AcDbLine
 10
-11.5689065424
 20
-185.5785906082
 30
0.0
 11
-11.5689065424
 21
-143.0865066359
 31
0.0
  0
LINE
  5
77
330
73
100
AcDbEntity
  8
0
  6
Continuous
 62
     0
370
     0
100
AcDbLine
 10
-11.5689065424
 20
-143.0865066359
 30
0.0
 11
30.9231774299
 21
-143.0865066359
 31
0.0
  0
LINE
  5
78
330
73
100
AcDbEntity
  8
0
  6
Continuous
 62
     0
370
     0
100
AcDbLine
 10
30.9231774299
 20
-143.0865066359
 30
0.0
 11
30.9231774299
 21
-185.5785906082
 31
0.0
  0
LINE
  5
79
330
73
100
AcDbEntity
  8
0
  6
Continuous
 62
     0
370
     0
100
AcDbLine
 10
30.9231774299
 20
-185.5785906082
 30
0.0
 11
-11.5689065424
 21
-185.5785906082
 31
0.0
  0
LINE
  5
7A
330
73
100
AcDbEntity
  8
0
  6
Continuous
 62
     0
370
     0
100
AcDbLine
 10
-11.5689065424
 20
-284.6186937531
 30
0.0
 11
-11.5689065424
 21
-242.1266097808
 31
0.0
  0
LINE
  5
7B
330
73
100
AcDbEntity
  8
0
  6
Continuous
 62
     0
370
     0
100
AcDbLine
 10
-11.5689065424
 20
-242.1266097808
 30
0.0
 11
30.9231774299
 21
-242.1266097808
 31
0.0
  0
LINE
  5
7C
330
73
100
AcDbEntity
  8
0
  6
Continuous
 62
     0
370
     0
100
AcDbLine
 10
30.9231774299
 20
-242.1266097808
 30
0.0
 11
30.9231774299
 21
-284.6186937531
 31
0.0
  0
LINE
  5
7D
330
73
100
AcDbEntity
  8
0
  6
Continuous
 62
     0
370
     0
100
AcDbLine
 10
30.9231774299
 20
-284.6186937531
 30
0.0
 11
-11.5689065424
 21
-284.6186937531
 31
0.0
  0
MTEXT
  5
7F
330
73
100
AcDbEntity
  8
0
  6
Continuous
 62
     0
370
     0
100
AcDbMText
 10
0.0
 20
33.4584228516
 30
0.0
 40
26.19375
 41
0.0
 71
     1
 72
     1
  1
NOTES: UNLESS OTHERWISE SPECIFIED
  7
SLDTEXTSTYLE0
 73
     1
 44
1.0
  0
MTEXT
  5
80
330
73
100
AcDbEntity
  8
0
  6
Continuous
 62
     0
370
     0
100
AcDbMText
 10
109.9999975413
 20
-12.4665759683
 30
0.0
 40
26.19375
 41
0.0
 71
     1
 72
     1
  1
NET WEIGHT APPROX. 38.0 KG [83.7 LBS].
  7
SLDTEXTSTYLE0
 73
     1
 44
1.0
  0
MTEXT
  5
81
330
73
100
AcDbEntity
  8
0
  6
Continuous
 62
     0
370
     0
100
AcDbMText
 10
0.0
 20
-12.4665759683
 30
0.0
 40
26.19375
 41
0.0
 71
     1
 72
     1
  1
1.
  7
SLDTEXTSTYLE0
 73
     1
 44
1.0
  0
MTEXT
  5
82
330
73
100
AcDbEntity
  8
0
  6
Continuous
 62
     0
370
     0
100
AcDbMText
 10
109.9999975413
 20
-58.3915747881
 30
0.0
 40
26.19375
 41
0.0
 71
     1
 72
     1
  1
PARTS ARE SYMMETRICAL ABOUT CENTER LINES UNLESS OTHERWISE NOTED.
  7
SLDTEXTSTYLE0
 73
     1
 44
1.0
  0
MTEXT
  5
83
330
73
100
AcDbEntity
  8
0
  6
Continuous
 62
     0
370
     0
100
AcDbMText
 10
0.0
 20
-58.3915747881
 30
0.0
 40
26.19375
 41
0.0
 71
     1
 72
     1
  1
2.
  7
SLDTEXTSTYLE0
 73
     1
 44
1.0
  0
MTEXT
  5
84
330
73
100
AcDbEntity
  8
0
  6
Continuous
 62
     0
370
     0
100
AcDbMText
 10
109.9999975413
 20
-104.3165736079
 30
0.0
 40
26.19375
 41
0.0
 71
     1
 72
     1
  1
SYMBOL 
  7
SLDTEXTSTYLE0
 73
     1
 44
1.0
  0
INSERT
  5
91
330
73
100
AcDbEntity
  8
0
  6
Continuous
 62
     0
370
     0
100
AcDbBlockReference
  2
SW_SYMBOL_MOD_COM
 10
271.4095562696
 20
-133.2359336123
 30
0.0
 41
0.0023657471
 42
0.0023657471
 43
0.0023657471
  0
MTEXT
  5
92
330
73
100
AcDbEntity
  8
0
  6
Continuous
 62
     0
370
     0
100
AcDbMText
 10
323.2020381838
 20
-104.3165736079
 30
0.0
 40
26.19375
 41
0.0
 71
     1
 72
     1
  1
INDICATES CENTER OF GRAVITY.
  7
SLDTEXTSTYLE0
 73
     1
 44
1.0
  0
MTEXT
  5
93
330
73
100
AcDbEntity
  8
0
  6
Continuous
 62
     0
370
     0
100
AcDbMText
 10
0.0
 20
-104.3165736079
 30
0.0
 40
26.19375
 41
0.0
 71
     1
 72
     1
  1
3.
  7
SLDTEXTSTYLE0
 73
     1
 44
1.0
  0
MTEXT
  5
94
330
73
100
AcDbEntity
  8
0
  6
Continuous
 62
     0
370
     0
100
AcDbMText
 10
109.9999975413
 20
-148.33662684
 30
0.0
 40
26.19375
 41
0.0
 71
     1
 72
     1
  1
SYMBOL 
  7
SLDTEXTSTYLE0
 73
     1
 44
1.0
  0
INSERT
  5
9A
330
73
100
AcDbEntity
  8
0
  6
Continuous
 62
     0
370
     0
100
AcDbBlockReference
  2
SW_SYMBOL_GTOL_CONC
 10
256.3939578831
 20
-176.8026239539
 30
0.0
 41
0.0020277832
 42
0.0020277832
 43
0.0020277832
  0
MTEXT
  5
9B
330
73
100
AcDbEntity
  8
0
  6
Continuous
 62
     0
370
     0
100
AcDbMText
 10
300.7875196636
 20
-148.33662684
 30
0.0
 40
26.19375
 41
0.0
 71
     1
 72
     1
  1
INDICATES SUSPENSION POINT.
  7
SLDTEXTSTYLE0
 73
     1
 44
1.0
  0
MTEXT
  5
9C
330
73
100
AcDbEntity
  8
0
  6
Continuous
 62
     0
370
     0
100
AcDbMText
 10
0.0
 20
-148.33662684
 30
0.0
 40
26.19375
 41
0.0
 71
     1
 72
     1
  1
4
  7
SLDTEXTSTYLE0
 73
     1
 44
1.0
  0
MTEXT
  5
9D
330
73
100
AcDbEntity
  8
0
  6
Continuous
 62
     0
370
     0
100
AcDbMText
 10
110.0
 20
-203.3566767529
 30
0.0
 40
26.19375
 41
0.0
 71
     1
 72
     1
  1
12 TOTAL: M8-1.25 THD
  7
SLDTEXTSTYLE0
 73
     1
 44
1.0
  0
MTEXT
  5
9E
330
73
100
AcDbEntity
  8
0
  6
Continuous
 62
     0
370
     0
100
AcDbMText
 10
109.9999975413
 20
-247.376729985
 30
0.0
 40
26.19375
 41
0.0
 71
     1
 72
     1
  1
SYMBOL 
  7
SLDTEXTSTYLE0
 73
     1
 44
1.0
  0
INSERT
  5
9F
330
73
100
AcDbEntity
  8
0
  6
Continuous
 62
     0
370
     0
100
AcDbBlockReference
  2
SW_SYMBOL_GTOL_CONC
 10
256.3939578831
 20
-275.8427270988
 30
0.0
 41
0.0020277832
 42
0.0020277832
 43
0.0020277832
  0
MTEXT
  5
A0
330
73
100
AcDbEntity
  8
0
  6
Continuous
 62
     0
370
     0
100
AcDbMText
 10
300.7875196636
 20
-247.376729985
 30
0.0
 40
26.19375
 41
0.0
 71
     1
 72
     1
  1
INDICATES SUSPENSION POINT.
  7
SLDTEXTSTYLE0
 73
     1
 44
1.0
  0
MTEXT
  5
A1
330
73
100
AcDbEntity
  8
0
  6
Continuous
 62
     0
370
     0
100
AcDbMText
 10
0.0
 20
-247.376729985
 30
0.0
 40
26.19375
 41
0.0
 71
     1
 72
     1
  1
5
  7
SLDTEXTSTYLE0
 73
     1
 44
1.0
  0
MTEXT
  5
A2
330
73
100
AcDbEntity
  8
0
  6
Continuous
 62
     0
370
     0
100
AcDbMText
 10
110.0
 20
-302.3967798978
 30
0.0
 40
26.19375
 41
0.0
 71
     1
 72
     1
  1
12 TOTAL: M10-1.5 THD
  7
SLDTEXTSTYLE0
 73
     1
 44
1.0
  0
MTEXT
  5
A3
330
73
100
AcDbEntity
  8
0
  6
Continuous
 62
     0
370
     0
100
AcDbMText
 10
109.9999975413
 20
-348.3217787176
 30
0.0
 40
26.19375
 41
0.0
 71
     1
 72
     1
  1
GRILLE NOT SHOWN FOR CLARITY.
  7
SLDTEXTSTYLE0
 73
     1
 44
1.0
  0
MTEXT
  5
A4
330
73
100
AcDbEntity
  8
0
  6
Continuous
 62
     0
370
     0
100
AcDbMText
 10
0.0
 20
-348.3217787176
 30
0.0
 40
26.19375
 41
0.0
 71
     1
 72
     1
  1
6.
  7
SLDTEXTSTYLE0
 73
     1
 44
1.0
  0
ENDBLK
  5
75
330
73
100
AcDbEntity
  8
0
100
AcDbBlockEnd
  0
BLOCK
  5
86
330
85
100
AcDbEntity
  8
0
100
AcDbBlockBegin
  2
SW_SYMBOL_MOD_COM
 70
     0
 10
0.0
 20
0.0
 30
0.0
  3
SW_SYMBOL_MOD_COM
  1

  0
CIRCLE
  5
88
330
85
100
AcDbEntity
  8
0
  6
Continuous
 62
     0
370
     0
100
AcDbCircle
 10
5500.0
 20
5500.0
 30
0.0
 40
5500.0
  0
LINE
  5
89
330
85
100
AcDbEntity
  8
0
  6
Continuous
 62
     0
370
     0
100
AcDbLine
 10
13750.0
 20
5500.0
 30
0.0
 11
16500.0
 21
5500.0
 31
0.0
  0
LINE
  5
8A
330
85
100
AcDbEntity
  8
0
  6
Continuous
 62
     0
370
     0
100
AcDbLine
 10
5500.0
 20
16500.0
 30
0.0
 11
5500.0
 21
13750.0
 31
0.0
  0
LINE
  5
8B
330
85
100
AcDbEntity
  8
0
  6
Continuous
 62
     0
370
     0
100
AcDbLine
 10
-5500.0
 20
5500.0
 30
0.0
 11
-2750.0
 21
5500.0
 31
0.0
  0
LINE
  5
8C
330
85
100
AcDbEntity
  8
0
  6
Continuous
 62
     0
370
     0
100
AcDbLine
 10
5500.0
 20
-5500.0
 30
0.0
 11
5500.0
 21
-2750.0
 31
0.0
  0
SOLID
  5
8D
330
85
100
AcDbEntity
  8
0
  6
Continuous
 62
     0
370
     0
100
AcDbTrace
 10
5500.0
 20
5500.0
 30
0.0
 11
0.0
 21
5500.0
 31
0.0
 12
5500.0
 22
11000.0
 32
0.0
 13
5500.0
 23
11000.0
 33
0.0
  0
SOLID
  5
8E
330
85
100
AcDbEntity
  8
0
  6
Continuous
 62
     0
370
     0
100
AcDbTrace
 10
5500.0
 20
5500.0
 30
0.0
 11
11000.0
 21
5500.0
 31
0.0
 12
5500.0
 22
0.0
 32
0.0
 13
5500.0
 23
0.0
 33
0.0
  0
HATCH
  5
8F
330
85
100
AcDbEntity
  8
0
  6
Continuous
 62
     0
100
AcDbHatch
 10
0.0
 20
0.0
 30
0.0
210
0.0
220
0.0
230
1.0
  2
SOLID
 70
     1
 71
     0
 91
        1
 92
        0
 93
        2
 72
     2
 10
5500.0
 20
5500.0
 40
5500.0
 50
90.0000000000002
 51
180.0000000000012
 73
     1
 72
     1
 10
0.0
 20
5499.999999999962
 11
5499.999999999981
 21
11000.0
 97
        0
 75
     0
 76
     1
 98
        1
 10
0.0
 20
0.0
  0
HATCH
  5
90
330
85
100
AcDbEntity
  8
0
  6
Continuous
 62
     0
100
AcDbHatch
 10
0.0
 20
0.0
 30
0.0
210
0.0
220
0.0
230
1.0
  2
SOLID
 70
     1
 71
     0
 91
        1
 92
        0
 93
        2
 72
     2
 10
5500.0
 20
5500.0
 40
5500.0
 50
270.0000000000014
 51
360.0000000000016
 73
     1
 72
     1
 10
11000.0
 20
5500.000000000077
 11
5500.000000000057
 21
0.0
 97
        0
 75
     0
 76
     1
 98
        1
 10
0.0
 20
0.0
  0
ENDBLK
  5
87
330
85
100
AcDbEntity
  8
0
100
AcDbBlockEnd
  0
BLOCK
  5
96
330
95
100
AcDbEntity
  8
0
100
AcDbBlockBegin
  2
SW_SYMBOL_GTOL_CONC
 70
     0
 10
0.0
 20
0.0
 30
0.0
  3
SW_SYMBOL_GTOL_CONC
  1

  0
CIRCLE
  5
98
330
95
100
AcDbEntity
  8
0
  6
Continuous
 62
     0
370
     0
100
AcDbCircle
 10
8250.0
 20
5500.0
 30
0.0
 40
8250.0
  0
CIRCLE
  5
99
330
95
100
AcDbEntity
  8
0
  6
Continuous
 62
     0
370
     0
100
AcDbCircle
 10
8250.0
 20
5500.0
 30
0.0
 40
5500.0
  0
ENDBLK
  5
97
330
95
100
AcDbEntity
  8
0
100
AcDbBlockEnd
  0
BLOCK
  5
140
330
13F
100
AcDbEntity
  8
0
100
AcDbBlockBegin
  2
_D
 70
     0
 10
0.0
 20
0.0
 30
0.0
  3
_D
  1

  0
SOLID
  5
142
330
13F
100
AcDbEntity
  8
SLD-0
100
AcDbTrace
 10
1502.9227109052
 20
1393.864710705
 30
0.0
 11
1500.1727109052
 21
1371.864710705
 31
0.0
 12
1505.6727109052
 22
1371.864710705
 32
0.0
 13
1505.6727109052
 23
1371.864710705
 33
0.0
  0
SOLID
  5
143
330
13F
100
AcDbEntity
  8
SLD-0
100
AcDbTrace
 10
1502.9227109052
 20
1529.434710705
 30
0.0
 11
1505.6727109052
 21
1551.434710705
 31
0.0
 12
1500.1727109052
 22
1551.434710705
 32
0.0
 13
1500.1727109052
 23
1551.434710705
 33
0.0
  0
LINE
  5
144
330
13F
100
AcDbEntity
  8
SLD-0
100
AcDbLine
 10
1469.0648628756
 20
1461.6497158272
 30
0.0
 11
1461.0975969707
 21
1461.6497158272
 31
0.0
  0
LINE
  5
145
330
13F
100
AcDbEntity
  8
SLD-0
100
AcDbLine
 10
1461.0975969707
 20
1461.6497158272
 30
0.0
 11
1461.0975969707
 21
1420.0307567803
 31
0.0
  0
LINE
  5
146
330
13F
100
AcDbEntity
  8
SLD-0
100
AcDbLine
 10
1461.0975969707
 20
1420.0307567803
 30
0.0
 11
1469.0648628756
 21
1420.0307567803
 31
0.0
  0
LINE
  5
147
330
13F
100
AcDbEntity
  8
SLD-0
100
AcDbLine
 10
1536.7805589348
 20
1461.6497158272
 30
0.0
 11
1544.7478248396
 21
1461.6497158272
 31
0.0
  0
LINE
  5
148
330
13F
100
AcDbEntity
  8
SLD-0
100
AcDbLine
 10
1544.7478248396
 20
1461.6497158272
 30
0.0
 11
1544.7478248396
 21
1420.0307567803
 31
0.0
  0
LINE
  5
149
330
13F
100
AcDbEntity
  8
SLD-0
100
AcDbLine
 10
1544.7478248396
 20
1420.0307567803
 30
0.0
 11
1536.7805589348
 21
1420.0307567803
 31
0.0
  0
LINE
  5
14A
330
13F
100
AcDbEntity
  8
SLD-0
100
AcDbLine
 10
1633.0435839493
 20
1393.864710705
 30
0.0
 11
1494.5407109052
 21
1393.864710705
 31
0.0
  0
LINE
  5
14B
330
13F
100
AcDbEntity
  8
SLD-0
100
AcDbLine
 10
1931.5140920009
 20
1529.434710705
 30
0.0
 11
1494.5407109052
 21
1529.434710705
 31
0.0
  0
LINE
  5
14C
330
13F
100
AcDbEntity
  8
SLD-0
100
AcDbLine
 10
1502.9227109052
 20
1393.864710705
 30
0.0
 11
1502.9227109052
 21
1349.864710705
 31
0.0
  0
LINE
  5
14D
330
13F
100
AcDbEntity
  8
SLD-0
100
AcDbLine
 10
1502.9227109052
 20
1529.434710705
 30
0.0
 11
1502.9227109052
 21
1573.434710705
 31
0.0
  0
MTEXT
  5
14E
330
13F
100
AcDbEntity
  8
SLD-0
100
AcDbMText
 10
1443.4774489499
 20
1500.4196462941
 30
0.0
 40
26.19375
 41
0.0
 71
     1
 72
     1
  1
 
  7
SLDTEXTSTYLE0
 73
     1
 44
1.0
  0
MTEXT
  5
14F
330
13F
100
AcDbEntity
  8
SLD-0
100
AcDbMText
 10
1459.3877267915
 20
1500.4196488552
 30
0.0
 40
26.19375
 41
0.0
 71
     1
 72
     1
  1
135.6
  7
SLDTEXTSTYLE0
 73
     1
 44
1.0
  0
MTEXT
  5
150
330
13F
100
AcDbEntity
  8
SLD-0
100
AcDbMText
 10
1469.0648628756
 20
1453.4891809125
 30
0.0
 40
26.19375
 41
0.0
 71
     1
 72
     1
  1
5.34
  7
SLDTEXTSTYLE0
 73
     1
 44
1.0
  0
MTEXT
  5
151
330
13F
100
AcDbEntity
  8
SLD-0
100
AcDbMText
 10
1552.7150881834
 20
1500.4196462941
 30
0.0
 40
26.19375
 41
0.0
 71
     1
 72
     1
  1
 
  7
SLDTEXTSTYLE0
 73
     1
 44
1.0
  0
ENDBLK
  5
141
330
13F
100
AcDbEntity
  8
0
100
AcDbBlockEnd
  0
BLOCK
  5
155
330
154
100
AcDbEntity
  8
0
100
AcDbBlockBegin
  2
_D_1
 70
     0
 10
0.0
 20
0.0
 30
0.0
  3
_D_1
  1

  0
SOLID
  5
157
330
154
100
AcDbEntity
  8
SLD-0
100
AcDbTrace
 10
1641.4255839493
 20
1918.2562025293
 30
0.0
 11
1663.4255839493
 21
1915.5062025293
 31
0.0
 12
1663.4255839493
 22
1921.0062025293
 32
0.0
 13
1663.4255839493
 23
1921.0062025293
 33
0.0
  0
SOLID
  5
158
330
154
100
AcDbEntity
  8
SLD-0
100
AcDbTrace
 10
2239.4255839493
 20
1918.2562025293
 30
0.0
 11
2217.4255839493
 21
1921.0062025293
 31
0.0
 12
2217.4255839493
 22
1915.5062025293
 32
0.0
 13
2217.4255839493
 23
1915.5062025293
 33
0.0
  0
LINE
  5
159
330
154
100
AcDbEntity
  8
SLD-0
100
AcDbLine
 10
1896.8906023968
 20
1918.2562076516
 30
0.0
 11
1888.923336492
 21
1918.2562076516
 31
0.0
  0
LINE
  5
15A
330
154
100
AcDbEntity
  8
SLD-0
100
AcDbLine
 10
1888.923336492
 20
1918.2562076516
 30
0.0
 11
1888.923336492
 21
1876.6372486047
 31
0.0
  0
LINE
  5
15B
330
154
100
AcDbEntity
  8
SLD-0
100
AcDbLine
 10
1888.923336492
 20
1876.6372486047
 30
0.0
 11
1896.8906023968
 21
1876.6372486047
 31
0.0
  0
LINE
  5
15C
330
154
100
AcDbEntity
  8
SLD-0
100
AcDbLine
 10
1983.9605655019
 20
1918.2562076516
 30
0.0
 11
1991.9278314067
 21
1918.2562076516
 31
0.0
  0
LINE
  5
15D
330
154
100
AcDbEntity
  8
SLD-0
100
AcDbLine
 10
1991.9278314067
 20
1918.2562076516
 30
0.0
 11
1991.9278314067
 21
1876.6372486047
 31
0.0
  0
LINE
  5
15E
330
154
100
AcDbEntity
  8
SLD-0
100
AcDbLine
 10
1991.9278314067
 20
1876.6372486047
 30
0.0
 11
1983.9605655019
 21
1876.6372486047
 31
0.0
  0
LINE
  5
15F
330
154
100
AcDbEntity
  8
SLD-0
100
AcDbLine
 10
1641.4255839493
 20
1772.246710705
 30
0.0
 11
1641.4255839493
 21
1926.6382025293
 31
0.0
  0
LINE
  5
160
330
154
100
AcDbEntity
  8
SLD-0
100
AcDbLine
 10
2239.4255839493
 20
1772.246710705
 30
0.0
 11
2239.4255839493
 21
1926.6382025293
 31
0.0
  0
LINE
  5
161
330
154
100
AcDbEntity
  8
SLD-0
100
AcDbLine
 10
1641.4255839493
 20
1918.2562025293
 30
0.0
 11
1865.9931862127
 21
1918.2562025293
 31
0.0
  0
LINE
  5
162
330
154
100
AcDbEntity
  8
SLD-0
100
AcDbLine
 10
2239.4255839493
 20
1918.2562025293
 30
0.0
 11
2014.857981686
 21
1918.2562025293
 31
0.0
  0
MTEXT
  5
163
330
154
100
AcDbEntity
  8
SLD-0
100
AcDbMText
 10
1871.3031884712
 20
1957.0261381184
 30
0.0
 40
26.19375
 41
0.0
 71
     1
 72
     1
  1
 
  7
SLDTEXTSTYLE0
 73
     1
 44
1.0
  0
MTEXT
  5
164
330
154
100
AcDbEntity
  8
SLD-0
100
AcDbMText
 10
1896.8905998357
 20
1957.0261406796
 30
0.0
 40
26.19375
 41
0.0
 71
     1
 72
     1
  1
598.0
  7
SLDTEXTSTYLE0
 73
     1
 44
1.0
  0
MTEXT
  5
165
330
154
100
AcDbEntity
  8
SLD-0
100
AcDbMText
 10
1896.8906023968
 20
1910.0956727368
 30
0.0
 40
26.19375
 41
0.0
 71
     1
 72
     1
  1
23.54
  7
SLDTEXTSTYLE0
 73
     1
 44
1.0
  0
MTEXT
  5
166
330
154
100
AcDbEntity
  8
SLD-0
100
AcDbMText
 10
1999.8950947505
 20
1957.0261381184
 30
0.0
 40
26.19375
 41
0.0
 71
     1
 72
     1
  1
 
  7
SLDTEXTSTYLE0
 73
     1
 44
1.0
  0
ENDBLK
  5
156
330
154
100
AcDbEntity
  8
0
100
AcDbBlockEnd
  0
BLOCK
  5
168
330
167
100
AcDbEntity
  8
0
100
AcDbBlockBegin
  2
SW_SYMBOL_MOD_CL
 70
     0
 10
0.0
 20
0.0
 30
0.0
  3
SW_SYMBOL_MOD_CL
  1

  0
MTEXT
  5
16A
330
167
100
AcDbEntity
  8
SLD-0
 62
     0
100
AcDbMText
 10
4400.0
 20
6600.0
 30
0.0
 40
8611.620795107
 41
0.0
 71
     5
 72
     1
  1
C
  7
SLDTEXTSTYLE0
 73
     1
 44
1.0
  0
MTEXT
  5
16B
330
167
100
AcDbEntity
  8
SLD-0
 62
     0
100
AcDbMText
 10
6600.0
 20
3300.0
 30
0.0
 40
8611.620795107
 41
0.0
 71
     5
 72
     1
  1
L
  7
SLDTEXTSTYLE0
 73
     1
 44
1.0
  0
ENDBLK
  5
169
330
167
100
AcDbEntity
  8
0
100
AcDbBlockEnd
  0
BLOCK
  5
198
330
197
100
AcDbEntity
  8
0
100
AcDbBlockBegin
  2
_D_2
 70
     0
 10
0.0
 20
0.0
 30
0.0
  3
_D_2
  1

  0
SOLID
  5
19A
330
197
100
AcDbEntity
  8
SLD-0
100
AcDbTrace
 10
2450.6414501196
 20
1383.864710705
 30
0.0
 11
2453.3914501196
 21
1405.864710705
 31
0.0
 12
2447.8914501196
 22
1405.864710705
 32
0.0
 13
2447.8914501196
 23
1405.864710705
 33
0.0
  0
SOLID
  5
19B
330
197
100
AcDbEntity
  8
SLD-0
100
AcDbTrace
 10
2450.6414501196
 20
1763.864710705
 30
0.0
 11
2447.8914501196
 21
1741.864710705
 31
0.0
 12
2453.3914501196
 22
1741.864710705
 32
0.0
 13
2453.3914501196
 23
1741.864710705
 33
0.0
  0
LINE
  5
19C
330
197
100
AcDbEntity
  8
SLD-0
100
AcDbLine
 10
2407.106468567
 20
1573.8647158272
 30
0.0
 11
2399.1392026622
 21
1573.8647158272
 31
0.0
  0
LINE
  5
19D
330
197
100
AcDbEntity
  8
SLD-0
100
AcDbLine
 10
2399.1392026622
 20
1573.8647158272
 30
0.0
 11
2399.1392026622
 21
1532.2457567803
 31
0.0
  0
LINE
  5
19E
330
197
100
AcDbEntity
  8
SLD-0
100
AcDbLine
 10
2399.1392026622
 20
1532.2457567803
 30
0.0
 11
2407.106468567
 21
1532.2457567803
 31
0.0
  0
LINE
  5
19F
330
197
100
AcDbEntity
  8
SLD-0
100
AcDbLine
 10
2494.1764316721
 20
1573.8647158272
 30
0.0
 11
2502.1436975769
 21
1573.8647158272
 31
0.0
  0
LINE
  5
1A0
330
197
100
AcDbEntity
  8
SLD-0
100
AcDbLine
 10
2502.1436975769
 20
1573.8647158272
 30
0.0
 11
2502.1436975769
 21
1532.2457567803
 31
0.0
  0
LINE
  5
1A1
330
197
100
AcDbEntity
  8
SLD-0
100
AcDbLine
 10
2502.1436975769
 20
1532.2457567803
 30
0.0
 11
2494.1764316721
 21
1532.2457567803
 31
0.0
  0
LINE
  5
1A2
330
197
100
AcDbEntity
  8
SLD-0
100
AcDbLine
 10
2727.1163807932
 20
1383.864710705
 30
0.0
 11
2442.2594501196
 21
1383.864710705
 31
0.0
  0
LINE
  5
1A3
330
197
100
AcDbEntity
  8
SLD-0
100
AcDbLine
 10
2703.8663807932
 20
1763.864710705
 30
0.0
 11
2442.2594501196
 21
1763.864710705
 31
0.0
  0
LINE
  5
1A4
330
197
100
AcDbEntity
  8
SLD-0
100
AcDbLine
 10
2450.6414501196
 20
1383.864710705
 30
0.0
 11
2450.6414501196
 21
1526.9342402011
 31
0.0
  0
LINE
  5
1A5
330
197
100
AcDbEntity
  8
SLD-0
100
AcDbLine
 10
2450.6414501196
 20
1763.864710705
 30
0.0
 11
2450.6414501196
 21
1620.7951812088
 31
0.0
  0
MTEXT
  5
1A6
330
197
100
AcDbEntity
  8
SLD-0
100
AcDbMText
 10
2381.5190546414
 20
1612.6346462941
 30
0.0
 40
26.19375
 41
0.0
 71
     1
 72
     1
  1
 
  7
SLDTEXTSTYLE0
 73
     1
 44
1.0
  0
MTEXT
  5
1A7
330
197
100
AcDbEntity
  8
SLD-0
100
AcDbMText
 10
2407.1064660059
 20
1612.6346488552
 30
0.0
 40
26.19375
 41
0.0
 71
     1
 72
     1
  1
380.0
  7
SLDTEXTSTYLE0
 73
     1
 44
1.0
  0
MTEXT
  5
1A8
330
197
100
AcDbEntity
  8
SLD-0
100
AcDbMText
 10
2407.106468567
 20
1565.7041809125
 30
0.0
 40
26.19375
 41
0.0
 71
     1
 72
     1
  1
14.96
  7
SLDTEXTSTYLE0
 73
     1
 44
1.0
  0
MTEXT
  5
1A9
330
197
100
AcDbEntity
  8
SLD-0
100
AcDbMText
 10
2510.1109609207
 20
1612.6346462941
 30
0.0
 40
26.19375
 41
0.0
 71
     1
 72
     1
  1
 
  7
SLDTEXTSTYLE0
 73
     1
 44
1.0
  0
ENDBLK
  5
199
330
197
100
AcDbEntity
  8
0
100
AcDbBlockEnd
  0
BLOCK
  5
1AC
330
1AB
100
AcDbEntity
  8
0
100
AcDbBlockBegin
  2
_D_3
 70
     0
 10
0.0
 20
0.0
 30
0.0
  3
_D_3
  1

  0
SOLID
  5
1AE
330
1AB
100
AcDbEntity
  8
SLD-0
100
AcDbTrace
 10
2602.2483807932
 20
1393.864710705
 30
0.0
 11
2604.9983807932
 21
1415.864710705
 31
0.0
 12
2599.4983807932
 22
1415.864710705
 32
0.0
 13
2599.4983807932
 23
1415.864710705
 33
0.0
  0
SOLID
  5
1AF
330
1AB
100
AcDbEntity
  8
SLD-0
100
AcDbTrace
 10
2602.2483807932
 20
1763.864710705
 30
0.0
 11
2599.4983807932
 21
1741.864710705
 31
0.0
 12
2604.9983807932
 22
1741.864710705
 32
0.0
 13
2604.9983807932
 23
1741.864710705
 33
0.0
  0
LINE
  5
1B0
330
1AB
100
AcDbEntity
  8
SLD-0
100
AcDbLine
 10
2558.7133992407
 20
1578.8647158272
 30
0.0
 11
2550.7461333358
 21
1578.8647158272
 31
0.0
  0
LINE
  5
1B1
330
1AB
100
AcDbEntity
  8
SLD-0
100
AcDbLine
 10
2550.7461333358
 20
1578.8647158272
 30
0.0
 11
2550.7461333358
 21
1537.2457567803
 31
0.0
  0
LINE
  5
1B2
330
1AB
100
AcDbEntity
  8
SLD-0
100
AcDbLine
 10
2550.7461333358
 20
1537.2457567803
 30
0.0
 11
2558.7133992407
 21
1537.2457567803
 31
0.0
  0
LINE
  5
1B3
330
1AB
100
AcDbEntity
  8
SLD-0
100
AcDbLine
 10
2645.7833623457
 20
1578.8647158272
 30
0.0
 11
2653.7506282506
 21
1578.8647158272
 31
0.0
  0
LINE
  5
1B4
330
1AB
100
AcDbEntity
  8
SLD-0
100
AcDbLine
 10
2653.7506282506
 20
1578.8647158272
 30
0.0
 11
2653.7506282506
 21
1537.2457567803
 31
0.0
  0
LINE
  5
1B5
330
1AB
100
AcDbEntity
  8
SLD-0
100
AcDbLine
 10
2653.7506282506
 20
1537.2457567803
 30
0.0
 11
2645.7833623457
 21
1537.2457567803
 31
0.0
  0
LINE
  5
1B6
330
1AB
100
AcDbEntity
  8
SLD-0
100
AcDbLine
 10
2703.8663807932
 20
1393.864710705
 30
0.0
 11
2593.8663807932
 21
1393.864710705
 31
0.0
  0
LINE
  5
1B7
330
1AB
100
AcDbEntity
  8
SLD-0
100
AcDbLine
 10
2703.8663807932
 20
1763.864710705
 30
0.0
 11
2593.8663807932
 21
1763.864710705
 31
0.0
  0
LINE
  5
1B8
330
1AB
100
AcDbEntity
  8
SLD-0
100
AcDbLine
 10
2602.2483807932
 20
1393.864710705
 30
0.0
 11
2602.2483807932
 21
1531.9342402011
 31
0.0
  0
LINE
  5
1B9
330
1AB
100
AcDbEntity
  8
SLD-0
100
AcDbLine
 10
2602.2483807932
 20
1763.864710705
 30
0.0
 11
2602.2483807932
 21
1625.7951812088
 31
0.0
  0
MTEXT
  5
1BA
330
1AB
100
AcDbEntity
  8
SLD-0
100
AcDbMText
 10
2533.125985315
 20
1617.6346462941
 30
0.0
 40
26.19375
 41
0.0
 71
     1
 72
     1
  1
 
  7
SLDTEXTSTYLE0
 73
     1
 44
1.0
  0
MTEXT
  5
1BB
330
1AB
100
AcDbEntity
  8
SLD-0
100
AcDbMText
 10
2558.7133966795
 20
1617.6346488552
 30
0.0
 40
26.19375
 41
0.0
 71
     1
 72
     1
  1
370.0
  7
SLDTEXTSTYLE0
 73
     1
 44
1.0
  0
MTEXT
  5
1BC
330
1AB
100
AcDbEntity
  8
SLD-0
100
AcDbMText
 10
2558.7133992407
 20
1570.7041809125
 30
0.0
 40
26.19375
 41
0.0
 71
     1
 72
     1
  1
14.57
  7
SLDTEXTSTYLE0
 73
     1
 44
1.0
  0
MTEXT
  5
1BD
330
1AB
100
AcDbEntity
  8
SLD-0
100
AcDbMText
 10
2661.7178915943
 20
1617.6346462941
 30
0.0
 40
26.19375
 41
0.0
 71
     1
 72
     1
  1
 
  7
SLDTEXTSTYLE0
 73
     1
 44
1.0
  0
ENDBLK
  5
1AD
330
1AB
100
AcDbEntity
  8
0
100
AcDbBlockEnd
  0
BLOCK
  5
1C1
330
1C0
100
AcDbEntity
  8
0
100
AcDbBlockBegin
  2
_D_4
 70
     0
 10
0.0
 20
0.0
 30
0.0
  3
_D_4
  1

  0
SOLID
  5
1C3
330
1C0
100
AcDbEntity
  8
SLD-0
100
AcDbTrace
 10
2812.2483807932
 20
1273.864710705
 30
0.0
 11
2834.2483807932
 21
1271.114710705
 31
0.0
 12
2834.2483807932
 22
1276.614710705
 32
0.0
 13
2834.2483807932
 23
1276.614710705
 33
0.0
  0
SOLID
  5
1C4
330
1C0
100
AcDbEntity
  8
SLD-0
100
AcDbTrace
 10
3302.2483807932
 20
1273.864710705
 30
0.0
 11
3280.2483807932
 21
1276.614710705
 31
0.0
 12
3280.2483807932
 22
1271.114710705
 32
0.0
 13
3280.2483807932
 23
1271.114710705
 33
0.0
  0
LINE
  5
1C5
330
1C0
100
AcDbEntity
  8
SLD-0
100
AcDbLine
 10
3013.7134018018
 20
1298.0211712435
 30
0.0
 11
3005.7461358969
 21
1298.0211712435
 31
0.0
  0
LINE
  5
1C6
330
1C0
100
AcDbEntity
  8
SLD-0
100
AcDbLine
 10
3005.7461358969
 20
1298.0211712435
 30
0.0
 11
3005.7461358969
 21
1256.4022121966
 31
0.0
  0
LINE
  5
1C7
330
1C0
100
AcDbEntity
  8
SLD-0
100
AcDbLine
 10
3005.7461358969
 20
1256.4022121966
 30
0.0
 11
3013.7134018018
 21
1256.4022121966
 31
0.0
  0
LINE
  5
1C8
330
1C0
100
AcDbEntity
  8
SLD-0
100
AcDbLine
 10
3100.7833649068
 20
1298.0211712435
 30
0.0
 11
3108.7506308117
 21
1298.0211712435
 31
0.0
  0
LINE
  5
1C9
330
1C0
100
AcDbEntity
  8
SLD-0
100
AcDbLine
 10
3108.7506308117
 20
1298.0211712435
 30
0.0
 11
3108.7506308117
 21
1256.4022121966
 31
0.0
  0
LINE
  5
1CA
330
1C0
100
AcDbEntity
  8
SLD-0
100
AcDbLine
 10
3108.7506308117
 20
1256.4022121966
 30
0.0
 11
3100.7833649068
 21
1256.4022121966
 31
0.0
  0
LINE
  5
1CB
330
1C0
100
AcDbEntity
  8
SLD-0
100
AcDbLine
 10
2812.2483807932
 20
1414.382710705
 30
0.0
 11
2812.2483807932
 21
1265.482710705
 31
0.0
  0
LINE
  5
1CC
330
1C0
100
AcDbEntity
  8
SLD-0
100
AcDbLine
 10
3302.2483807932
 20
1414.382710705
 30
0.0
 11
3302.2483807932
 21
1265.482710705
 31
0.0
  0
LINE
  5
1CD
330
1C0
100
AcDbEntity
  8
SLD-0
100
AcDbLine
 10
2812.2483807932
 20
1273.864710705
 30
0.0
 11
2958.8050463269
 21
1273.864710705
 31
0.0
  0
LINE
  5
1CE
330
1C0
100
AcDbEntity
  8
SLD-0
100
AcDbLine
 10
3302.2483807932
 20
1273.864710705
 30
0.0
 11
3155.6917152595
 21
1273.864710705
 31
0.0
  0
MTEXT
  5
1CF
330
1C0
100
AcDbEntity
  8
SLD-0
100
AcDbMText
 10
3013.7133992407
 20
1336.7911042714
 30
0.0
 40
26.19375
 41
0.0
 71
     1
 72
     1
  1
490.0
  7
SLDTEXTSTYLE0
 73
     1
 44
1.0
  0
MTEXT
  5
1D0
330
1C0
100
AcDbEntity
  8
SLD-0
100
AcDbMText
 10
3013.7134018018
 20
1289.8606363287
 30
0.0
 40
26.19375
 41
0.0
 71
     1
 72
     1
  1
19.29
  7
SLDTEXTSTYLE0
 73
     1
 44
1.0
  0
MTEXT
  5
1D1
330
1C0
100
AcDbEntity
  8
SLD-0
100
AcDbMText
 10
2964.1150485854
 20
1242.9301658248
 30
0.0
 40
26.19375
 41
0.0
 71
     1
 72
     1
  1
BOTH SIDES
  7
SLDTEXTSTYLE0
 73
     1
 44
1.0
  0
ENDBLK
  5
1C2
330
1C0
100
AcDbEntity
  8
0
100
AcDbBlockEnd
  0
BLOCK
  5
1D5
330
1D4
100
AcDbEntity
  8
0
100
AcDbBlockBegin
  2
_D_5
 70
     0
 10
0.0
 20
0.0
 30
0.0
  3
_D_5
  1

  0
SOLID
  5
1D7
330
1D4
100
AcDbEntity
  8
SLD-0
100
AcDbTrace
 10
3478.7553155366
 20
1434.264710705
 30
0.0
 11
3481.5053155366
 21
1456.264710705
 31
0.0
 12
3476.0053155366
 22
1456.264710705
 32
0.0
 13
3476.0053155366
 23
1456.264710705
 33
0.0
  0
SOLID
  5
1D8
330
1D4
100
AcDbEntity
  8
SLD-0
100
AcDbTrace
 10
3478.7553155366
 20
1393.864710705
 30
0.0
 11
3476.0053155366
 21
1371.864710705
 31
0.0
 12
3481.5053155366
 22
1371.864710705
 32
0.0
 13
3481.5053155366
 23
1371.864710705
 33
0.0
  0
LINE
  5
1D9
330
1D4
100
AcDbEntity
  8
SLD-0
100
AcDbLine
 10
3575.9608090513
 20
1298.0211712435
 30
0.0
 11
3567.9935431465
 21
1298.0211712435
 31
0.0
  0
LINE
  5
1DA
330
1D4
100
AcDbEntity
  8
SLD-0
100
AcDbLine
 10
3567.9935431465
 20
1298.0211712435
 30
0.0
 11
3567.9935431465
 21
1256.4022121966
 31
0.0
  0
LINE
  5
1DB
330
1D4
100
AcDbEntity
  8
SLD-0
100
AcDbLine
 10
3567.9935431465
 20
1256.4022121966
 30
0.0
 11
3575.9608090513
 21
1256.4022121966
 31
0.0
  0
LINE
  5
1DC
330
1D4
100
AcDbEntity
  8
SLD-0
100
AcDbLine
 10
3643.6765051105
 20
1298.0211712435
 30
0.0
 11
3651.6437710154
 21
1298.0211712435
 31
0.0
  0
LINE
  5
1DD
330
1D4
100
AcDbEntity
  8
SLD-0
100
AcDbLine
 10
3651.6437710154
 20
1298.0211712435
 30
0.0
 11
3651.6437710154
 21
1256.4022121966
 31
0.0
  0
LINE
  5
1DE
330
1D4
100
AcDbEntity
  8
SLD-0
100
AcDbLine
 10
3651.6437710154
 20
1256.4022121966
 30
0.0
 11
3643.6765051105
 21
1256.4022121966
 31
0.0
  0
LINE
  5
1DF
330
1D4
100
AcDbEntity
  8
SLD-0
100
AcDbLine
 10
3322.1303807932
 20
1434.264710705
 30
0.0
 11
3487.1373155366
 21
1434.264710705
 31
0.0
  0
LINE
  5
1E0
330
1D4
100
AcDbEntity
  8
SLD-0
100
AcDbLine
 10
3410.6303807932
 20
1393.864710705
 30
0.0
 11
3487.1373155366
 21
1393.864710705
 31
0.0
  0
LINE
  5
1E1
330
1D4
100
AcDbEntity
  8
SLD-0
100
AcDbLine
 10
3500.7553155366
 20
1273.864710705
 30
0.0
 11
3478.7553155366
 21
1273.864710705
 31
0.0
  0
LINE
  5
1E2
330
1D4
100
AcDbEntity
  8
SLD-0
100
AcDbLine
 10
3478.7553155366
 20
1273.864710705
 30
0.0
 11
3478.7553155366
 21
1393.864710705
 31
0.0
  0
LINE
  5
1E3
330
1D4
100
AcDbEntity
  8
SLD-0
100
AcDbLine
 10
3478.7553155366
 20
1434.264710705
 30
0.0
 11
3478.7553155366
 21
1478.264710705
 31
0.0
  0
MTEXT
  5
1E4
330
1D4
100
AcDbEntity
  8
SLD-0
100
AcDbMText
 10
3575.9608064902
 20
1336.7911042714
 30
0.0
 40
26.19375
 41
0.0
 71
     1
 72
     1
  1
40.4
  7
SLDTEXTSTYLE0
 73
     1
 44
1.0
  0
MTEXT
  5
1E5
330
1D4
100
AcDbEntity
  8
SLD-0
100
AcDbMText
 10
3575.9608090513
 20
1289.8606363287
 30
0.0
 40
26.19375
 41
0.0
 71
     1
 72
     1
  1
1.59
  7
SLDTEXTSTYLE0
 73
     1
 44
1.0
  0
MTEXT
  5
1E6
330
1D4
100
AcDbEntity
  8
SLD-0
100
AcDbMText
 10
3516.685322312
 20
1242.9301658248
 30
0.0
 40
26.19375
 41
0.0
 71
     1
 72
     1
  1
BOTH SIDES
  7
SLDTEXTSTYLE0
 73
     1
 44
1.0
  0
ENDBLK
  5
1D6
330
1D4
100
AcDbEntity
  8
0
100
AcDbBlockEnd
  0
BLOCK
  5
1E9
330
1E8
100
AcDbEntity
  8
0
100
AcDbBlockBegin
  2
_D_6
 70
     0
 10
0.0
 20
0.0
 30
0.0
  3
_D_6
  1

  0
SOLID
  5
1EB
330
1E8
100
AcDbEntity
  8
SLD-0
100
AcDbTrace
 10
2712.2483807932
 20
1273.864710705
 30
0.0
 11
2734.2483807932
 21
1271.114710705
 31
0.0
 12
2734.2483807932
 22
1276.614710705
 32
0.0
 13
2734.2483807932
 23
1276.614710705
 33
0.0
  0
SOLID
  5
1EC
330
1E8
100
AcDbEntity
  8
SLD-0
100
AcDbTrace
 10
2812.2483807932
 20
1273.864710705
 30
0.0
 11
2790.2483807932
 21
1276.614710705
 31
0.0
 12
2790.2483807932
 22
1271.114710705
 32
0.0
 13
2790.2483807932
 23
1271.114710705
 33
0.0
  0
LINE
  5
1ED
330
1E8
100
AcDbEntity
  8
SLD-0
100
AcDbLine
 10
2568.3905353247
 20
1298.0211712435
 30
0.0
 11
2560.4232694199
 21
1298.0211712435
 31
0.0
  0
LINE
  5
1EE
330
1E8
100
AcDbEntity
  8
SLD-0
100
AcDbLine
 10
2560.4232694199
 20
1298.0211712435
 30
0.0
 11
2560.4232694199
 21
1256.4022121966
 31
0.0
  0
LINE
  5
1EF
330
1E8
100
AcDbEntity
  8
SLD-0
100
AcDbLine
 10
2560.4232694199
 20
1256.4022121966
 30
0.0
 11
2568.3905353247
 21
1256.4022121966
 31
0.0
  0
LINE
  5
1F0
330
1E8
100
AcDbEntity
  8
SLD-0
100
AcDbLine
 10
2636.1062313839
 20
1298.0211712435
 30
0.0
 11
2644.0734972888
 21
1298.0211712435
 31
0.0
  0
LINE
  5
1F1
330
1E8
100
AcDbEntity
  8
SLD-0
100
AcDbLine
 10
2644.0734972888
 20
1298.0211712435
 30
0.0
 11
2644.0734972888
 21
1256.4022121966
 31
0.0
  0
LINE
  5
1F2
330
1E8
100
AcDbEntity
  8
SLD-0
100
AcDbLine
 10
2644.0734972888
 20
1256.4022121966
 30
0.0
 11
2636.1062313839
 21
1256.4022121966
 31
0.0
  0
LINE
  5
1F3
330
1E8
100
AcDbEntity
  8
SLD-0
100
AcDbLine
 10
2712.2483807932
 20
1385.482710705
 30
0.0
 11
2712.2483807932
 21
1265.482710705
 31
0.0
  0
LINE
  5
1F4
330
1E8
100
AcDbEntity
  8
SLD-0
100
AcDbLine
 10
2812.2483807932
 20
1414.382710705
 30
0.0
 11
2812.2483807932
 21
1265.482710705
 31
0.0
  0
LINE
  5
1F5
330
1E8
100
AcDbEntity
  8
SLD-0
100
AcDbLine
 10
2712.2483807932
 20
1273.864710705
 30
0.0
 11
2700.6917152595
 21
1273.864710705
 31
0.0
  0
LINE
  5
1F6
330
1E8
100
AcDbEntity
  8
SLD-0
100
AcDbLine
 10
2812.2483807932
 20
1273.864710705
 30
0.0
 11
2712.2483807932
 21
1273.864710705
 31
0.0
  0
MTEXT
  5
1F7
330
1E8
100
AcDbEntity
  8
SLD-0
100
AcDbMText
 10
2558.7133992407
 20
1336.7911042714
 30
0.0
 40
26.19375
 41
0.0
 71
     1
 72
     1
  1
100.0
  7
SLDTEXTSTYLE0
 73
     1
 44
1.0
  0
MTEXT
  5
1F8
330
1E8
100
AcDbEntity
  8
SLD-0
100
AcDbMText
 10
2568.3905353247
 20
1289.8606363287
 30
0.0
 40
26.19375
 41
0.0
 71
     1
 72
     1
  1
3.94
  7
SLDTEXTSTYLE0
 73
     1
 44
1.0
  0
MTEXT
  5
1F9
330
1E8
100
AcDbEntity
  8
SLD-0
100
AcDbMText
 10
2509.1150485854
 20
1242.9301658248
 30
0.0
 40
26.19375
 41
0.0
 71
     1
 72
     1
  1
BOTH SIDES
  7
SLDTEXTSTYLE0
 73
     1
 44
1.0
  0
ENDBLK
  5
1EA
330
1E8
100
AcDbEntity
  8
0
100
AcDbBlockEnd
  0
BLOCK
  5
1FD
330
1FC
100
AcDbEntity
  8
0
100
AcDbBlockBegin
  2
_D_7
 70
     0
 10
0.0
 20
0.0
 30
0.0
  3
_D_7
  1

  0
SOLID
  5
1FF
330
1FC
100
AcDbEntity
  8
SLD-0
100
AcDbTrace
 10
3464.5636711312
 20
1723.464710705
 30
0.0
 11
3461.8136711312
 21
1701.464710705
 31
0.0
 12
3467.3136711312
 22
1701.464710705
 32
0.0
 13
3467.3136711312
 23
1701.464710705
 33
0.0
  0
SOLID
  5
200
330
1FC
100
AcDbEntity
  8
SLD-0
100
AcDbTrace
 10
3464.5636711312
 20
1763.864710705
 30
0.0
 11
3467.3136711312
 21
1785.864710705
 31
0.0
 12
3461.8136711312
 22
1785.864710705
 32
0.0
 13
3461.8136711312
 23
1785.864710705
 33
0.0
  0
LINE
  5
201
330
1FC
100
AcDbEntity
  8
SLD-0
100
AcDbLine
 10
3528.0810918323
 20
1661.9256583858
 30
0.0
 11
3520.1138259274
 21
1661.9256583858
 31
0.0
  0
LINE
  5
202
330
1FC
100
AcDbEntity
  8
SLD-0
100
AcDbLine
 10
3520.1138259274
 20
1661.9256583858
 30
0.0
 11
3520.1138259274
 21
1620.3066993389
 31
0.0
  0
LINE
  5
203
330
1FC
100
AcDbEntity
  8
SLD-0
100
AcDbLine
 10
3520.1138259274
 20
1620.3066993389
 30
0.0
 11
3528.0810918323
 21
1620.3066993389
 31
0.0
  0
LINE
  5
204
330
1FC
100
AcDbEntity
  8
SLD-0
100
AcDbLine
 10
3595.7967878915
 20
1661.9256583858
 30
0.0
 11
3603.7640537964
 21
1661.9256583858
 31
0.0
  0
LINE
  5
205
330
1FC
100
AcDbEntity
  8
SLD-0
100
AcDbLine
 10
3603.7640537964
 20
1661.9256583858
 30
0.0
 11
3603.7640537964
 21
1620.3066993389
 31
0.0
  0
LINE
  5
206
330
1FC
100
AcDbEntity
  8
SLD-0
100
AcDbLine
 10
3603.7640537964
 20
1620.3066993389
 30
0.0
 11
3595.7967878915
 21
1620.3066993389
 31
0.0
  0
LINE
  5
207
330
1FC
100
AcDbEntity
  8
SLD-0
100
AcDbLine
 10
3322.1303807932
 20
1723.464710705
 30
0.0
 11
3472.9456711312
 21
1723.464710705
 31
0.0
  0
LINE
  5
208
330
1FC
100
AcDbEntity
  8
SLD-0
100
AcDbLine
 10
3410.6303807932
 20
1763.864710705
 30
0.0
 11
3472.9456711312
 21
1763.864710705
 31
0.0
  0
LINE
  5
209
330
1FC
100
AcDbEntity
  8
SLD-0
100
AcDbLine
 10
3486.5636711312
 20
1661.9256532635
 30
0.0
 11
3464.5636711312
 21
1661.9256532635
 31
0.0
  0
LINE
  5
20A
330
1FC
100
AcDbEntity
  8
SLD-0
100
AcDbLine
 10
3464.5636711312
 20
1661.9256532635
 30
0.0
 11
3464.5636711312
 21
1723.464710705
 31
0.0
  0
LINE
  5
20B
330
1FC
100
AcDbEntity
  8
SLD-0
100
AcDbLine
 10
3464.5636711312
 20
1763.864710705
 30
0.0
 11
3464.5636711312
 21
1807.864710705
 31
0.0
  0
MTEXT
  5
20C
330
1FC
100
AcDbEntity
  8
SLD-0
100
AcDbMText
 10
3502.4936779066
 20
1700.6955888526
 30
0.0
 40
26.19375
 41
0.0
 71
     1
 72
     1
  1
 
  7
SLDTEXTSTYLE0
 73
     1
 44
1.0
  0
MTEXT
  5
20D
330
1FC
100
AcDbEntity
  8
SLD-0
100
AcDbMText
 10
3528.0810892712
 20
1700.6955914137
 30
0.0
 40
26.19375
 41
0.0
 71
     1
 72
     1
  1
40.4
  7
SLDTEXTSTYLE0
 73
     1
 44
1.0
  0
MTEXT
  5
20E
330
1FC
100
AcDbEntity
  8
SLD-0
100
AcDbMText
 10
3528.0810918323
 20
1653.765123471
 30
0.0
 40
26.19375
 41
0.0
 71
     1
 72
     1
  1
1.59
  7
SLDTEXTSTYLE0
 73
     1
 44
1.0
  0
MTEXT
  5
20F
330
1FC
100
AcDbEntity
  8
SLD-0
100
AcDbMText
 10
3611.7313171401
 20
1700.6955888526
 30
0.0
 40
26.19375
 41
0.0
 71
     1
 72
     1
  1
 
  7
SLDTEXTSTYLE0
 73
     1
 44
1.0
  0
ENDBLK
  5
1FE
330
1FC
100
AcDbEntity
  8
0
100
AcDbBlockEnd
  0
BLOCK
  5
212
330
211
100
AcDbEntity
  8
0
100
AcDbBlockBegin
  2
_D_8
 70
     0
 10
0.0
 20
0.0
 30
0.0
  3
_D_8
  1

  0
SOLID
  5
214
330
211
100
AcDbEntity
  8
SLD-0
100
AcDbTrace
 10
2812.2483807932
 20
1958.1265601579
 30
0.0
 11
2834.2483807932
 21
1955.3765601579
 31
0.0
 12
2834.2483807932
 22
1960.8765601579
 32
0.0
 13
2834.2483807932
 23
1960.8765601579
 33
0.0
  0
SOLID
  5
215
330
211
100
AcDbEntity
  8
SLD-0
100
AcDbTrace
 10
3302.2483807932
 20
1958.1265601579
 30
0.0
 11
3280.2483807932
 21
1960.8765601579
 31
0.0
 12
3280.2483807932
 22
1955.3765601579
 32
0.0
 13
3280.2483807932
 23
1955.3765601579
 33
0.0
  0
LINE
  5
216
330
211
100
AcDbEntity
  8
SLD-0
100
AcDbLine
 10
3013.7133992407
 20
1958.1265652802
 30
0.0
 11
3005.7461333358
 21
1958.1265652802
 31
0.0
  0
LINE
  5
217
330
211
100
AcDbEntity
  8
SLD-0
100
AcDbLine
 10
3005.7461333358
 20
1958.1265652802
 30
0.0
 11
3005.7461333358
 21
1916.5076062333
 31
0.0
  0
LINE
  5
218
330
211
100
AcDbEntity
  8
SLD-0
100
AcDbLine
 10
3005.7461333358
 20
1916.5076062333
 30
0.0
 11
3013.7133992407
 21
1916.5076062333
 31
0.0
  0
LINE
  5
219
330
211
100
AcDbEntity
  8
SLD-0
100
AcDbLine
 10
3100.7833623457
 20
1958.1265652802
 30
0.0
 11
3108.7506282506
 21
1958.1265652802
 31
0.0
  0
LINE
  5
21A
330
211
100
AcDbEntity
  8
SLD-0
100
AcDbLine
 10
3108.7506282506
 20
1958.1265652802
 30
0.0
 11
3108.7506282506
 21
1916.5076062333
 31
0.0
  0
LINE
  5
21B
330
211
100
AcDbEntity
  8
SLD-0
100
AcDbLine
 10
3108.7506282506
 20
1916.5076062333
 30
0.0
 11
3100.7833623457
 21
1916.5076062333
 31
0.0
  0
LINE
  5
21C
330
211
100
AcDbEntity
  8
SLD-0
100
AcDbLine
 10
2812.2483807932
 20
1743.346710705
 30
0.0
 11
2812.2483807932
 21
1966.5085601579
 31
0.0
  0
LINE
  5
21D
330
211
100
AcDbEntity
  8
SLD-0
100
AcDbLine
 10
3302.2483807932
 20
1743.346710705
 30
0.0
 11
3302.2483807932
 21
1966.5085601579
 31
0.0
  0
LINE
  5
21E
330
211
100
AcDbEntity
  8
SLD-0
100
AcDbLine
 10
2812.2483807932
 20
1958.1265601579
 30
0.0
 11
2982.8159830565
 21
1958.1265601579
 31
0.0
  0
LINE
  5
21F
330
211
100
AcDbEntity
  8
SLD-0
100
AcDbLine
 10
3302.2483807932
 20
1958.1265601579
 30
0.0
 11
3131.6807785298
 21
1958.1265601579
 31
0.0
  0
MTEXT
  5
220
330
211
100
AcDbEntity
  8
SLD-0
100
AcDbMText
 10
2988.125985315
 20
1996.896495747
 30
0.0
 40
26.19375
 41
0.0
 71
     1
 72
     1
  1
 
  7
SLDTEXTSTYLE0
 73
     1
 44
1.0
  0
MTEXT
  5
221
330
211
100
AcDbEntity
  8
SLD-0
100
AcDbMText
 10
3013.7133966795
 20
1996.8964983081
 30
0.0
 40
26.19375
 41
0.0
 71
     1
 72
     1
  1
490.0
  7
SLDTEXTSTYLE0
 73
     1
 44
1.0
  0
MTEXT
  5
222
330
211
100
AcDbEntity
  8
SLD-0
100
AcDbMText
 10
3013.7133992407
 20
1949.9660303654
 30
0.0
 40
26.19375
 41
0.0
 71
     1
 72
     1
  1
19.29
  7
SLDTEXTSTYLE0
 73
     1
 44
1.0
  0
MTEXT
  5
223
330
211
100
AcDbEntity
  8
SLD-0
100
AcDbMText
 10
3116.7178915943
 20
1996.896495747
 30
0.0
 40
26.19375
 41
0.0
 71
     1
 72
     1
  1
 
  7
SLDTEXTSTYLE0
 73
     1
 44
1.0
  0
ENDBLK
  5
213
330
211
100
AcDbEntity
  8
0
100
AcDbBlockEnd
  0
BLOCK
  5
226
330
225
100
AcDbEntity
  8
0
100
AcDbBlockBegin
  2
_D_9
 70
     0
 10
0.0
 20
0.0
 30
0.0
  3
_D_9
  1

  0
SOLID
  5
228
330
225
100
AcDbEntity
  8
SLD-0
100
AcDbTrace
 10
2812.2483807932
 20
1958.1265601579
 30
0.0
 11
2790.2483807932
 21
1960.8765601579
 31
0.0
 12
2790.2483807932
 22
1955.3765601579
 32
0.0
 13
2790.2483807932
 23
1955.3765601579
 33
0.0
  0
SOLID
  5
229
330
225
100
AcDbEntity
  8
SLD-0
100
AcDbTrace
 10
2712.2483807932
 20
1958.1265601579
 30
0.0
 11
2734.2483807932
 21
1955.3765601579
 31
0.0
 12
2734.2483807932
 22
1960.8765601579
 32
0.0
 13
2734.2483807932
 23
1960.8765601579
 33
0.0
  0
LINE
  5
22A
330
225
100
AcDbEntity
  8
SLD-0
100
AcDbLine
 10
2568.3905327636
 20
1958.1265652802
 30
0.0
 11
2560.4232668587
 21
1958.1265652802
 31
0.0
  0
LINE
  5
22B
330
225
100
AcDbEntity
  8
SLD-0
100
AcDbLine
 10
2560.4232668587
 20
1958.1265652802
 30
0.0
 11
2560.4232668587
 21
1916.5076062333
 31
0.0
  0
LINE
  5
22C
330
225
100
AcDbEntity
  8
SLD-0
100
AcDbLine
 10
2560.4232668587
 20
1916.5076062333
 30
0.0
 11
2568.3905327636
 21
1916.5076062333
 31
0.0
  0
LINE
  5
22D
330
225
100
AcDbEntity
  8
SLD-0
100
AcDbLine
 10
2636.1062288228
 20
1958.1265652802
 30
0.0
 11
2644.0734947277
 21
1958.1265652802
 31
0.0
  0
LINE
  5
22E
330
225
100
AcDbEntity
  8
SLD-0
100
AcDbLine
 10
2644.0734947277
 20
1958.1265652802
 30
0.0
 11
2644.0734947277
 21
1916.5076062333
 31
0.0
  0
LINE
  5
22F
330
225
100
AcDbEntity
  8
SLD-0
100
AcDbLine
 10
2644.0734947277
 20
1916.5076062333
 30
0.0
 11
2636.1062288228
 21
1916.5076062333
 31
0.0
  0
LINE
  5
230
330
225
100
AcDbEntity
  8
SLD-0
100
AcDbLine
 10
2812.2483807932
 20
1743.346710705
 30
0.0
 11
2812.2483807932
 21
1966.5085601579
 31
0.0
  0
LINE
  5
231
330
225
100
AcDbEntity
  8
SLD-0
100
AcDbLine
 10
2712.2483807932
 20
1772.246710705
 30
0.0
 11
2712.2483807932
 21
1966.5085601579
 31
0.0
  0
LINE
  5
232
330
225
100
AcDbEntity
  8
SLD-0
100
AcDbLine
 10
2812.2483807932
 20
1958.1265601579
 30
0.0
 11
2712.2483807932
 21
1958.1265601579
 31
0.0
  0
LINE
  5
233
330
225
100
AcDbEntity
  8
SLD-0
100
AcDbLine
 10
2712.2483807932
 20
1958.1265601579
 30
0.0
 11
2667.0036450069
 21
1958.1265601579
 31
0.0
  0
MTEXT
  5
234
330
225
100
AcDbEntity
  8
SLD-0
100
AcDbMText
 10
2542.8031188379
 20
1996.896495747
 30
0.0
 40
26.19375
 41
0.0
 71
     1
 72
     1
  1
 
  7
SLDTEXTSTYLE0
 73
     1
 44
1.0
  0
MTEXT
  5
235
330
225
100
AcDbEntity
  8
SLD-0
100
AcDbMText
 10
2558.7133966795
 20
1996.8964983081
 30
0.0
 40
26.19375
 41
0.0
 71
     1
 72
     1
  1
100.0
  7
SLDTEXTSTYLE0
 73
     1
 44
1.0
  0
MTEXT
  5
236
330
225
100
AcDbEntity
  8
SLD-0
100
AcDbMText
 10
2568.3905327636
 20
1949.9660303654
 30
0.0
 40
26.19375
 41
0.0
 71
     1
 72
     1
  1
3.94
  7
SLDTEXTSTYLE0
 73
     1
 44
1.0
  0
MTEXT
  5
237
330
225
100
AcDbEntity
  8
SLD-0
100
AcDbMText
 10
2652.0407580714
 20
1996.896495747
 30
0.0
 40
26.19375
 41
0.0
 71
     1
 72
     1
  1
 
  7
SLDTEXTSTYLE0
 73
     1
 44
1.0
  0
ENDBLK
  5
227
330
225
100
AcDbEntity
  8
0
100
AcDbBlockEnd
  0
BLOCK
  5
239
330
238
100
AcDbEntity
  8
0
100
AcDbBlockBegin
  2
SW_NOTE_0_1
 70
     0
 10
0.0
 20
0.0
 30
0.0
  3
SW_NOTE_0_1
  1

  0
LINE
  5
23B
330
238
100
AcDbEntity
  8
SLD-0
 62
     0
100
AcDbLine
 10
0.0
 20
-33.5413048934
 30
0.0
 11
0.0
 21
29.9467754078
 31
0.0
  0
LINE
  5
23C
330
238
100
AcDbEntity
  8
SLD-0
 62
     0
100
AcDbLine
 10
0.0
 20
29.9467754078
 30
0.0
 11
63.4880803011
 21
29.9467754078
 31
0.0
  0
LINE
  5
23D
330
238
100
AcDbEntity
  8
SLD-0
 62
     0
100
AcDbLine
 10
63.4880803011
 20
29.9467754078
 30
0.0
 11
63.4880803011
 21
-33.5413048934
 31
0.0
  0
LINE
  5
23E
330
238
100
AcDbEntity
  8
SLD-0
 62
     0
100
AcDbLine
 10
63.4880803011
 20
-33.5413048934
 30
0.0
 11
0.0
 21
-33.5413048934
 31
0.0
  0
MTEXT
  5
23F
330
238
100
AcDbEntity
  8
SLD-0
 62
     0
100
AcDbMText
 10
31.480283613
 20
10.9550029215
 30
0.0
 40
26.19375
 41
0.0
 71
     2
 72
     1
  1
5
  7
SLDTEXTSTYLE0
 73
     1
 44
1.0
  0
ENDBLK
  5
23A
330
238
100
AcDbEntity
  8
0
100
AcDbBlockEnd
  0
BLOCK
  5
245
330
244
100
AcDbEntity
  8
0
100
AcDbBlockBegin
  2
SW_NOTE_0_2
 70
     0
 10
0.0
 20
0.0
 30
0.0
  3
SW_NOTE_0_2
  1

  0
LINE
  5
247
330
244
100
AcDbEntity
  8
SLD-0
 62
     0
100
AcDbLine
 10
0.0
 20
-33.5413048934
 30
0.0
 11
0.0
 21
29.9467754078
 31
0.0
  0
LINE
  5
248
330
244
100
AcDbEntity
  8
SLD-0
 62
     0
100
AcDbLine
 10
0.0
 20
29.9467754078
 30
0.0
 11
63.4880803011
 21
29.9467754078
 31
0.0
  0
LINE
  5
249
330
244
100
AcDbEntity
  8
SLD-0
 62
     0
100
AcDbLine
 10
63.4880803011
 20
29.9467754078
 30
0.0
 11
63.4880803011
 21
-33.5413048934
 31
0.0
  0
LINE
  5
24A
330
244
100
AcDbEntity
  8
SLD-0
 62
     0
100
AcDbLine
 10
63.4880803011
 20
-33.5413048934
 30
0.0
 11
0.0
 21
-33.5413048934
 31
0.0
  0
MTEXT
  5
24B
330
244
100
AcDbEntity
  8
SLD-0
 62
     0
100
AcDbMText
 10
31.480283613
 20
10.9550029215
 30
0.0
 40
26.19375
 41
0.0
 71
     2
 72
     1
  1
4
  7
SLDTEXTSTYLE0
 73
     1
 44
1.0
  0
ENDBLK
  5
246
330
244
100
AcDbEntity
  8
0
100
AcDbBlockEnd
  0
BLOCK
  5
250
330
24F
100
AcDbEntity
  8
0
100
AcDbBlockBegin
  2
SW_CENTERMARKSYMBOL_0
 70
     0
 10
0.0
 20
0.0
 30
0.0
  3
SW_CENTERMARKSYMBOL_0
  1

  0
LINE
  5
252
330
24F
100
AcDbEntity
  8
SLD-0
 62
     0
100
AcDbLine
 10
0.0
 20
0.0
 30
0.0
 11
0.0
 21
6.0
 31
0.0
  0
LINE
  5
253
330
24F
100
AcDbEntity
  8
SLD-0
 62
     0
100
AcDbLine
 10
0.0
 20
0.0
 30
0.0
 11
-6.0
 21
0.0
 31
0.0
  0
LINE
  5
254
330
24F
100
AcDbEntity
  8
SLD-0
 62
     0
100
AcDbLine
 10
0.0
 20
0.0
 30
0.0
 11
0.0
 21
-6.0
 31
0.0
  0
LINE
  5
255
330
24F
100
AcDbEntity
  8
SLD-0
 62
     0
100
AcDbLine
 10
0.0
 20
0.0
 30
0.0
 11
6.0
 21
0.0
 31
0.0
  0
LINE
  5
256
330
24F
100
AcDbEntity
  8
SLD-0
 62
     0
100
AcDbLine
 10
0.0
 20
6.0
 30
0.0
 11
0.0
 21
11.5
 31
0.0
  0
LINE
  5
257
330
24F
100
AcDbEntity
  8
SLD-0
 62
     0
100
AcDbLine
 10
-6.0
 20
0.0
 30
0.0
 11
-11.5
 21
0.0
 31
0.0
  0
LINE
  5
258
330
24F
100
AcDbEntity
  8
SLD-0
 62
     0
100
AcDbLine
 10
0.0
 20
-6.0
 30
0.0
 11
0.0
 21
-11.5
 31
0.0
  0
LINE
  5
259
330
24F
100
AcDbEntity
  8
SLD-0
 62
     0
100
AcDbLine
 10
6.0
 20
0.0
 30
0.0
 11
11.5
 21
0.0
 31
0.0
  0
ENDBLK
  5
251
330
24F
100
AcDbEntity
  8
0
100
AcDbBlockEnd
  0
BLOCK
  5
25C
330
25B
100
AcDbEntity
  8
0
100
AcDbBlockBegin
  2
SW_CENTERMARKSYMBOL_1
 70
     0
 10
0.0
 20
0.0
 30
0.0
  3
SW_CENTERMARKSYMBOL_1
  1

  0
LINE
  5
25E
330
25B
100
AcDbEntity
  8
SLD-0
 62
     0
100
AcDbLine
 10
0.0
 20
0.0
 30
0.0
 11
0.0
 21
6.0
 31
0.0
  0
LINE
  5
25F
330
25B
100
AcDbEntity
  8
SLD-0
 62
     0
100
AcDbLine
 10
0.0
 20
0.0
 30
0.0
 11
-6.0
 21
0.0
 31
0.0
  0
LINE
  5
260
330
25B
100
AcDbEntity
  8
SLD-0
 62
     0
100
AcDbLine
 10
0.0
 20
0.0
 30
0.0
 11
0.0
 21
-6.0
 31
0.0
  0
LINE
  5
261
330
25B
100
AcDbEntity
  8
SLD-0
 62
     0
100
AcDbLine
 10
0.0
 20
0.0
 30
0.0
 11
6.0
 21
0.0
 31
0.0
  0
LINE
  5
262
330
25B
100
AcDbEntity
  8
SLD-0
 62
     0
100
AcDbLine
 10
0.0
 20
6.0
 30
0.0
 11
0.0
 21
11.5
 31
0.0
  0
LINE
  5
263
330
25B
100
AcDbEntity
  8
SLD-0
 62
     0
100
AcDbLine
 10
-6.0
 20
0.0
 30
0.0
 11
-11.5
 21
0.0
 31
0.0
  0
LINE
  5
264
330
25B
100
AcDbEntity
  8
SLD-0
 62
     0
100
AcDbLine
 10
0.0
 20
-6.0
 30
0.0
 11
0.0
 21
-11.5
 31
0.0
  0
LINE
  5
265
330
25B
100
AcDbEntity
  8
SLD-0
 62
     0
100
AcDbLine
 10
6.0
 20
0.0
 30
0.0
 11
11.5
 21
0.0
 31
0.0
  0
ENDBLK
  5
25D
330
25B
100
AcDbEntity
  8
0
100
AcDbBlockEnd
  0
BLOCK
  5
268
330
267
100
AcDbEntity
  8
0
100
AcDbBlockBegin
  2
SW_CENTERMARKSYMBOL_2
 70
     0
 10
0.0
 20
0.0
 30
0.0
  3
SW_CENTERMARKSYMBOL_2
  1

  0
LINE
  5
26A
330
267
100
AcDbEntity
  8
SLD-0
 62
     0
100
AcDbLine
 10
0.0
 20
0.0
 30
0.0
 11
0.0
 21
6.0
 31
0.0
  0
LINE
  5
26B
330
267
100
AcDbEntity
  8
SLD-0
 62
     0
100
AcDbLine
 10
0.0
 20
0.0
 30
0.0
 11
-6.0
 21
0.0
 31
0.0
  0
LINE
  5
26C
330
267
100
AcDbEntity
  8
SLD-0
 62
     0
100
AcDbLine
 10
0.0
 20
0.0
 30
0.0
 11
0.0
 21
-6.0
 31
0.0
  0
LINE
  5
26D
330
267
100
AcDbEntity
  8
SLD-0
 62
     0
100
AcDbLine
 10
0.0
 20
0.0
 30
0.0
 11
6.0
 21
0.0
 31
0.0
  0
LINE
  5
26E
330
267
100
AcDbEntity
  8
SLD-0
 62
     0
100
AcDbLine
 10
0.0
 20
6.0
 30
0.0
 11
0.0
 21
11.5
 31
0.0
  0
LINE
  5
26F
330
267
100
AcDbEntity
  8
SLD-0
 62
     0
100
AcDbLine
 10
-6.0
 20
0.0
 30
0.0
 11
-11.5
 21
0.0
 31
0.0
  0
LINE
  5
270
330
267
100
AcDbEntity
  8
SLD-0
 62
     0
100
AcDbLine
 10
0.0
 20
-6.0
 30
0.0
 11
0.0
 21
-11.5
 31
0.0
  0
LINE
  5
271
330
267
100
AcDbEntity
  8
SLD-0
 62
     0
100
AcDbLine
 10
6.0
 20
0.0
 30
0.0
 11
11.5
 21
0.0
 31
0.0
  0
ENDBLK
  5
269
330
267
100
AcDbEntity
  8
0
100
AcDbBlockEnd
  0
BLOCK
  5
274
330
273
100
AcDbEntity
  8
0
100
AcDbBlockBegin
  2
SW_CENTERMARKSYMBOL_3
 70
     0
 10
0.0
 20
0.0
 30
0.0
  3
SW_CENTERMARKSYMBOL_3
  1

  0
LINE
  5
276
330
273
100
AcDbEntity
  8
SLD-0
 62
     0
100
AcDbLine
 10
0.0
 20
0.0
 30
0.0
 11
0.0
 21
6.0
 31
0.0
  0
LINE
  5
277
330
273
100
AcDbEntity
  8
SLD-0
 62
     0
100
AcDbLine
 10
0.0
 20
0.0
 30
0.0
 11
-6.0
 21
0.0
 31
0.0
  0
LINE
  5
278
330
273
100
AcDbEntity
  8
SLD-0
 62
     0
100
AcDbLine
 10
0.0
 20
0.0
 30
0.0
 11
0.0
 21
-6.0
 31
0.0
  0
LINE
  5
279
330
273
100
AcDbEntity
  8
SLD-0
 62
     0
100
AcDbLine
 10
0.0
 20
0.0
 30
0.0
 11
6.0
 21
0.0
 31
0.0
  0
LINE
  5
27A
330
273
100
AcDbEntity
  8
SLD-0
 62
     0
100
AcDbLine
 10
0.0
 20
6.0
 30
0.0
 11
0.0
 21
11.5
 31
0.0
  0
LINE
  5
27B
330
273
100
AcDbEntity
  8
SLD-0
 62
     0
100
AcDbLine
 10
-6.0
 20
0.0
 30
0.0
 11
-11.5
 21
0.0
 31
0.0
  0
LINE
  5
27C
330
273
100
AcDbEntity
  8
SLD-0
 62
     0
100
AcDbLine
 10
0.0
 20
-6.0
 30
0.0
 11
0.0
 21
-11.5
 31
0.0
  0
LINE
  5
27D
330
273
100
AcDbEntity
  8
SLD-0
 62
     0
100
AcDbLine
 10
6.0
 20
0.0
 30
0.0
 11
11.5
 21
0.0
 31
0.0
  0
ENDBLK
  5
275
330
273
100
AcDbEntity
  8
0
100
AcDbBlockEnd
  0
BLOCK
  5
2A5
330
2A4
100
AcDbEntity
  8
0
100
AcDbBlockBegin
  2
_D_10
 70
     0
 10
0.0
 20
0.0
 30
0.0
  3
_D_10
  1

  0
SOLID
  5
2A7
330
2A4
100
AcDbEntity
  8
SLD-0
100
AcDbTrace
 10
1141.074193159
 20
1668.864710705
 30
0.0
 11
1138.324193159
 21
1646.864710705
 31
0.0
 12
1143.824193159
 22
1646.864710705
 32
0.0
 13
1143.824193159
 23
1646.864710705
 33
0.0
  0
SOLID
  5
2A8
330
2A4
100
AcDbEntity
  8
SLD-0
100
AcDbTrace
 10
1141.074193159
 20
1433.864710705
 30
0.0
 11
1143.824193159
 21
1455.864710705
 31
0.0
 12
1138.324193159
 22
1455.864710705
 32
0.0
 13
1138.324193159
 23
1455.864710705
 33
0.0
  0
LINE
  5
2A9
330
2A4
100
AcDbEntity
  8
SLD-0
100
AcDbLine
 10
1107.2163451294
 20
1551.3647158272
 30
0.0
 11
1099.2490792246
 21
1551.3647158272
 31
0.0
  0
LINE
  5
2AA
330
2A4
100
AcDbEntity
  8
SLD-0
100
AcDbLine
 10
1099.2490792246
 20
1551.3647158272
 30
0.0
 11
1099.2490792246
 21
1509.7457567803
 31
0.0
  0
LINE
  5
2AB
330
2A4
100
AcDbEntity
  8
SLD-0
100
AcDbLine
 10
1099.2490792246
 20
1509.7457567803
 30
0.0
 11
1107.2163451294
 21
1509.7457567803
 31
0.0
  0
LINE
  5
2AC
330
2A4
100
AcDbEntity
  8
SLD-0
100
AcDbLine
 10
1174.9320411886
 20
1551.3647158272
 30
0.0
 11
1182.8993070935
 21
1551.3647158272
 31
0.0
  0
LINE
  5
2AD
330
2A4
100
AcDbEntity
  8
SLD-0
100
AcDbLine
 10
1182.8993070935
 20
1551.3647158272
 30
0.0
 11
1182.8993070935
 21
1509.7457567803
 31
0.0
  0
LINE
  5
2AE
330
2A4
100
AcDbEntity
  8
SLD-0
100
AcDbLine
 10
1182.8993070935
 20
1509.7457567803
 30
0.0
 11
1174.9320411886
 21
1509.7457567803
 31
0.0
  0
LINE
  5
2AF
330
2A4
100
AcDbEntity
  8
SLD-0
100
AcDbLine
 10
923.3511726888
 20
1668.864710705
 30
0.0
 11
1149.456193159
 21
1668.864710705
 31
0.0
  0
LINE
  5
2B0
330
2A4
100
AcDbEntity
  8
SLD-0
100
AcDbLine
 10
884.3511726888
 20
1433.864710705
 30
0.0
 11
1149.456193159
 21
1433.864710705
 31
0.0
  0
LINE
  5
2B1
330
2A4
100
AcDbEntity
  8
SLD-0
100
AcDbLine
 10
1141.074193159
 20
1668.864710705
 30
0.0
 11
1141.074193159
 21
1598.2951812088
 31
0.0
  0
LINE
  5
2B2
330
2A4
100
AcDbEntity
  8
SLD-0
100
AcDbLine
 10
1141.074193159
 20
1433.864710705
 30
0.0
 11
1141.074193159
 21
1504.4342402011
 31
0.0
  0
MTEXT
  5
2B3
330
2A4
100
AcDbEntity
  8
SLD-0
100
AcDbMText
 10
1081.6289312038
 20
1590.1346462941
 30
0.0
 40
26.19375
 41
0.0
 71
     1
 72
     1
  1
 
  7
SLDTEXTSTYLE0
 73
     1
 44
1.0
  0
MTEXT
  5
2B4
330
2A4
100
AcDbEntity
  8
SLD-0
100
AcDbMText
 10
1097.5392090454
 20
1590.1346488552
 30
0.0
 40
26.19375
 41
0.0
 71
     1
 72
     1
  1
235.0
  7
SLDTEXTSTYLE0
 73
     1
 44
1.0
  0
MTEXT
  5
2B5
330
2A4
100
AcDbEntity
  8
SLD-0
100
AcDbMText
 10
1107.2163451294
 20
1543.2041809125
 30
0.0
 40
26.19375
 41
0.0
 71
     1
 72
     1
  1
9.25
  7
SLDTEXTSTYLE0
 73
     1
 44
1.0
  0
MTEXT
  5
2B6
330
2A4
100
AcDbEntity
  8
SLD-0
100
AcDbMText
 10
1190.8665704372
 20
1590.1346462941
 30
0.0
 40
26.19375
 41
0.0
 71
     1
 72
     1
  1
 
  7
SLDTEXTSTYLE0
 73
     1
 44
1.0
  0
ENDBLK
  5
2A6
330
2A4
100
AcDbEntity
  8
0
100
AcDbBlockEnd
  0
BLOCK
  5
2BA
330
2B9
100
AcDbEntity
  8
0
100
AcDbBlockBegin
  2
_D_11
 70
     0
 10
0.0
 20
0.0
 30
0.0
  3
_D_11
  1

  0
SOLID
  5
2BC
330
2B9
100
AcDbEntity
  8
SLD-0
100
AcDbTrace
 10
1141.074193159
 20
1433.864710705
 30
0.0
 11
1143.824193159
 21
1455.864710705
 31
0.0
 12
1138.324193159
 22
1455.864710705
 32
0.0
 13
1138.324193159
 23
1455.864710705
 33
0.0
  0
SOLID
  5
2BD
330
2B9
100
AcDbEntity
  8
SLD-0
100
AcDbTrace
 10
1141.074193159
 20
1393.864710705
 30
0.0
 11
1138.324193159
 21
1371.864710705
 31
0.0
 12
1143.824193159
 22
1371.864710705
 32
0.0
 13
1143.824193159
 23
1371.864710705
 33
0.0
  0
LINE
  5
2BE
330
2B9
100
AcDbEntity
  8
SLD-0
100
AcDbLine
 10
1204.5916138601
 20
1312.9804117692
 30
0.0
 11
1196.6243479552
 21
1312.9804117692
 31
0.0
  0
LINE
  5
2BF
330
2B9
100
AcDbEntity
  8
SLD-0
100
AcDbLine
 10
1196.6243479552
 20
1312.9804117692
 30
0.0
 11
1196.6243479552
 21
1271.3614527223
 31
0.0
  0
LINE
  5
2C0
330
2B9
100
AcDbEntity
  8
SLD-0
100
AcDbLine
 10
1196.6243479552
 20
1271.3614527223
 30
0.0
 11
1204.5916138601
 21
1271.3614527223
 31
0.0
  0
LINE
  5
2C1
330
2B9
100
AcDbEntity
  8
SLD-0
100
AcDbLine
 10
1272.3073099193
 20
1312.9804117692
 30
0.0
 11
1280.2745758242
 21
1312.9804117692
 31
0.0
  0
LINE
  5
2C2
330
2B9
100
AcDbEntity
  8
SLD-0
100
AcDbLine
 10
1280.2745758242
 20
1312.9804117692
 30
0.0
 11
1280.2745758242
 21
1271.3614527223
 31
0.0
  0
LINE
  5
2C3
330
2B9
100
AcDbEntity
  8
SLD-0
100
AcDbLine
 10
1280.2745758242
 20
1271.3614527223
 30
0.0
 11
1272.3073099193
 21
1271.3614527223
 31
0.0
  0
LINE
  5
2C4
330
2B9
100
AcDbEntity
  8
SLD-0
100
AcDbLine
 10
884.3511726888
 20
1433.864710705
 30
0.0
 11
1149.456193159
 21
1433.864710705
 31
0.0
  0
LINE
  5
2C5
330
2B9
100
AcDbEntity
  8
SLD-0
100
AcDbLine
 10
1022.6011726888
 20
1393.864710705
 30
0.0
 11
1149.456193159
 21
1393.864710705
 31
0.0
  0
LINE
  5
2C6
330
2B9
100
AcDbEntity
  8
SLD-0
100
AcDbLine
 10
1163.074193159
 20
1312.980406647
 30
0.0
 11
1141.074193159
 21
1312.980406647
 31
0.0
  0
LINE
  5
2C7
330
2B9
100
AcDbEntity
  8
SLD-0
100
AcDbLine
 10
1141.074193159
 20
1312.980406647
 30
0.0
 11
1141.074193159
 21
1393.864710705
 31
0.0
  0
LINE
  5
2C8
330
2B9
100
AcDbEntity
  8
SLD-0
100
AcDbLine
 10
1141.074193159
 20
1433.864710705
 30
0.0
 11
1141.074193159
 21
1477.864710705
 31
0.0
  0
MTEXT
  5
2C9
330
2B9
100
AcDbEntity
  8
SLD-0
100
AcDbMText
 10
1179.0041999344
 20
1351.7503422361
 30
0.0
 40
26.19375
 41
0.0
 71
     1
 72
     1
  1
 
  7
SLDTEXTSTYLE0
 73
     1
 44
1.0
  0
MTEXT
  5
2CA
330
2B9
100
AcDbEntity
  8
SLD-0
100
AcDbMText
 10
1204.591611299
 20
1351.7503447972
 30
0.0
 40
26.19375
 41
0.0
 71
     1
 72
     1
  1
40.0
  7
SLDTEXTSTYLE0
 73
     1
 44
1.0
  0
MTEXT
  5
2CB
330
2B9
100
AcDbEntity
  8
SLD-0
100
AcDbMText
 10
1204.5916138601
 20
1304.8198768545
 30
0.0
 40
26.19375
 41
0.0
 71
     1
 72
     1
  1
1.57
  7
SLDTEXTSTYLE0
 73
     1
 44
1.0
  0
MTEXT
  5
2CC
330
2B9
100
AcDbEntity
  8
SLD-0
100
AcDbMText
 10
1288.2418391679
 20
1351.7503422361
 30
0.0
 40
26.19375
 41
0.0
 71
     1
 72
     1
  1
 
  7
SLDTEXTSTYLE0
 73
     1
 44
1.0
  0
ENDBLK
  5
2BB
330
2B9
100
AcDbEntity
  8
0
100
AcDbBlockEnd
  0
BLOCK
  5
2CF
330
2CE
100
AcDbEntity
  8
0
100
AcDbBlockBegin
  2
_D_12
 70
     0
 10
0.0
 20
0.0
 30
0.0
  3
_D_12
  1

  0
SOLID
  5
2D1
330
2CE
100
AcDbEntity
  8
SLD-0
100
AcDbTrace
 10
865.2191726888
 20
1207.864710705
 30
0.0
 11
887.2191726888
 21
1205.114710705
 31
0.0
 12
887.2191726888
 22
1210.614710705
 32
0.0
 13
887.2191726888
 23
1210.614710705
 33
0.0
  0
SOLID
  5
2D2
330
2CE
100
AcDbEntity
  8
SLD-0
100
AcDbTrace
 10
1014.2191726888
 20
1207.864710705
 30
0.0
 11
992.2191726888
 21
1210.614710705
 31
0.0
 12
992.2191726888
 22
1205.114710705
 32
0.0
 13
992.2191726888
 23
1205.114710705
 33
0.0
  0
LINE
  5
2D3
330
2CE
100
AcDbEntity
  8
SLD-0
100
AcDbLine
 10
1090.3613246592
 20
1207.8647158272
 30
0.0
 11
1082.3940587543
 21
1207.8647158272
 31
0.0
  0
LINE
  5
2D4
330
2CE
100
AcDbEntity
  8
SLD-0
100
AcDbLine
 10
1082.3940587543
 20
1207.8647158272
 30
0.0
 11
1082.3940587543
 21
1166.2457567803
 31
0.0
  0
LINE
  5
2D5
330
2CE
100
AcDbEntity
  8
SLD-0
100
AcDbLine
 10
1082.3940587543
 20
1166.2457567803
 30
0.0
 11
1090.3613246592
 21
1166.2457567803
 31
0.0
  0
LINE
  5
2D6
330
2CE
100
AcDbEntity
  8
SLD-0
100
AcDbLine
 10
1158.0770207184
 20
1207.8647158272
 30
0.0
 11
1166.0442866232
 21
1207.8647158272
 31
0.0
  0
LINE
  5
2D7
330
2CE
100
AcDbEntity
  8
SLD-0
100
AcDbLine
 10
1166.0442866232
 20
1207.8647158272
 30
0.0
 11
1166.0442866232
 21
1166.2457567803
 31
0.0
  0
LINE
  5
2D8
330
2CE
100
AcDbEntity
  8
SLD-0
100
AcDbLine
 10
1166.0442866232
 20
1166.2457567803
 30
0.0
 11
1158.0770207184
 21
1166.2457567803
 31
0.0
  0
LINE
  5
2D9
330
2CE
100
AcDbEntity
  8
SLD-0
100
AcDbLine
 10
865.2191726888
 20
1414.732710705
 30
0.0
 11
865.2191726888
 21
1199.482710705
 31
0.0
  0
LINE
  5
2DA
330
2CE
100
AcDbEntity
  8
SLD-0
100
AcDbLine
 10
1014.2191726888
 20
1385.482710705
 30
0.0
 11
1014.2191726888
 21
1199.482710705
 31
0.0
  0
LINE
  5
2DB
330
2CE
100
AcDbEntity
  8
SLD-0
100
AcDbLine
 10
865.2191726888
 20
1207.864710705
 30
0.0
 11
1014.2191726888
 21
1207.864710705
 31
0.0
  0
LINE
  5
2DC
330
2CE
100
AcDbEntity
  8
SLD-0
100
AcDbLine
 10
1014.2191726888
 20
1207.864710705
 30
0.0
 11
1059.463908475
 21
1207.864710705
 31
0.0
  0
MTEXT
  5
2DD
330
2CE
100
AcDbEntity
  8
SLD-0
100
AcDbMText
 10
1064.7739107335
 20
1246.6346462941
 30
0.0
 40
26.19375
 41
0.0
 71
     1
 72
     1
  1
 
  7
SLDTEXTSTYLE0
 73
     1
 44
1.0
  0
MTEXT
  5
2DE
330
2CE
100
AcDbEntity
  8
SLD-0
100
AcDbMText
 10
1080.6841885751
 20
1246.6346488552
 30
0.0
 40
26.19375
 41
0.0
 71
     1
 72
     1
  1
149.0
  7
SLDTEXTSTYLE0
 73
     1
 44
1.0
  0
MTEXT
  5
2DF
330
2CE
100
AcDbEntity
  8
SLD-0
100
AcDbMText
 10
1090.3613246592
 20
1199.7041809125
 30
0.0
 40
26.19375
 41
0.0
 71
     1
 72
     1
  1
5.87
  7
SLDTEXTSTYLE0
 73
     1
 44
1.0
  0
MTEXT
  5
2E0
330
2CE
100
AcDbEntity
  8
SLD-0
100
AcDbMText
 10
1174.011549967
 20
1246.6346462941
 30
0.0
 40
26.19375
 41
0.0
 71
     1
 72
     1
  1
 
  7
SLDTEXTSTYLE0
 73
     1
 44
1.0
  0
ENDBLK
  5
2D0
330
2CE
100
AcDbEntity
  8
0
100
AcDbBlockEnd
  0
BLOCK
  5
2E3
330
2E2
100
AcDbEntity
  8
0
100
AcDbBlockBegin
  2
_D_13
 70
     0
 10
0.0
 20
0.0
 30
0.0
  3
_D_13
  1

  0
SOLID
  5
2E5
330
2E2
100
AcDbEntity
  8
SLD-0
100
AcDbTrace
 10
904.2191726888
 20
1897.3497219504
 30
0.0
 11
926.2191726888
 21
1894.5997219504
 31
0.0
 12
926.2191726888
 22
1900.0997219504
 32
0.0
 13
926.2191726888
 23
1900.0997219504
 33
0.0
  0
SOLID
  5
2E6
330
2E2
100
AcDbEntity
  8
SLD-0
100
AcDbTrace
 10
1014.2191726888
 20
1897.3497219504
 30
0.0
 11
992.2191726888
 21
1900.0997219504
 31
0.0
 12
992.2191726888
 22
1894.5997219504
 32
0.0
 13
992.2191726888
 23
1894.5997219504
 33
0.0
  0
LINE
  5
2E7
330
2E2
100
AcDbEntity
  8
SLD-0
100
AcDbLine
 10
1090.3613246592
 20
1897.3497270727
 30
0.0
 11
1082.3940587543
 21
1897.3497270727
 31
0.0
  0
LINE
  5
2E8
330
2E2
100
AcDbEntity
  8
SLD-0
100
AcDbLine
 10
1082.3940587543
 20
1897.3497270727
 30
0.0
 11
1082.3940587543
 21
1855.7307680258
 31
0.0
  0
LINE
  5
2E9
330
2E2
100
AcDbEntity
  8
SLD-0
100
AcDbLine
 10
1082.3940587543
 20
1855.7307680258
 30
0.0
 11
1090.3613246592
 21
1855.7307680258
 31
0.0
  0
LINE
  5
2EA
330
2E2
100
AcDbEntity
  8
SLD-0
100
AcDbLine
 10
1158.0770207184
 20
1897.3497270727
 30
0.0
 11
1166.0442866232
 21
1897.3497270727
 31
0.0
  0
LINE
  5
2EB
330
2E2
100
AcDbEntity
  8
SLD-0
100
AcDbLine
 10
1166.0442866232
 20
1897.3497270727
 30
0.0
 11
1166.0442866232
 21
1855.7307680258
 31
0.0
  0
LINE
  5
2EC
330
2E2
100
AcDbEntity
  8
SLD-0
100
AcDbLine
 10
1166.0442866232
 20
1855.7307680258
 30
0.0
 11
1158.0770207184
 21
1855.7307680258
 31
0.0
  0
LINE
  5
2ED
330
2E2
100
AcDbEntity
  8
SLD-0
100
AcDbLine
 10
904.2191726888
 20
1687.996710705
 30
0.0
 11
904.2191726888
 21
1905.7317219504
 31
0.0
  0
LINE
  5
2EE
330
2E2
100
AcDbEntity
  8
SLD-0
100
AcDbLine
 10
1014.2191726888
 20
1772.246710705
 30
0.0
 11
1014.2191726888
 21
1905.7317219504
 31
0.0
  0
LINE
  5
2EF
330
2E2
100
AcDbEntity
  8
SLD-0
100
AcDbLine
 10
904.2191726888
 20
1897.3497219504
 30
0.0
 11
1014.2191726888
 21
1897.3497219504
 31
0.0
  0
LINE
  5
2F0
330
2E2
100
AcDbEntity
  8
SLD-0
100
AcDbLine
 10
1014.2191726888
 20
1897.3497219504
 30
0.0
 11
1059.463908475
 21
1897.3497219504
 31
0.0
  0
MTEXT
  5
2F1
330
2E2
100
AcDbEntity
  8
SLD-0
100
AcDbMText
 10
1064.7739107335
 20
1936.1196575395
 30
0.0
 40
26.19375
 41
0.0
 71
     1
 72
     1
  1
 
  7
SLDTEXTSTYLE0
 73
     1
 44
1.0
  0
MTEXT
  5
2F2
330
2E2
100
AcDbEntity
  8
SLD-0
100
AcDbMText
 10
1080.6841885751
 20
1936.1196601006
 30
0.0
 40
26.19375
 41
0.0
 71
     1
 72
     1
  1
110.0
  7
SLDTEXTSTYLE0
 73
     1
 44
1.0
  0
MTEXT
  5
2F3
330
2E2
100
AcDbEntity
  8
SLD-0
100
AcDbMText
 10
1090.3613246592
 20
1889.1891921579
 30
0.0
 40
26.19375
 41
0.0
 71
     1
 72
     1
  1
4.33
  7
SLDTEXTSTYLE0
 73
     1
 44
1.0
  0
MTEXT
  5
2F4
330
2E2
100
AcDbEntity
  8
SLD-0
100
AcDbMText
 10
1174.011549967
 20
1936.1196575395
 30
0.0
 40
26.19375
 41
0.0
 71
     1
 72
     1
  1
 
  7
SLDTEXTSTYLE0
 73
     1
 44
1.0
  0
ENDBLK
  5
2E4
330
2E2
100
AcDbEntity
  8
0
100
AcDbBlockEnd
  0
BLOCK
  5
2F7
330
2F6
100
AcDbEntity
  8
0
100
AcDbBlockBegin
  2
_D_14
 70
     0
 10
0.0
 20
0.0
 30
0.0
  3
_D_14
  1

  0
SOLID
  5
2F9
330
2F6
100
AcDbEntity
  8
SLD-0
100
AcDbTrace
 10
904.2191726888
 20
1897.3497219504
 30
0.0
 11
882.2191726888
 21
1900.0997219504
 31
0.0
 12
882.2191726888
 22
1894.5997219504
 32
0.0
 13
882.2191726888
 23
1894.5997219504
 33
0.0
  0
SOLID
  5
2FA
330
2F6
100
AcDbEntity
  8
SLD-0
100
AcDbTrace
 10
824.2191726888
 20
1897.3497219504
 30
0.0
 11
846.2191726888
 21
1894.5997219504
 31
0.0
 12
846.2191726888
 22
1900.0997219504
 32
0.0
 13
846.2191726888
 23
1900.0997219504
 33
0.0
  0
LINE
  5
2FB
330
2F6
100
AcDbEntity
  8
SLD-0
100
AcDbLine
 10
684.1113246592
 20
1897.3497270727
 30
0.0
 11
676.1440587543
 21
1897.3497270727
 31
0.0
  0
LINE
  5
2FC
330
2F6
100
AcDbEntity
  8
SLD-0
100
AcDbLine
 10
676.1440587543
 20
1897.3497270727
 30
0.0
 11
676.1440587543
 21
1855.7307680258
 31
0.0
  0
LINE
  5
2FD
330
2F6
100
AcDbEntity
  8
SLD-0
100
AcDbLine
 10
676.1440587543
 20
1855.7307680258
 30
0.0
 11
684.1113246592
 21
1855.7307680258
 31
0.0
  0
LINE
  5
2FE
330
2F6
100
AcDbEntity
  8
SLD-0
100
AcDbLine
 10
751.8270207184
 20
1897.3497270727
 30
0.0
 11
759.7942866232
 21
1897.3497270727
 31
0.0
  0
LINE
  5
2FF
330
2F6
100
AcDbEntity
  8
SLD-0
100
AcDbLine
 10
759.7942866232
 20
1897.3497270727
 30
0.0
 11
759.7942866232
 21
1855.7307680258
 31
0.0
  0
LINE
  5
300
330
2F6
100
AcDbEntity
  8
SLD-0
100
AcDbLine
 10
759.7942866232
 20
1855.7307680258
 30
0.0
 11
751.8270207184
 21
1855.7307680258
 31
0.0
  0
LINE
  5
301
330
2F6
100
AcDbEntity
  8
SLD-0
100
AcDbLine
 10
904.2191726888
 20
1687.996710705
 30
0.0
 11
904.2191726888
 21
1905.7317219504
 31
0.0
  0
LINE
  5
302
330
2F6
100
AcDbEntity
  8
SLD-0
100
AcDbLine
 10
824.2191726888
 20
1687.996710705
 30
0.0
 11
824.2191726888
 21
1905.7317219504
 31
0.0
  0
LINE
  5
303
330
2F6
100
AcDbEntity
  8
SLD-0
100
AcDbLine
 10
904.2191726888
 20
1897.3497219504
 30
0.0
 11
824.2191726888
 21
1897.3497219504
 31
0.0
  0
LINE
  5
304
330
2F6
100
AcDbEntity
  8
SLD-0
100
AcDbLine
 10
824.2191726888
 20
1897.3497219504
 30
0.0
 11
782.7244369025
 21
1897.3497219504
 31
0.0
  0
MTEXT
  5
305
330
2F6
100
AcDbEntity
  8
SLD-0
100
AcDbMText
 10
658.5239107335
 20
1936.1196575395
 30
0.0
 40
26.19375
 41
0.0
 71
     1
 72
     1
  1
 
  7
SLDTEXTSTYLE0
 73
     1
 44
1.0
  0
MTEXT
  5
306
330
2F6
100
AcDbEntity
  8
SLD-0
100
AcDbMText
 10
684.1113220981
 20
1936.1196601006
 30
0.0
 40
26.19375
 41
0.0
 71
     1
 72
     1
  1
80.0
  7
SLDTEXTSTYLE0
 73
     1
 44
1.0
  0
MTEXT
  5
307
330
2F6
100
AcDbEntity
  8
SLD-0
100
AcDbMText
 10
684.1113246592
 20
1889.1891921579
 30
0.0
 40
26.19375
 41
0.0
 71
     1
 72
     1
  1
3.15
  7
SLDTEXTSTYLE0
 73
     1
 44
1.0
  0
MTEXT
  5
308
330
2F6
100
AcDbEntity
  8
SLD-0
100
AcDbMText
 10
767.761549967
 20
1936.1196575395
 30
0.0
 40
26.19375
 41
0.0
 71
     1
 72
     1
  1
 
  7
SLDTEXTSTYLE0
 73
     1
 44
1.0
  0
ENDBLK
  5
2F8
330
2F6
100
AcDbEntity
  8
0
100
AcDbBlockEnd
  0
BLOCK
  5
30C
330
30B
100
AcDbEntity
  8
0
100
AcDbBlockBegin
  2
_D_15
 70
     0
 10
0.0
 20
0.0
 30
0.0
  3
_D_15
  1

  0
SOLID
  5
30E
330
30B
100
AcDbEntity
  8
SLD-0
100
AcDbTrace
 10
865.2191726888
 20
1312.980406647
 30
0.0
 11
843.2191726888
 21
1315.730406647
 31
0.0
 12
843.2191726888
 22
1310.230406647
 32
0.0
 13
843.2191726888
 23
1310.230406647
 33
0.0
  0
SOLID
  5
30F
330
30B
100
AcDbEntity
  8
SLD-0
100
AcDbTrace
 10
810.7191726888
 20
1312.980406647
 30
0.0
 11
832.7191726888
 21
1310.230406647
 31
0.0
 12
832.7191726888
 22
1315.730406647
 32
0.0
 13
832.7191726888
 23
1315.730406647
 33
0.0
  0
LINE
  5
310
330
30B
100
AcDbEntity
  8
SLD-0
100
AcDbLine
 10
684.1113246592
 20
1312.9804117692
 30
0.0
 11
676.1440587543
 21
1312.9804117692
 31
0.0
  0
LINE
  5
311
330
30B
100
AcDbEntity
  8
SLD-0
100
AcDbLine
 10
676.1440587543
 20
1312.9804117692
 30
0.0
 11
676.1440587543
 21
1271.3614527223
 31
0.0
  0
LINE
  5
312
330
30B
100
AcDbEntity
  8
SLD-0
100
AcDbLine
 10
676.1440587543
 20
1271.3614527223
 30
0.0
 11
684.1113246592
 21
1271.3614527223
 31
0.0
  0
LINE
  5
313
330
30B
100
AcDbEntity
  8
SLD-0
100
AcDbLine
 10
751.8270207184
 20
1312.9804117692
 30
0.0
 11
759.7942866232
 21
1312.9804117692
 31
0.0
  0
LINE
  5
314
330
30B
100
AcDbEntity
  8
SLD-0
100
AcDbLine
 10
759.7942866232
 20
1312.9804117692
 30
0.0
 11
759.7942866232
 21
1271.3614527223
 31
0.0
  0
LINE
  5
315
330
30B
100
AcDbEntity
  8
SLD-0
100
AcDbLine
 10
759.7942866232
 20
1271.3614527223
 30
0.0
 11
751.8270207184
 21
1271.3614527223
 31
0.0
  0
LINE
  5
316
330
30B
100
AcDbEntity
  8
SLD-0
100
AcDbLine
 10
865.2191726888
 20
1414.732710705
 30
0.0
 11
865.2191726888
 21
1304.598406647
 31
0.0
  0
LINE
  5
317
330
30B
100
AcDbEntity
  8
SLD-0
100
AcDbLine
 10
810.7191726888
 20
1414.732710705
 30
0.0
 11
810.7191726888
 21
1304.598406647
 31
0.0
  0
LINE
  5
318
330
30B
100
AcDbEntity
  8
SLD-0
100
AcDbLine
 10
865.2191726888
 20
1312.980406647
 30
0.0
 11
810.7191726888
 21
1312.980406647
 31
0.0
  0
LINE
  5
319
330
30B
100
AcDbEntity
  8
SLD-0
100
AcDbLine
 10
810.7191726888
 20
1312.980406647
 30
0.0
 11
782.7244369025
 21
1312.980406647
 31
0.0
  0
MTEXT
  5
31A
330
30B
100
AcDbEntity
  8
SLD-0
100
AcDbMText
 10
658.5239107335
 20
1351.7503422361
 30
0.0
 40
26.19375
 41
0.0
 71
     1
 72
     1
  1
 
  7
SLDTEXTSTYLE0
 73
     1
 44
1.0
  0
MTEXT
  5
31B
330
30B
100
AcDbEntity
  8
SLD-0
100
AcDbMText
 10
684.1113220981
 20
1351.7503447972
 30
0.0
 40
26.19375
 41
0.0
 71
     1
 72
     1
  1
54.5
  7
SLDTEXTSTYLE0
 73
     1
 44
1.0
  0
MTEXT
  5
31C
330
30B
100
AcDbEntity
  8
SLD-0
100
AcDbMText
 10
684.1113246592
 20
1304.8198768545
 30
0.0
 40
26.19375
 41
0.0
 71
     1
 72
     1
  1
2.15
  7
SLDTEXTSTYLE0
 73
     1
 44
1.0
  0
MTEXT
  5
31D
330
30B
100
AcDbEntity
  8
SLD-0
100
AcDbMText
 10
767.761549967
 20
1351.7503422361
 30
0.0
 40
26.19375
 41
0.0
 71
     1
 72
     1
  1
 
  7
SLDTEXTSTYLE0
 73
     1
 44
1.0
  0
ENDBLK
  5
30D
330
30B
100
AcDbEntity
  8
0
100
AcDbBlockEnd
  0
BLOCK
  5
321
330
320
100
AcDbEntity
  8
0
100
AcDbBlockBegin
  2
_D_16
 70
     0
 10
0.0
 20
0.0
 30
0.0
  3
_D_16
  1

  0
SOLID
  5
323
330
320
100
AcDbEntity
  8
SLD-0
100
AcDbTrace
 10
865.2191726888
 20
1187.730463826
 30
0.0
 11
843.2191726888
 21
1190.480463826
 31
0.0
 12
843.2191726888
 22
1184.980463826
 32
0.0
 13
843.2191726888
 23
1184.980463826
 33
0.0
  0
SOLID
  5
324
330
320
100
AcDbEntity
  8
SLD-0
100
AcDbTrace
 10
625.2191726888
 20
1187.730463826
 30
0.0
 11
647.2191726888
 21
1184.980463826
 31
0.0
 12
647.2191726888
 22
1190.480463826
 32
0.0
 13
647.2191726888
 23
1190.480463826
 33
0.0
  0
LINE
  5
325
330
320
100
AcDbEntity
  8
SLD-0
100
AcDbLine
 10
721.0384581821
 20
1187.7304689483
 30
0.0
 11
713.0711922772
 21
1187.7304689483
 31
0.0
  0
LINE
  5
326
330
320
100
AcDbEntity
  8
SLD-0
100
AcDbLine
 10
713.0711922772
 20
1187.7304689483
 30
0.0
 11
713.0711922772
 21
1146.1115099014
 31
0.0
  0
LINE
  5
327
330
320
100
AcDbEntity
  8
SLD-0
100
AcDbLine
 10
713.0711922772
 20
1146.1115099014
 30
0.0
 11
721.0384581821
 21
1146.1115099014
 31
0.0
  0
LINE
  5
328
330
320
100
AcDbEntity
  8
SLD-0
100
AcDbLine
 10
769.3998820732
 20
1187.7304689483
 30
0.0
 11
777.367147978
 21
1187.7304689483
 31
0.0
  0
LINE
  5
329
330
320
100
AcDbEntity
  8
SLD-0
100
AcDbLine
 10
777.367147978
 20
1187.7304689483
 30
0.0
 11
777.367147978
 21
1146.1115099014
 31
0.0
  0
LINE
  5
32A
330
320
100
AcDbEntity
  8
SLD-0
100
AcDbLine
 10
777.367147978
 20
1146.1115099014
 30
0.0
 11
769.3998820732
 21
1146.1115099014
 31
0.0
  0
LINE
  5
32B
330
320
100
AcDbEntity
  8
SLD-0
100
AcDbLine
 10
865.2191726888
 20
1414.732710705
 30
0.0
 11
865.2191726888
 21
1179.348463826
 31
0.0
  0
LINE
  5
32C
330
320
100
AcDbEntity
  8
SLD-0
100
AcDbLine
 10
625.2191726888
 20
1414.732710705
 30
0.0
 11
625.2191726888
 21
1179.348463826
 31
0.0
  0
LINE
  5
32D
330
320
100
AcDbEntity
  8
SLD-0
100
AcDbLine
 10
865.2191726888
 20
1187.730463826
 30
0.0
 11
803.7170411768
 21
1187.730463826
 31
0.0
  0
LINE
  5
32E
330
320
100
AcDbEntity
  8
SLD-0
100
AcDbLine
 10
625.2191726888
 20
1187.730463826
 30
0.0
 11
686.7213042007
 21
1187.730463826
 31
0.0
  0
MTEXT
  5
32F
330
320
100
AcDbEntity
  8
SLD-0
100
AcDbMText
 10
692.0313064592
 20
1226.5003994151
 30
0.0
 40
26.19375
 41
0.0
 71
     1
 72
     1
  1
 
  7
SLDTEXTSTYLE0
 73
     1
 44
1.0
  0
MTEXT
  5
330
330
320
100
AcDbEntity
  8
SLD-0
100
AcDbMText
 10
701.6841885751
 20
1226.5004019763
 30
0.0
 40
26.19375
 41
0.0
 71
     1
 72
     1
  1
240.0
  7
SLDTEXTSTYLE0
 73
     1
 44
1.0
  0
MTEXT
  5
331
330
320
100
AcDbEntity
  8
SLD-0
100
AcDbMText
 10
721.0384581821
 20
1179.5699340335
 30
0.0
 40
26.19375
 41
0.0
 71
     1
 72
     1
  1
9.4
  7
SLDTEXTSTYLE0
 73
     1
 44
1.0
  0
MTEXT
  5
332
330
320
100
AcDbEntity
  8
SLD-0
100
AcDbMText
 10
788.7541542413
 20
1226.5003994151
 30
0.0
 40
26.19375
 41
0.0
 71
     1
 72
     1
  1
 
  7
SLDTEXTSTYLE0
 73
     1
 44
1.0
  0
ENDBLK
  5
322
330
320
100
AcDbEntity
  8
0
100
AcDbBlockEnd
  0
BLOCK
  5
335
330
334
100
AcDbEntity
  8
0
100
AcDbBlockBegin
  2
_D_17
 70
     0
 10
0.0
 20
0.0
 30
0.0
  3
_D_17
  1

  0
SOLID
  5
337
330
334
100
AcDbEntity
  8
SLD-0
100
AcDbTrace
 10
865.2191726888
 20
1048.8981176107
 30
0.0
 11
843.2191726888
 21
1051.6481176107
 31
0.0
 12
843.2191726888
 22
1046.1481176107
 32
0.0
 13
843.2191726888
 23
1046.1481176107
 33
0.0
  0
SOLID
  5
338
330
334
100
AcDbEntity
  8
SLD-0
100
AcDbTrace
 10
570.7191726888
 20
1048.8981176107
 30
0.0
 11
592.7191726888
 21
1046.1481176107
 31
0.0
 12
592.7191726888
 22
1051.6481176107
 32
0.0
 13
592.7191726888
 23
1051.6481176107
 33
0.0
  0
LINE
  5
339
330
334
100
AcDbEntity
  8
SLD-0
100
AcDbLine
 10
674.4341911363
 20
1048.898122733
 30
0.0
 11
666.4669252314
 21
1048.898122733
 31
0.0
  0
LINE
  5
33A
330
334
100
AcDbEntity
  8
SLD-0
100
AcDbLine
 10
666.4669252314
 20
1048.898122733
 30
0.0
 11
666.4669252314
 21
1007.2791636861
 31
0.0
  0
LINE
  5
33B
330
334
100
AcDbEntity
  8
SLD-0
100
AcDbLine
 10
666.4669252314
 20
1007.2791636861
 30
0.0
 11
674.4341911363
 21
1007.2791636861
 31
0.0
  0
LINE
  5
33C
330
334
100
AcDbEntity
  8
SLD-0
100
AcDbLine
 10
761.5041542413
 20
1048.898122733
 30
0.0
 11
769.4714201462
 21
1048.898122733
 31
0.0
  0
LINE
  5
33D
330
334
100
AcDbEntity
  8
SLD-0
100
AcDbLine
 10
769.4714201462
 20
1048.898122733
 30
0.0
 11
769.4714201462
 21
1007.2791636861
 31
0.0
  0
LINE
  5
33E
330
334
100
AcDbEntity
  8
SLD-0
100
AcDbLine
 10
769.4714201462
 20
1007.2791636861
 30
0.0
 11
761.5041542413
 21
1007.2791636861
 31
0.0
  0
LINE
  5
33F
330
334
100
AcDbEntity
  8
SLD-0
100
AcDbLine
 10
865.2191726888
 20
1414.732710705
 30
0.0
 11
865.2191726888
 21
1040.5161176107
 31
0.0
  0
LINE
  5
340
330
334
100
AcDbEntity
  8
SLD-0
100
AcDbLine
 10
570.7191726888
 20
1414.732710705
 30
0.0
 11
570.7191726888
 21
1040.5161176107
 31
0.0
  0
LINE
  5
341
330
334
100
AcDbEntity
  8
SLD-0
100
AcDbLine
 10
865.2191726888
 20
1048.8981176107
 30
0.0
 11
792.4015704254
 21
1048.8981176107
 31
0.0
  0
LINE
  5
342
330
334
100
AcDbEntity
  8
SLD-0
100
AcDbLine
 10
570.7191726888
 20
1048.8981176107
 30
0.0
 11
643.5367749521
 21
1048.8981176107
 31
0.0
  0
MTEXT
  5
343
330
334
100
AcDbEntity
  8
SLD-0
100
AcDbMText
 10
648.8467772106
 20
1087.6680531998
 30
0.0
 40
26.19375
 41
0.0
 71
     1
 72
     1
  1
 
  7
SLDTEXTSTYLE0
 73
     1
 44
1.0
  0
MTEXT
  5
344
330
334
100
AcDbEntity
  8
SLD-0
100
AcDbMText
 10
674.4341885751
 20
1087.6680557609
 30
0.0
 40
26.19375
 41
0.0
 71
     1
 72
     1
  1
294.5
  7
SLDTEXTSTYLE0
 73
     1
 44
1.0
  0
MTEXT
  5
345
330
334
100
AcDbEntity
  8
SLD-0
100
AcDbMText
 10
674.4341911363
 20
1040.7375878182
 30
0.0
 40
26.19375
 41
0.0
 71
     1
 72
     1
  1
11.59
  7
SLDTEXTSTYLE0
 73
     1
 44
1.0
  0
MTEXT
  5
346
330
334
100
AcDbEntity
  8
SLD-0
100
AcDbMText
 10
777.4386834899
 20
1087.6680531998
 30
0.0
 40
26.19375
 41
0.0
 71
     1
 72
     1
  1
 
  7
SLDTEXTSTYLE0
 73
     1
 44
1.0
  0
ENDBLK
  5
336
330
334
100
AcDbEntity
  8
0
100
AcDbBlockEnd
  0
BLOCK
  5
34A
330
349
100
AcDbEntity
  8
0
100
AcDbBlockBegin
  2
SW_NOTE_0_3
 70
     0
 10
0.0
 20
0.0
 30
0.0
  3
SW_NOTE_0_3
  1

  0
LINE
  5
34C
330
349
100
AcDbEntity
  8
SLD-0
 62
     0
100
AcDbLine
 10
-63.4880803011
 20
-32.1611292346
 30
0.0
 11
-63.4880803011
 21
31.3269510665
 31
0.0
  0
LINE
  5
34D
330
349
100
AcDbEntity
  8
SLD-0
 62
     0
100
AcDbLine
 10
-63.4880803011
 20
31.3269510665
 30
0.0
 11
0.0
 21
31.3269510665
 31
0.0
  0
LINE
  5
34E
330
349
100
AcDbEntity
  8
SLD-0
 62
     0
100
AcDbLine
 10
0.0
 20
31.3269510665
 30
0.0
 11
0.0
 21
-32.1611292346
 31
0.0
  0
LINE
  5
34F
330
349
100
AcDbEntity
  8
SLD-0
 62
     0
100
AcDbLine
 10
0.0
 20
-32.1611292346
 30
0.0
 11
-63.4880803011
 21
-32.1611292346
 31
0.0
  0
MTEXT
  5
350
330
349
100
AcDbEntity
  8
SLD-0
 62
     0
100
AcDbMText
 10
-32.0077966881
 20
12.3351785803
 30
0.0
 40
26.19375
 41
0.0
 71
     2
 72
     1
  1
4
  7
SLDTEXTSTYLE0
 73
     1
 44
1.0
  0
ENDBLK
  5
34B
330
349
100
AcDbEntity
  8
0
100
AcDbBlockEnd
  0
BLOCK
  5
355
330
354
100
AcDbEntity
  8
0
100
AcDbBlockBegin
  2
SW_NOTE_0_4
 70
     0
 10
0.0
 20
0.0
 30
0.0
  3
SW_NOTE_0_4
  1

  0
LINE
  5
357
330
354
100
AcDbEntity
  8
SLD-0
 62
     0
100
AcDbLine
 10
-63.4880803011
 20
-32.1611292346
 30
0.0
 11
-63.4880803011
 21
31.3269510665
 31
0.0
  0
LINE
  5
358
330
354
100
AcDbEntity
  8
SLD-0
 62
     0
100
AcDbLine
 10
-63.4880803011
 20
31.3269510665
 30
0.0
 11
0.0
 21
31.3269510665
 31
0.0
  0
LINE
  5
359
330
354
100
AcDbEntity
  8
SLD-0
 62
     0
100
AcDbLine
 10
0.0
 20
31.3269510665
 30
0.0
 11
0.0
 21
-32.1611292346
 31
0.0
  0
LINE
  5
35A
330
354
100
AcDbEntity
  8
SLD-0
 62
     0
100
AcDbLine
 10
0.0
 20
-32.1611292346
 30
0.0
 11
-63.4880803011
 21
-32.1611292346
 31
0.0
  0
MTEXT
  5
35B
330
354
100
AcDbEntity
  8
SLD-0
 62
     0
100
AcDbMText
 10
-32.0077966881
 20
12.3351785803
 30
0.0
 40
26.19375
 41
0.0
 71
     2
 72
     1
  1
5
  7
SLDTEXTSTYLE0
 73
     1
 44
1.0
  0
ENDBLK
  5
356
330
354
100
AcDbEntity
  8
0
100
AcDbBlockEnd
  0
BLOCK
  5
360
330
35F
100
AcDbEntity
  8
0
100
AcDbBlockBegin
  2
SW_CENTERMARKSYMBOL_4
 70
     0
 10
0.0
 20
0.0
 30
0.0
  3
SW_CENTERMARKSYMBOL_4
  1

  0
LINE
  5
362
330
35F
100
AcDbEntity
  8
SLD-0
 62
     0
100
AcDbLine
 10
0.0
 20
0.0
 30
0.0
 11
0.0
 21
2.0
 31
0.0
  0
LINE
  5
363
330
35F
100
AcDbEntity
  8
SLD-0
 62
     0
100
AcDbLine
 10
0.0
 20
0.0
 30
0.0
 11
-2.0
 21
0.0
 31
0.0
  0
LINE
  5
364
330
35F
100
AcDbEntity
  8
SLD-0
 62
     0
100
AcDbLine
 10
0.0
 20
0.0
 30
0.0
 11
0.0
 21
-2.0
 31
0.0
  0
LINE
  5
365
330
35F
100
AcDbEntity
  8
SLD-0
 62
     0
100
AcDbLine
 10
0.0
 20
0.0
 30
0.0
 11
2.0
 21
0.0
 31
0.0
  0
LINE
  5
366
330
35F
100
AcDbEntity
  8
SLD-0
 62
     0
100
AcDbLine
 10
0.0
 20
4.0
 30
0.0
 11
0.0
 21
10.75
 31
0.0
  0
LINE
  5
367
330
35F
100
AcDbEntity
  8
SLD-0
 62
     0
100
AcDbLine
 10
-4.0
 20
0.0
 30
0.0
 11
-10.75
 21
0.0
 31
0.0
  0
LINE
  5
368
330
35F
100
AcDbEntity
  8
SLD-0
 62
     0
100
AcDbLine
 10
0.0
 20
-4.0
 30
0.0
 11
0.0
 21
-10.75
 31
0.0
  0
LINE
  5
369
330
35F
100
AcDbEntity
  8
SLD-0
 62
     0
100
AcDbLine
 10
4.0
 20
0.0
 30
0.0
 11
10.75
 21
0.0
 31
0.0
  0
ENDBLK
  5
361
330
35F
100
AcDbEntity
  8
0
100
AcDbBlockEnd
  0
BLOCK
  5
36C
330
36B
100
AcDbEntity
  8
0
100
AcDbBlockBegin
  2
SW_CENTERMARKSYMBOL_5
 70
     0
 10
0.0
 20
0.0
 30
0.0
  3
SW_CENTERMARKSYMBOL_5
  1

  0
LINE
  5
36E
330
36B
100
AcDbEntity
  8
SLD-0
 62
     0
100
AcDbLine
 10
0.0
 20
0.0
 30
0.0
 11
0.0
 21
2.0
 31
0.0
  0
LINE
  5
36F
330
36B
100
AcDbEntity
  8
SLD-0
 62
     0
100
AcDbLine
 10
0.0
 20
0.0
 30
0.0
 11
-2.0
 21
0.0
 31
0.0
  0
LINE
  5
370
330
36B
100
AcDbEntity
  8
SLD-0
 62
     0
100
AcDbLine
 10
0.0
 20
0.0
 30
0.0
 11
0.0
 21
-2.0
 31
0.0
  0
LINE
  5
371
330
36B
100
AcDbEntity
  8
SLD-0
 62
     0
100
AcDbLine
 10
0.0
 20
0.0
 30
0.0
 11
2.0
 21
0.0
 31
0.0
  0
LINE
  5
372
330
36B
100
AcDbEntity
  8
SLD-0
 62
     0
100
AcDbLine
 10
0.0
 20
4.0
 30
0.0
 11
0.0
 21
10.75
 31
0.0
  0
LINE
  5
373
330
36B
100
AcDbEntity
  8
SLD-0
 62
     0
100
AcDbLine
 10
-4.0
 20
0.0
 30
0.0
 11
-10.75
 21
0.0
 31
0.0
  0
LINE
  5
374
330
36B
100
AcDbEntity
  8
SLD-0
 62
     0
100
AcDbLine
 10
0.0
 20
-4.0
 30
0.0
 11
0.0
 21
-10.75
 31
0.0
  0
LINE
  5
375
330
36B
100
AcDbEntity
  8
SLD-0
 62
     0
100
AcDbLine
 10
4.0
 20
0.0
 30
0.0
 11
10.75
 21
0.0
 31
0.0
  0
ENDBLK
  5
36D
330
36B
100
AcDbEntity
  8
0
100
AcDbBlockEnd
  0
BLOCK
  5
378
330
377
100
AcDbEntity
  8
0
100
AcDbBlockBegin
  2
SW_CENTERMARKSYMBOL_6
 70
     0
 10
0.0
 20
0.0
 30
0.0
  3
SW_CENTERMARKSYMBOL_6
  1

  0
LINE
  5
37A
330
377
100
AcDbEntity
  8
SLD-0
 62
     0
100
AcDbLine
 10
0.0
 20
0.0
 30
0.0
 11
0.0
 21
2.0
 31
0.0
  0
LINE
  5
37B
330
377
100
AcDbEntity
  8
SLD-0
 62
     0
100
AcDbLine
 10
0.0
 20
0.0
 30
0.0
 11
-2.0
 21
0.0
 31
0.0
  0
LINE
  5
37C
330
377
100
AcDbEntity
  8
SLD-0
 62
     0
100
AcDbLine
 10
0.0
 20
0.0
 30
0.0
 11
0.0
 21
-2.0
 31
0.0
  0
LINE
  5
37D
330
377
100
AcDbEntity
  8
SLD-0
 62
     0
100
AcDbLine
 10
0.0
 20
0.0
 30
0.0
 11
2.0
 21
0.0
 31
0.0
  0
LINE
  5
37E
330
377
100
AcDbEntity
  8
SLD-0
 62
     0
100
AcDbLine
 10
0.0
 20
4.0
 30
0.0
 11
0.0
 21
10.75
 31
0.0
  0
LINE
  5
37F
330
377
100
AcDbEntity
  8
SLD-0
 62
     0
100
AcDbLine
 10
-4.0
 20
0.0
 30
0.0
 11
-10.75
 21
0.0
 31
0.0
  0
LINE
  5
380
330
377
100
AcDbEntity
  8
SLD-0
 62
     0
100
AcDbLine
 10
0.0
 20
-4.0
 30
0.0
 11
0.0
 21
-10.75
 31
0.0
  0
LINE
  5
381
330
377
100
AcDbEntity
  8
SLD-0
 62
     0
100
AcDbLine
 10
4.0
 20
0.0
 30
0.0
 11
10.75
 21
0.0
 31
0.0
  0
ENDBLK
  5
379
330
377
100
AcDbEntity
  8
0
100
AcDbBlockEnd
  0
BLOCK
  5
384
330
383
100
AcDbEntity
  8
0
100
AcDbBlockBegin
  2
SW_CENTERMARKSYMBOL_7
 70
     0
 10
0.0
 20
0.0
 30
0.0
  3
SW_CENTERMARKSYMBOL_7
  1

  0
LINE
  5
386
330
383
100
AcDbEntity
  8
SLD-0
 62
     0
100
AcDbLine
 10
0.0
 20
0.0
 30
0.0
 11
0.0
 21
2.0
 31
0.0
  0
LINE
  5
387
330
383
100
AcDbEntity
  8
SLD-0
 62
     0
100
AcDbLine
 10
0.0
 20
0.0
 30
0.0
 11
-2.0
 21
0.0
 31
0.0
  0
LINE
  5
388
330
383
100
AcDbEntity
  8
SLD-0
 62
     0
100
AcDbLine
 10
0.0
 20
0.0
 30
0.0
 11
0.0
 21
-2.0
 31
0.0
  0
LINE
  5
389
330
383
100
AcDbEntity
  8
SLD-0
 62
     0
100
AcDbLine
 10
0.0
 20
0.0
 30
0.0
 11
2.0
 21
0.0
 31
0.0
  0
LINE
  5
38A
330
383
100
AcDbEntity
  8
SLD-0
 62
     0
100
AcDbLine
 10
0.0
 20
4.0
 30
0.0
 11
0.0
 21
10.75
 31
0.0
  0
LINE
  5
38B
330
383
100
AcDbEntity
  8
SLD-0
 62
     0
100
AcDbLine
 10
-4.0
 20
0.0
 30
0.0
 11
-10.75
 21
0.0
 31
0.0
  0
LINE
  5
38C
330
383
100
AcDbEntity
  8
SLD-0
 62
     0
100
AcDbLine
 10
0.0
 20
-4.0
 30
0.0
 11
0.0
 21
-10.75
 31
0.0
  0
LINE
  5
38D
330
383
100
AcDbEntity
  8
SLD-0
 62
     0
100
AcDbLine
 10
4.0
 20
0.0
 30
0.0
 11
10.75
 21
0.0
 31
0.0
  0
ENDBLK
  5
385
330
383
100
AcDbEntity
  8
0
100
AcDbBlockEnd
  0
BLOCK
  5
390
330
38F
100
AcDbEntity
  8
0
100
AcDbBlockBegin
  2
SW_CENTERMARKSYMBOL_8
 70
     0
 10
0.0
 20
0.0
 30
0.0
  3
SW_CENTERMARKSYMBOL_8
  1

  0
LINE
  5
392
330
38F
100
AcDbEntity
  8
SLD-0
 62
     0
100
AcDbLine
 10
0.0
 20
0.0
 30
0.0
 11
0.0
 21
2.0
 31
0.0
  0
LINE
  5
393
330
38F
100
AcDbEntity
  8
SLD-0
 62
     0
100
AcDbLine
 10
0.0
 20
0.0
 30
0.0
 11
-2.0
 21
0.0
 31
0.0
  0
LINE
  5
394
330
38F
100
AcDbEntity
  8
SLD-0
 62
     0
100
AcDbLine
 10
0.0
 20
0.0
 30
0.0
 11
0.0
 21
-2.0
 31
0.0
  0
LINE
  5
395
330
38F
100
AcDbEntity
  8
SLD-0
 62
     0
100
AcDbLine
 10
0.0
 20
0.0
 30
0.0
 11
2.0
 21
0.0
 31
0.0
  0
LINE
  5
396
330
38F
100
AcDbEntity
  8
SLD-0
 62
     0
100
AcDbLine
 10
0.0
 20
4.0
 30
0.0
 11
0.0
 21
10.75
 31
0.0
  0
LINE
  5
397
330
38F
100
AcDbEntity
  8
SLD-0
 62
     0
100
AcDbLine
 10
-4.0
 20
0.0
 30
0.0
 11
-10.75
 21
0.0
 31
0.0
  0
LINE
  5
398
330
38F
100
AcDbEntity
  8
SLD-0
 62
     0
100
AcDbLine
 10
0.0
 20
-4.0
 30
0.0
 11
0.0
 21
-10.75
 31
0.0
  0
LINE
  5
399
330
38F
100
AcDbEntity
  8
SLD-0
 62
     0
100
AcDbLine
 10
4.0
 20
0.0
 30
0.0
 11
10.75
 21
0.0
 31
0.0
  0
ENDBLK
  5
391
330
38F
100
AcDbEntity
  8
0
100
AcDbBlockEnd
  0
BLOCK
  5
39C
330
39B
100
AcDbEntity
  8
0
100
AcDbBlockBegin
  2
SW_CENTERMARKSYMBOL_9
 70
     0
 10
0.0
 20
0.0
 30
0.0
  3
SW_CENTERMARKSYMBOL_9
  1

  0
LINE
  5
39E
330
39B
100
AcDbEntity
  8
SLD-0
 62
     0
100
AcDbLine
 10
0.0
 20
0.0
 30
0.0
 11
0.0
 21
2.0
 31
0.0
  0
LINE
  5
39F
330
39B
100
AcDbEntity
  8
SLD-0
 62
     0
100
AcDbLine
 10
0.0
 20
0.0
 30
0.0
 11
-2.0
 21
0.0
 31
0.0
  0
LINE
  5
3A0
330
39B
100
AcDbEntity
  8
SLD-0
 62
     0
100
AcDbLine
 10
0.0
 20
0.0
 30
0.0
 11
0.0
 21
-2.0
 31
0.0
  0
LINE
  5
3A1
330
39B
100
AcDbEntity
  8
SLD-0
 62
     0
100
AcDbLine
 10
0.0
 20
0.0
 30
0.0
 11
2.0
 21
0.0
 31
0.0
  0
LINE
  5
3A2
330
39B
100
AcDbEntity
  8
SLD-0
 62
     0
100
AcDbLine
 10
0.0
 20
4.0
 30
0.0
 11
0.0
 21
10.75
 31
0.0
  0
LINE
  5
3A3
330
39B
100
AcDbEntity
  8
SLD-0
 62
     0
100
AcDbLine
 10
-4.0
 20
0.0
 30
0.0
 11
-10.75
 21
0.0
 31
0.0
  0
LINE
  5
3A4
330
39B
100
AcDbEntity
  8
SLD-0
 62
     0
100
AcDbLine
 10
0.0
 20
-4.0
 30
0.0
 11
0.0
 21
-10.75
 31
0.0
  0
LINE
  5
3A5
330
39B
100
AcDbEntity
  8
SLD-0
 62
     0
100
AcDbLine
 10
4.0
 20
0.0
 30
0.0
 11
10.75
 21
0.0
 31
0.0
  0
ENDBLK
  5
39D
330
39B
100
AcDbEntity
  8
0
100
AcDbBlockEnd
  0
BLOCK
  5
3ED
330
3EC
100
AcDbEntity
  8
0
100
AcDbBlockBegin
  2
_D_18
 70
     0
 10
0.0
 20
0.0
 30
0.0
  3
_D_18
  1

  0
SOLID
  5
3EF
330
3EC
100
AcDbEntity
  8
SLD-0
100
AcDbTrace
 10
4058.0380054364
 20
1303.605128357
 30
0.0
 11
4080.0380054364
 21
1300.855128357
 31
0.0
 12
4080.0380054364
 22
1306.355128357
 32
0.0
 13
4080.0380054364
 23
1306.355128357
 33
0.0
  0
SOLID
  5
3F0
330
3EC
100
AcDbEntity
  8
SLD-0
100
AcDbTrace
 10
4213.0380054364
 20
1303.605128357
 30
0.0
 11
4191.0380054364
 21
1306.355128357
 31
0.0
 12
4191.0380054364
 22
1300.855128357
 32
0.0
 13
4191.0380054364
 23
1300.855128357
 33
0.0
  0
LINE
  5
3F1
330
3EC
100
AcDbEntity
  8
SLD-0
100
AcDbLine
 10
4287.8776519861
 20
1303.6051334792
 30
0.0
 11
4279.9103860812
 21
1303.6051334792
 31
0.0
  0
LINE
  5
3F2
330
3EC
100
AcDbEntity
  8
SLD-0
100
AcDbLine
 10
4279.9103860812
 20
1303.6051334792
 30
0.0
 11
4279.9103860812
 21
1261.9861744323
 31
0.0
  0
LINE
  5
3F3
330
3EC
100
AcDbEntity
  8
SLD-0
100
AcDbLine
 10
4279.9103860812
 20
1261.9861744323
 30
0.0
 11
4287.8776519861
 21
1261.9861744323
 31
0.0
  0
LINE
  5
3F4
330
3EC
100
AcDbEntity
  8
SLD-0
100
AcDbLine
 10
4355.5933480453
 20
1303.6051334792
 30
0.0
 11
4363.5606139501
 21
1303.6051334792
 31
0.0
  0
LINE
  5
3F5
330
3EC
100
AcDbEntity
  8
SLD-0
100
AcDbLine
 10
4363.5606139501
 20
1303.6051334792
 30
0.0
 11
4363.5606139501
 21
1261.9861744323
 31
0.0
  0
LINE
  5
3F6
330
3EC
100
AcDbEntity
  8
SLD-0
100
AcDbLine
 10
4363.5606139501
 20
1261.9861744323
 30
0.0
 11
4355.5933480453
 21
1261.9861744323
 31
0.0
  0
LINE
  5
3F7
330
3EC
100
AcDbEntity
  8
SLD-0
100
AcDbLine
 10
4058.0380054364
 20
1410.982710705
 30
0.0
 11
4058.0380054364
 21
1295.223128357
 31
0.0
  0
LINE
  5
3F8
330
3EC
100
AcDbEntity
  8
SLD-0
100
AcDbLine
 10
4213.0380054364
 20
1410.982710705
 30
0.0
 11
4213.0380054364
 21
1295.223128357
 31
0.0
  0
LINE
  5
3F9
330
3EC
100
AcDbEntity
  8
SLD-0
100
AcDbLine
 10
4058.0380054364
 20
1303.605128357
 30
0.0
 11
4213.0380054364
 21
1303.605128357
 31
0.0
  0
LINE
  5
3FA
330
3EC
100
AcDbEntity
  8
SLD-0
100
AcDbLine
 10
4213.0380054364
 20
1303.605128357
 30
0.0
 11
4256.980235802
 21
1303.605128357
 31
0.0
  0
MTEXT
  5
3FB
330
3EC
100
AcDbEntity
  8
SLD-0
100
AcDbMText
 10
4262.2902380604
 20
1342.3750639461
 30
0.0
 40
26.19375
 41
0.0
 71
     1
 72
     1
  1
 
  7
SLDTEXTSTYLE0
 73
     1
 44
1.0
  0
MTEXT
  5
3FC
330
3EC
100
AcDbEntity
  8
SLD-0
100
AcDbMText
 10
4278.200515902
 20
1342.3750665072
 30
0.0
 40
26.19375
 41
0.0
 71
     1
 72
     1
  1
155.0
  7
SLDTEXTSTYLE0
 73
     1
 44
1.0
  0
MTEXT
  5
3FD
330
3EC
100
AcDbEntity
  8
SLD-0
100
AcDbMText
 10
4287.8776519861
 20
1295.4445985645
 30
0.0
 40
26.19375
 41
0.0
 71
     1
 72
     1
  1
6.10
  7
SLDTEXTSTYLE0
 73
     1
 44
1.0
  0
MTEXT
  5
3FE
330
3EC
100
AcDbEntity
  8
SLD-0
100
AcDbMText
 10
4371.5278772939
 20
1342.3750639461
 30
0.0
 40
26.19375
 41
0.0
 71
     1
 72
     1
  1
 
  7
SLDTEXTSTYLE0
 73
     1
 44
1.0
  0
ENDBLK
  5
3EE
330
3EC
100
AcDbEntity
  8
0
100
AcDbBlockEnd
  0
BLOCK
  5
401
330
400
100
AcDbEntity
  8
0
100
AcDbBlockBegin
  2
_D_19
 70
     0
 10
0.0
 20
0.0
 30
0.0
  3
_D_19
  1

  0
SOLID
  5
403
330
400
100
AcDbEntity
  8
SLD-0
100
AcDbTrace
 10
4492.8082584848
 20
1529.364710705
 30
0.0
 11
4490.0582584848
 21
1507.364710705
 31
0.0
 12
4495.5582584848
 22
1507.364710705
 32
0.0
 13
4495.5582584848
 23
1507.364710705
 33
0.0
  0
SOLID
  5
404
330
400
100
AcDbEntity
  8
SLD-0
100
AcDbTrace
 10
4492.8082584848
 20
1408.364710705
 30
0.0
 11
4495.5582584848
 21
1430.364710705
 31
0.0
 12
4490.0582584848
 22
1430.364710705
 32
0.0
 13
4490.0582584848
 23
1430.364710705
 33
0.0
  0
LINE
  5
405
330
400
100
AcDbEntity
  8
SLD-0
100
AcDbLine
 10
4556.3256791859
 20
1566.6001757929
 30
0.0
 11
4548.358413281
 21
1566.6001757929
 31
0.0
  0
LINE
  5
406
330
400
100
AcDbEntity
  8
SLD-0
100
AcDbLine
 10
4548.358413281
 20
1566.6001757929
 30
0.0
 11
4548.358413281
 21
1524.981216746
 31
0.0
  0
LINE
  5
407
330
400
100
AcDbEntity
  8
SLD-0
100
AcDbLine
 10
4548.358413281
 20
1524.981216746
 30
0.0
 11
4556.3256791859
 21
1524.981216746
 31
0.0
  0
LINE
  5
408
330
400
100
AcDbEntity
  8
SLD-0
100
AcDbLine
 10
4624.0413752451
 20
1566.6001757929
 30
0.0
 11
4632.00864115
 21
1566.6001757929
 31
0.0
  0
LINE
  5
409
330
400
100
AcDbEntity
  8
SLD-0
100
AcDbLine
 10
4632.00864115
 20
1566.6001757929
 30
0.0
 11
4632.00864115
 21
1524.981216746
 31
0.0
  0
LINE
  5
40A
330
400
100
AcDbEntity
  8
SLD-0
100
AcDbLine
 10
4632.00864115
 20
1524.981216746
 30
0.0
 11
4624.0413752451
 21
1524.981216746
 31
0.0
  0
LINE
  5
40B
330
400
100
AcDbEntity
  8
SLD-0
100
AcDbLine
 10
4210.4200054364
 20
1529.364710705
 30
0.0
 11
4501.1902584848
 21
1529.364710705
 31
0.0
  0
LINE
  5
40C
330
400
100
AcDbEntity
  8
SLD-0
100
AcDbLine
 10
4210.4200054364
 20
1408.364710705
 30
0.0
 11
4501.1902584848
 21
1408.364710705
 31
0.0
  0
LINE
  5
40D
330
400
100
AcDbEntity
  8
SLD-0
100
AcDbLine
 10
4514.8082584848
 20
1566.6001706706
 30
0.0
 11
4492.8082584848
 21
1566.6001706706
 31
0.0
  0
LINE
  5
40E
330
400
100
AcDbEntity
  8
SLD-0
100
AcDbLine
 10
4492.8082584848
 20
1566.6001706706
 30
0.0
 11
4492.8082584848
 21
1529.364710705
 31
0.0
  0
LINE
  5
40F
330
400
100
AcDbEntity
  8
SLD-0
100
AcDbLine
 10
4492.8082584848
 20
1529.364710705
 30
0.0
 11
4492.8082584848
 21
1408.364710705
 31
0.0
  0
MTEXT
  5
410
330
400
100
AcDbEntity
  8
SLD-0
100
AcDbMText
 10
4530.7382652602
 20
1605.3701062597
 30
0.0
 40
26.19375
 41
0.0
 71
     1
 72
     1
  1
 
  7
SLDTEXTSTYLE0
 73
     1
 44
1.0
  0
MTEXT
  5
411
330
400
100
AcDbEntity
  8
SLD-0
100
AcDbMText
 10
4546.6485431018
 20
1605.3701088208
 30
0.0
 40
26.19375
 41
0.0
 71
     1
 72
     1
  1
121.0
  7
SLDTEXTSTYLE0
 73
     1
 44
1.0
  0
MTEXT
  5
412
330
400
100
AcDbEntity
  8
SLD-0
100
AcDbMText
 10
4556.3256791859
 20
1558.4396408781
 30
0.0
 40
26.19375
 41
0.0
 71
     1
 72
     1
  1
4.76
  7
SLDTEXTSTYLE0
 73
     1
 44
1.0
  0
MTEXT
  5
413
330
400
100
AcDbEntity
  8
SLD-0
100
AcDbMText
 10
4639.9759044937
 20
1605.3701062597
 30
0.0
 40
26.19375
 41
0.0
 71
     1
 72
     1
  1
 
  7
SLDTEXTSTYLE0
 73
     1
 44
1.0
  0
ENDBLK
  5
402
330
400
100
AcDbEntity
  8
0
100
AcDbBlockEnd
  0
BLOCK
  5
416
330
415
100
AcDbEntity
  8
0
100
AcDbBlockBegin
  2
_D_20
 70
     0
 10
0.0
 20
0.0
 30
0.0
  3
_D_20
  1

  0
SOLID
  5
418
330
415
100
AcDbEntity
  8
SLD-0
100
AcDbTrace
 10
4492.8082584848
 20
1408.364710705
 30
0.0
 11
4495.5582584848
 21
1430.364710705
 31
0.0
 12
4490.0582584848
 22
1430.364710705
 32
0.0
 13
4490.0582584848
 23
1430.364710705
 33
0.0
  0
SOLID
  5
419
330
415
100
AcDbEntity
  8
SLD-0
100
AcDbTrace
 10
4492.8082584848
 20
1393.864710705
 30
0.0
 11
4490.0582584848
 21
1371.864710705
 31
0.0
 12
4495.5582584848
 22
1371.864710705
 32
0.0
 13
4495.5582584848
 23
1371.864710705
 33
0.0
  0
LINE
  5
41A
330
415
100
AcDbEntity
  8
SLD-0
100
AcDbLine
 10
4556.3256791859
 20
1325.8145929212
 30
0.0
 11
4548.358413281
 21
1325.8145929212
 31
0.0
  0
LINE
  5
41B
330
415
100
AcDbEntity
  8
SLD-0
100
AcDbLine
 10
4548.358413281
 20
1325.8145929212
 30
0.0
 11
4548.358413281
 21
1284.1956338743
 31
0.0
  0
LINE
  5
41C
330
415
100
AcDbEntity
  8
SLD-0
100
AcDbLine
 10
4548.358413281
 20
1284.1956338743
 30
0.0
 11
4556.3256791859
 21
1284.1956338743
 31
0.0
  0
LINE
  5
41D
330
415
100
AcDbEntity
  8
SLD-0
100
AcDbLine
 10
4604.6871030769
 20
1325.8145929212
 30
0.0
 11
4612.6543689818
 21
1325.8145929212
 31
0.0
  0
LINE
  5
41E
330
415
100
AcDbEntity
  8
SLD-0
100
AcDbLine
 10
4612.6543689818
 20
1325.8145929212
 30
0.0
 11
4612.6543689818
 21
1284.1956338743
 31
0.0
  0
LINE
  5
41F
330
415
100
AcDbEntity
  8
SLD-0
100
AcDbLine
 10
4612.6543689818
 20
1284.1956338743
 30
0.0
 11
4604.6871030769
 21
1284.1956338743
 31
0.0
  0
LINE
  5
420
330
415
100
AcDbEntity
  8
SLD-0
100
AcDbLine
 10
4210.4200054364
 20
1408.364710705
 30
0.0
 11
4501.1902584848
 21
1408.364710705
 31
0.0
  0
LINE
  5
421
330
415
100
AcDbEntity
  8
SLD-0
100
AcDbLine
 10
4442.9200054364
 20
1393.864710705
 30
0.0
 11
4501.1902584848
 21
1393.864710705
 31
0.0
  0
LINE
  5
422
330
415
100
AcDbEntity
  8
SLD-0
100
AcDbLine
 10
4514.8082584848
 20
1325.8145877989
 30
0.0
 11
4492.8082584848
 21
1325.8145877989
 31
0.0
  0
LINE
  5
423
330
415
100
AcDbEntity
  8
SLD-0
100
AcDbLine
 10
4492.8082584848
 20
1325.8145877989
 30
0.0
 11
4492.8082584848
 21
1393.864710705
 31
0.0
  0
LINE
  5
424
330
415
100
AcDbEntity
  8
SLD-0
100
AcDbLine
 10
4492.8082584848
 20
1408.364710705
 30
0.0
 11
4492.8082584848
 21
1452.364710705
 31
0.0
  0
MTEXT
  5
425
330
415
100
AcDbEntity
  8
SLD-0
100
AcDbMText
 10
4530.7382652602
 20
1364.584523388
 30
0.0
 40
26.19375
 41
0.0
 71
     1
 72
     1
  1
 
  7
SLDTEXTSTYLE0
 73
     1
 44
1.0
  0
MTEXT
  5
426
330
415
100
AcDbEntity
  8
SLD-0
100
AcDbMText
 10
4546.6485431018
 20
1364.5845259491
 30
0.0
 40
26.19375
 41
0.0
 71
     1
 72
     1
  1
14.5
  7
SLDTEXTSTYLE0
 73
     1
 44
1.0
  0
MTEXT
  5
427
330
415
100
AcDbEntity
  8
SLD-0
100
AcDbMText
 10
4556.3256791859
 20
1317.6540580064
 30
0.0
 40
26.19375
 41
0.0
 71
     1
 72
     1
  1
.57
  7
SLDTEXTSTYLE0
 73
     1
 44
1.0
  0
MTEXT
  5
428
330
415
100
AcDbEntity
  8
SLD-0
100
AcDbMText
 10
4620.6216374478
 20
1364.584523388
 30
0.0
 40
26.19375
 41
0.0
 71
     1
 72
     1
  1
 
  7
SLDTEXTSTYLE0
 73
     1
 44
1.0
  0
ENDBLK
  5
417
330
415
100
AcDbEntity
  8
0
100
AcDbBlockEnd
  0
BLOCK
  5
42B
330
42A
100
AcDbEntity
  8
0
100
AcDbBlockBegin
  2
_D_21
 70
     0
 10
0.0
 20
0.0
 30
0.0
  3
_D_21
  1

  0
SOLID
  5
42D
330
42A
100
AcDbEntity
  8
SLD-0
100
AcDbTrace
 10
4058.0380054364
 20
1303.605128357
 30
0.0
 11
4036.0380054364
 21
1306.355128357
 31
0.0
 12
4036.0380054364
 22
1300.855128357
 32
0.0
 13
4036.0380054364
 23
1300.855128357
 33
0.0
  0
SOLID
  5
42E
330
42A
100
AcDbEntity
  8
SLD-0
100
AcDbTrace
 10
3836.5380054364
 20
1303.605128357
 30
0.0
 11
3858.5380054364
 21
1300.855128357
 31
0.0
 12
3858.5380054364
 22
1306.355128357
 32
0.0
 13
3858.5380054364
 23
1306.355128357
 33
0.0
  0
LINE
  5
42F
330
42A
100
AcDbEntity
  8
SLD-0
100
AcDbLine
 10
3913.4301574069
 20
1303.6051334792
 30
0.0
 11
3905.462891502
 21
1303.6051334792
 31
0.0
  0
LINE
  5
430
330
42A
100
AcDbEntity
  8
SLD-0
100
AcDbLine
 10
3905.462891502
 20
1303.6051334792
 30
0.0
 11
3905.462891502
 21
1261.9861744323
 31
0.0
  0
LINE
  5
431
330
42A
100
AcDbEntity
  8
SLD-0
100
AcDbLine
 10
3905.462891502
 20
1261.9861744323
 30
0.0
 11
3913.4301574069
 21
1261.9861744323
 31
0.0
  0
LINE
  5
432
330
42A
100
AcDbEntity
  8
SLD-0
100
AcDbLine
 10
3981.145853466
 20
1303.6051334792
 30
0.0
 11
3989.1131193709
 21
1303.6051334792
 31
0.0
  0
LINE
  5
433
330
42A
100
AcDbEntity
  8
SLD-0
100
AcDbLine
 10
3989.1131193709
 20
1303.6051334792
 30
0.0
 11
3989.1131193709
 21
1261.9861744323
 31
0.0
  0
LINE
  5
434
330
42A
100
AcDbEntity
  8
SLD-0
100
AcDbLine
 10
3989.1131193709
 20
1261.9861744323
 30
0.0
 11
3981.145853466
 21
1261.9861744323
 31
0.0
  0
LINE
  5
435
330
42A
100
AcDbEntity
  8
SLD-0
100
AcDbLine
 10
4058.0380054364
 20
1410.982710705
 30
0.0
 11
4058.0380054364
 21
1295.223128357
 31
0.0
  0
LINE
  5
436
330
42A
100
AcDbEntity
  8
SLD-0
100
AcDbLine
 10
3836.5380054364
 20
1385.482710705
 30
0.0
 11
3836.5380054364
 21
1295.223128357
 31
0.0
  0
LINE
  5
437
330
42A
100
AcDbEntity
  8
SLD-0
100
AcDbLine
 10
4058.0380054364
 20
1303.605128357
 30
0.0
 11
4012.0432696502
 21
1303.605128357
 31
0.0
  0
LINE
  5
438
330
42A
100
AcDbEntity
  8
SLD-0
100
AcDbLine
 10
3836.5380054364
 20
1303.605128357
 30
0.0
 11
3882.5327412227
 21
1303.605128357
 31
0.0
  0
MTEXT
  5
439
330
42A
100
AcDbEntity
  8
SLD-0
100
AcDbMText
 10
3887.8427434812
 20
1342.3750639461
 30
0.0
 40
26.19375
 41
0.0
 71
     1
 72
     1
  1
 
  7
SLDTEXTSTYLE0
 73
     1
 44
1.0
  0
MTEXT
  5
43A
330
42A
100
AcDbEntity
  8
SLD-0
100
AcDbMText
 10
3903.7530213228
 20
1342.3750665072
 30
0.0
 40
26.19375
 41
0.0
 71
     1
 72
     1
  1
221.5
  7
SLDTEXTSTYLE0
 73
     1
 44
1.0
  0
MTEXT
  5
43B
330
42A
100
AcDbEntity
  8
SLD-0
100
AcDbMText
 10
3913.4301574069
 20
1295.4445985645
 30
0.0
 40
26.19375
 41
0.0
 71
     1
 72
     1
  1
8.72
  7
SLDTEXTSTYLE0
 73
     1
 44
1.0
  0
MTEXT
  5
43C
330
42A
100
AcDbEntity
  8
SLD-0
100
AcDbMText
 10
3997.0803827146
 20
1342.3750639461
 30
0.0
 40
26.19375
 41
0.0
 71
     1
 72
     1
  1
 
  7
SLDTEXTSTYLE0
 73
     1
 44
1.0
  0
ENDBLK
  5
42C
330
42A
100
AcDbEntity
  8
0
100
AcDbBlockEnd
  0
BLOCK
  5
44B
330
44A
100
AcDbEntity
  8
0
100
AcDbBlockBegin
  2
_D_22
 70
     0
 10
0.0
 20
0.0
 30
0.0
  3
_D_22
  1

  0
SOLID
  5
44D
330
44A
100
AcDbEntity
  8
SLD-0
100
AcDbTrace
 10
1531.4255839493
 20
2529.9266737096
 30
0.0
 11
1528.6755839493
 21
2507.9266737096
 31
0.0
 12
1534.1755839493
 22
2507.9266737096
 32
0.0
 13
1534.1755839493
 23
2507.9266737096
 33
0.0
  0
SOLID
  5
44E
330
44A
100
AcDbEntity
  8
SLD-0
100
AcDbTrace
 10
1531.4255839493
 20
2209.3266737096
 30
0.0
 11
1534.1755839493
 21
2231.3266737096
 31
0.0
 12
1528.6755839493
 22
2231.3266737096
 32
0.0
 13
1528.6755839493
 23
2231.3266737096
 33
0.0
  0
LINE
  5
44F
330
44A
100
AcDbEntity
  8
SLD-0
100
AcDbLine
 10
1487.8906023968
 20
2387.1660449238
 30
0.0
 11
1479.923336492
 21
2387.1660449238
 31
0.0
  0
LINE
  5
450
330
44A
100
AcDbEntity
  8
SLD-0
100
AcDbLine
 10
1479.923336492
 20
2387.1660449238
 30
0.0
 11
1479.923336492
 21
2345.5470858769
 31
0.0
  0
LINE
  5
451
330
44A
100
AcDbEntity
  8
SLD-0
100
AcDbLine
 10
1479.923336492
 20
2345.5470858769
 30
0.0
 11
1487.8906023968
 21
2345.5470858769
 31
0.0
  0
LINE
  5
452
330
44A
100
AcDbEntity
  8
SLD-0
100
AcDbLine
 10
1574.9605655019
 20
2387.1660449238
 30
0.0
 11
1582.9278314067
 21
2387.1660449238
 31
0.0
  0
LINE
  5
453
330
44A
100
AcDbEntity
  8
SLD-0
100
AcDbLine
 10
1582.9278314067
 20
2387.1660449238
 30
0.0
 11
1582.9278314067
 21
2345.5470858769
 31
0.0
  0
LINE
  5
454
330
44A
100
AcDbEntity
  8
SLD-0
100
AcDbLine
 10
1582.9278314067
 20
2345.5470858769
 30
0.0
 11
1574.9605655019
 21
2345.5470858769
 31
0.0
  0
LINE
  5
455
330
44A
100
AcDbEntity
  8
SLD-0
100
AcDbLine
 10
1934.7435839493
 20
2529.9266737096
 30
0.0
 11
1523.0435839493
 21
2529.9266737096
 31
0.0
  0
LINE
  5
456
330
44A
100
AcDbEntity
  8
SLD-0
100
AcDbLine
 10
1633.0435839493
 20
2209.3266737096
 30
0.0
 11
1523.0435839493
 21
2209.3266737096
 31
0.0
  0
LINE
  5
457
330
44A
100
AcDbEntity
  8
SLD-0
100
AcDbLine
 10
1531.4255839493
 20
2529.9266737096
 30
0.0
 11
1531.4255839493
 21
2434.0965103054
 31
0.0
  0
LINE
  5
458
330
44A
100
AcDbEntity
  8
SLD-0
100
AcDbLine
 10
1531.4255839493
 20
2209.3266737096
 30
0.0
 11
1531.4255839493
 21
2340.2355692977
 31
0.0
  0
MTEXT
  5
459
330
44A
100
AcDbEntity
  8
SLD-0
100
AcDbMText
 10
1462.3031884712
 20
2425.9359753906
 30
0.0
 40
26.19375
 41
0.0
 71
     1
 72
     1
  1
 
  7
SLDTEXTSTYLE0
 73
     1
 44
1.0
  0
MTEXT
  5
45A
330
44A
100
AcDbEntity
  8
SLD-0
100
AcDbMText
 10
1487.8905998357
 20
2425.9359779518
 30
0.0
 40
26.19375
 41
0.0
 71
     1
 72
     1
  1
320.6
  7
SLDTEXTSTYLE0
 73
     1
 44
1.0
  0
MTEXT
  5
45B
330
44A
100
AcDbEntity
  8
SLD-0
100
AcDbMText
 10
1487.8906023968
 20
2379.005510009
 30
0.0
 40
26.19375
 41
0.0
 71
     1
 72
     1
  1
12.62
  7
SLDTEXTSTYLE0
 73
     1
 44
1.0
  0
MTEXT
  5
45C
330
44A
100
AcDbEntity
  8
SLD-0
100
AcDbMText
 10
1590.8950947505
 20
2425.9359753906
 30
0.0
 40
26.19375
 41
0.0
 71
     1
 72
     1
  1
 
  7
SLDTEXTSTYLE0
 73
     1
 44
1.0
  0
ENDBLK
  5
44C
330
44A
100
AcDbEntity
  8
0
100
AcDbBlockEnd
  0
BLOCK
  5
45F
330
45E
100
AcDbEntity
  8
0
100
AcDbBlockBegin
  2
_D_23
 70
     0
 10
0.0
 20
0.0
 30
0.0
  3
_D_23
  1

  0
SOLID
  5
461
330
45E
100
AcDbEntity
  8
SLD-0
100
AcDbTrace
 10
1641.4255839493
 20
2126.5137889906
 30
0.0
 11
1663.4255839493
 21
2123.7637889906
 31
0.0
 12
1663.4255839493
 22
2129.2637889906
 32
0.0
 13
1663.4255839493
 23
2129.2637889906
 33
0.0
  0
SOLID
  5
462
330
45E
100
AcDbEntity
  8
SLD-0
100
AcDbTrace
 10
1943.1255839493
 20
2126.5137889906
 30
0.0
 11
1921.1255839493
 21
2129.2637889906
 31
0.0
 12
1921.1255839493
 22
2123.7637889906
 32
0.0
 13
1921.1255839493
 23
2123.7637889906
 33
0.0
  0
LINE
  5
463
330
45E
100
AcDbEntity
  8
SLD-0
100
AcDbLine
 10
1721.7152285895
 20
2126.5137941129
 30
0.0
 11
1713.7479626846
 21
2126.5137941129
 31
0.0
  0
LINE
  5
464
330
45E
100
AcDbEntity
  8
SLD-0
100
AcDbLine
 10
1713.7479626846
 20
2126.5137941129
 30
0.0
 11
1713.7479626846
 21
2084.894835066
 31
0.0
  0
LINE
  5
465
330
45E
100
AcDbEntity
  8
SLD-0
100
AcDbLine
 10
1713.7479626846
 20
2084.894835066
 30
0.0
 11
1721.7152285895
 21
2084.894835066
 31
0.0
  0
LINE
  5
466
330
45E
100
AcDbEntity
  8
SLD-0
100
AcDbLine
 10
1808.7851916945
 20
2126.5137941129
 30
0.0
 11
1816.7524575994
 21
2126.5137941129
 31
0.0
  0
LINE
  5
467
330
45E
100
AcDbEntity
  8
SLD-0
100
AcDbLine
 10
1816.7524575994
 20
2126.5137941129
 30
0.0
 11
1816.7524575994
 21
2084.894835066
 31
0.0
  0
LINE
  5
468
330
45E
100
AcDbEntity
  8
SLD-0
100
AcDbLine
 10
1816.7524575994
 20
2084.894835066
 30
0.0
 11
1808.7851916945
 21
2084.894835066
 31
0.0
  0
LINE
  5
469
330
45E
100
AcDbEntity
  8
SLD-0
100
AcDbLine
 10
1641.4255839493
 20
2200.9446737096
 30
0.0
 11
1641.4255839493
 21
2118.1317889906
 31
0.0
  0
LINE
  5
46A
330
45E
100
AcDbEntity
  8
SLD-0
100
AcDbLine
 10
1943.1255839493
 20
2517.9167913874
 30
0.0
 11
1943.1255839493
 21
2118.1317889906
 31
0.0
  0
LINE
  5
46B
330
45E
100
AcDbEntity
  8
SLD-0
100
AcDbLine
 10
1641.4255839493
 20
2126.5137889906
 30
0.0
 11
1690.8178124054
 21
2126.5137889906
 31
0.0
  0
LINE
  5
46C
330
45E
100
AcDbEntity
  8
SLD-0
100
AcDbLine
 10
1943.1255839493
 20
2126.5137889906
 30
0.0
 11
1839.6826078787
 21
2126.5137889906
 31
0.0
  0
MTEXT
  5
46D
330
45E
100
AcDbEntity
  8
SLD-0
100
AcDbMText
 10
1696.1278146638
 20
2165.2837245797
 30
0.0
 40
26.19375
 41
0.0
 71
     1
 72
     1
  1
 
  7
SLDTEXTSTYLE0
 73
     1
 44
1.0
  0
MTEXT
  5
46E
330
45E
100
AcDbEntity
  8
SLD-0
100
AcDbMText
 10
1721.7152260284
 20
2165.2837271409
 30
0.0
 40
26.19375
 41
0.0
 71
     1
 72
     1
  1
301.7
  7
SLDTEXTSTYLE0
 73
     1
 44
1.0
  0
MTEXT
  5
46F
330
45E
100
AcDbEntity
  8
SLD-0
100
AcDbMText
 10
1721.7152285895
 20
2118.3532591981
 30
0.0
 40
26.19375
 41
0.0
 71
     1
 72
     1
  1
11.88
  7
SLDTEXTSTYLE0
 73
     1
 44
1.0
  0
MTEXT
  5
470
330
45E
100
AcDbEntity
  8
SLD-0
100
AcDbMText
 10
1824.7197209432
 20
2165.2837245797
 30
0.0
 40
26.19375
 41
0.0
 71
     1
 72
     1
  1
 
  7
SLDTEXTSTYLE0
 73
     1
 44
1.0
  0
ENDBLK
  5
460
330
45E
100
AcDbEntity
  8
0
100
AcDbBlockEnd
  0
BLOCK
  5
473
330
472
100
AcDbEntity
  8
0
100
AcDbBlockBegin
  2
_D_24
 70
     0
 10
0.0
 20
0.0
 30
0.0
  3
_D_24
  1

  0
SOLID
  5
475
330
472
100
AcDbEntity
  8
SLD-0
100
AcDbTrace
 10
2415.4255839493
 20
2209.3266737096
 30
0.0
 11
2418.1755839493
 21
2231.3266737096
 31
0.0
 12
2412.6755839493
 22
2231.3266737096
 32
0.0
 13
2412.6755839493
 23
2231.3266737096
 33
0.0
  0
SOLID
  5
476
330
472
100
AcDbEntity
  8
SLD-0
100
AcDbTrace
 10
2415.4255839493
 20
2309.3266737096
 30
0.0
 11
2412.6755839493
 21
2287.3266737096
 31
0.0
 12
2418.1755839493
 22
2287.3266737096
 32
0.0
 13
2418.1755839493
 23
2287.3266737096
 33
0.0
  0
LINE
  5
477
330
472
100
AcDbEntity
  8
SLD-0
100
AcDbLine
 10
2478.9430046504
 20
2126.5137941129
 30
0.0
 11
2470.9757387455
 21
2126.5137941129
 31
0.0
  0
LINE
  5
478
330
472
100
AcDbEntity
  8
SLD-0
100
AcDbLine
 10
2470.9757387455
 20
2126.5137941129
 30
0.0
 11
2470.9757387455
 21
2084.894835066
 31
0.0
  0
LINE
  5
479
330
472
100
AcDbEntity
  8
SLD-0
100
AcDbLine
 10
2470.9757387455
 20
2084.894835066
 30
0.0
 11
2478.9430046504
 21
2084.894835066
 31
0.0
  0
LINE
  5
47A
330
472
100
AcDbEntity
  8
SLD-0
100
AcDbLine
 10
2546.6587007096
 20
2126.5137941129
 30
0.0
 11
2554.6259666145
 21
2126.5137941129
 31
0.0
  0
LINE
  5
47B
330
472
100
AcDbEntity
  8
SLD-0
100
AcDbLine
 10
2554.6259666145
 20
2126.5137941129
 30
0.0
 11
2554.6259666145
 21
2084.894835066
 31
0.0
  0
LINE
  5
47C
330
472
100
AcDbEntity
  8
SLD-0
100
AcDbLine
 10
2554.6259666145
 20
2084.894835066
 30
0.0
 11
2546.6587007096
 21
2084.894835066
 31
0.0
  0
LINE
  5
47D
330
472
100
AcDbEntity
  8
SLD-0
100
AcDbLine
 10
2247.8075839493
 20
2209.3266737096
 30
0.0
 11
2423.8075839493
 21
2209.3266737096
 31
0.0
  0
LINE
  5
47E
330
472
100
AcDbEntity
  8
SLD-0
100
AcDbLine
 10
2218.9075839493
 20
2309.3266737096
 30
0.0
 11
2423.8075839493
 21
2309.3266737096
 31
0.0
  0
LINE
  5
47F
330
472
100
AcDbEntity
  8
SLD-0
100
AcDbLine
 10
2437.4255839493
 20
2126.5137889906
 30
0.0
 11
2415.4255839493
 21
2126.5137889906
 31
0.0
  0
LINE
  5
480
330
472
100
AcDbEntity
  8
SLD-0
100
AcDbLine
 10
2415.4255839493
 20
2126.5137889906
 30
0.0
 11
2415.4255839493
 21
2209.3266737096
 31
0.0
  0
LINE
  5
481
330
472
100
AcDbEntity
  8
SLD-0
100
AcDbLine
 10
2415.4255839493
 20
2209.3266737096
 30
0.0
 11
2415.4255839493
 21
2309.3266737096
 31
0.0
  0
MTEXT
  5
482
330
472
100
AcDbEntity
  8
SLD-0
100
AcDbMText
 10
2453.3555907248
 20
2165.2837245797
 30
0.0
 40
26.19375
 41
0.0
 71
     1
 72
     1
  1
 
  7
SLDTEXTSTYLE0
 73
     1
 44
1.0
  0
MTEXT
  5
483
330
472
100
AcDbEntity
  8
SLD-0
100
AcDbMText
 10
2469.2658685664
 20
2165.2837271409
 30
0.0
 40
26.19375
 41
0.0
 71
     1
 72
     1
  1
100.0
  7
SLDTEXTSTYLE0
 73
     1
 44
1.0
  0
MTEXT
  5
484
330
472
100
AcDbEntity
  8
SLD-0
100
AcDbMText
 10
2478.9430046504
 20
2118.3532591981
 30
0.0
 40
26.19375
 41
0.0
 71
     1
 72
     1
  1
3.94
  7
SLDTEXTSTYLE0
 73
     1
 44
1.0
  0
MTEXT
  5
485
330
472
100
AcDbEntity
  8
SLD-0
100
AcDbMText
 10
2562.5932299582
 20
2165.2837245797
 30
0.0
 40
26.19375
 41
0.0
 71
     1
 72
     1
  1
 
  7
SLDTEXTSTYLE0
 73
     1
 44
1.0
  0
ENDBLK
  5
474
330
472
100
AcDbEntity
  8
0
100
AcDbBlockEnd
  0
BLOCK
  5
488
330
487
100
AcDbEntity
  8
0
100
AcDbBlockBegin
  2
_D_25
 70
     0
 10
0.0
 20
0.0
 30
0.0
  3
_D_25
  1

  0
SOLID
  5
48A
330
487
100
AcDbEntity
  8
SLD-0
100
AcDbTrace
 10
2415.4255839493
 20
2309.3266737096
 30
0.0
 11
2418.1755839493
 21
2331.3266737096
 31
0.0
 12
2412.6755839493
 22
2331.3266737096
 32
0.0
 13
2412.6755839493
 23
2331.3266737096
 33
0.0
  0
SOLID
  5
48B
330
487
100
AcDbEntity
  8
SLD-0
100
AcDbTrace
 10
2415.4255839493
 20
2799.3266737096
 30
0.0
 11
2412.6755839493
 21
2777.3266737096
 31
0.0
 12
2418.1755839493
 22
2777.3266737096
 32
0.0
 13
2418.1755839493
 23
2777.3266737096
 33
0.0
  0
LINE
  5
48C
330
487
100
AcDbEntity
  8
SLD-0
100
AcDbLine
 10
2371.8906023968
 20
2570.539956637
 30
0.0
 11
2363.923336492
 21
2570.539956637
 31
0.0
  0
LINE
  5
48D
330
487
100
AcDbEntity
  8
SLD-0
100
AcDbLine
 10
2363.923336492
 20
2570.539956637
 30
0.0
 11
2363.923336492
 21
2528.9209975901
 31
0.0
  0
LINE
  5
48E
330
487
100
AcDbEntity
  8
SLD-0
100
AcDbLine
 10
2363.923336492
 20
2528.9209975901
 30
0.0
 11
2371.8906023968
 21
2528.9209975901
 31
0.0
  0
LINE
  5
48F
330
487
100
AcDbEntity
  8
SLD-0
100
AcDbLine
 10
2458.9605655019
 20
2570.539956637
 30
0.0
 11
2466.9278314067
 21
2570.539956637
 31
0.0
  0
LINE
  5
490
330
487
100
AcDbEntity
  8
SLD-0
100
AcDbLine
 10
2466.9278314067
 20
2570.539956637
 30
0.0
 11
2466.9278314067
 21
2528.9209975901
 31
0.0
  0
LINE
  5
491
330
487
100
AcDbEntity
  8
SLD-0
100
AcDbLine
 10
2466.9278314067
 20
2528.9209975901
 30
0.0
 11
2458.9605655019
 21
2528.9209975901
 31
0.0
  0
LINE
  5
492
330
487
100
AcDbEntity
  8
SLD-0
100
AcDbLine
 10
2207.4075839493
 20
2309.3266737096
 30
0.0
 11
2423.8075839493
 21
2309.3266737096
 31
0.0
  0
LINE
  5
493
330
487
100
AcDbEntity
  8
SLD-0
100
AcDbLine
 10
2207.4075839493
 20
2799.3266737096
 30
0.0
 11
2423.8075839493
 21
2799.3266737096
 31
0.0
  0
LINE
  5
494
330
487
100
AcDbEntity
  8
SLD-0
100
AcDbLine
 10
2415.4255839493
 20
2309.3266737096
 30
0.0
 11
2415.4255839493
 21
2523.6094810108
 31
0.0
  0
LINE
  5
495
330
487
100
AcDbEntity
  8
SLD-0
100
AcDbLine
 10
2415.4255839493
 20
2799.3266737096
 30
0.0
 11
2415.4255839493
 21
2617.4704220186
 31
0.0
  0
MTEXT
  5
496
330
487
100
AcDbEntity
  8
SLD-0
100
AcDbMText
 10
2346.3031884712
 20
2609.3098871038
 30
0.0
 40
26.19375
 41
0.0
 71
     1
 72
     1
  1
 
  7
SLDTEXTSTYLE0
 73
     1
 44
1.0
  0
MTEXT
  5
497
330
487
100
AcDbEntity
  8
SLD-0
100
AcDbMText
 10
2371.8905998357
 20
2609.3098896649
 30
0.0
 40
26.19375
 41
0.0
 71
     1
 72
     1
  1
490.0
  7
SLDTEXTSTYLE0
 73
     1
 44
1.0
  0
MTEXT
  5
498
330
487
100
AcDbEntity
  8
SLD-0
100
AcDbMText
 10
2371.8906023968
 20
2562.3794217222
 30
0.0
 40
26.19375
 41
0.0
 71
     1
 72
     1
  1
19.29
  7
SLDTEXTSTYLE0
 73
     1
 44
1.0
  0
MTEXT
  5
499
330
487
100
AcDbEntity
  8
SLD-0
100
AcDbMText
 10
2474.8950947505
 20
2609.3098871038
 30
0.0
 40
26.19375
 41
0.0
 71
     1
 72
     1
  1
 
  7
SLDTEXTSTYLE0
 73
     1
 44
1.0
  0
ENDBLK
  5
489
330
487
100
AcDbEntity
  8
0
100
AcDbBlockEnd
  0
BLOCK
  5
49C
330
49B
100
AcDbEntity
  8
0
100
AcDbBlockBegin
  2
_D_26
 70
     0
 10
0.0
 20
0.0
 30
0.0
  3
_D_26
  1

  0
SOLID
  5
49E
330
49B
100
AcDbEntity
  8
SLD-0
100
AcDbTrace
 10
2239.4255839493
 20
2126.5137889906
 30
0.0
 11
2261.4255839493
 21
2123.7637889906
 31
0.0
 12
2261.4255839493
 22
2129.2637889906
 32
0.0
 13
2261.4255839493
 23
2129.2637889906
 33
0.0
  0
SOLID
  5
49F
330
49B
100
AcDbEntity
  8
SLD-0
100
AcDbTrace
 10
2199.0255839493
 20
2126.5137889906
 30
0.0
 11
2177.0255839493
 21
2129.2637889906
 31
0.0
 12
2177.0255839493
 22
2123.7637889906
 32
0.0
 13
2177.0255839493
 23
2123.7637889906
 33
0.0
  0
LINE
  5
4A0
330
49B
100
AcDbEntity
  8
SLD-0
100
AcDbLine
 10
2041.1768960694
 20
2126.5137941129
 30
0.0
 11
2033.2096301645
 21
2126.5137941129
 31
0.0
  0
LINE
  5
4A1
330
49B
100
AcDbEntity
  8
SLD-0
100
AcDbLine
 10
2033.2096301645
 20
2126.5137941129
 30
0.0
 11
2033.2096301645
 21
2084.894835066
 31
0.0
  0
LINE
  5
4A2
330
49B
100
AcDbEntity
  8
SLD-0
100
AcDbLine
 10
2033.2096301645
 20
2084.894835066
 30
0.0
 11
2041.1768960694
 21
2084.894835066
 31
0.0
  0
LINE
  5
4A3
330
49B
100
AcDbEntity
  8
SLD-0
100
AcDbLine
 10
2108.8925921286
 20
2126.5137941129
 30
0.0
 11
2116.8598580335
 21
2126.5137941129
 31
0.0
  0
LINE
  5
4A4
330
49B
100
AcDbEntity
  8
SLD-0
100
AcDbLine
 10
2116.8598580335
 20
2126.5137941129
 30
0.0
 11
2116.8598580335
 21
2084.894835066
 31
0.0
  0
LINE
  5
4A5
330
49B
100
AcDbEntity
  8
SLD-0
100
AcDbLine
 10
2116.8598580335
 20
2084.894835066
 30
0.0
 11
2108.8925921286
 21
2084.894835066
 31
0.0
  0
LINE
  5
4A6
330
49B
100
AcDbEntity
  8
SLD-0
100
AcDbLine
 10
2239.4255839493
 20
2200.9446737096
 30
0.0
 11
2239.4255839493
 21
2118.1317889906
 31
0.0
  0
LINE
  5
4A7
330
49B
100
AcDbEntity
  8
SLD-0
100
AcDbLine
 10
2199.0255839493
 20
2300.9446737096
 30
0.0
 11
2199.0255839493
 21
2118.1317889906
 31
0.0
  0
LINE
  5
4A8
330
49B
100
AcDbEntity
  8
SLD-0
100
AcDbLine
 10
2239.4255839493
 20
2126.5137889906
 30
0.0
 11
2283.4255839493
 21
2126.5137889906
 31
0.0
  0
LINE
  5
4A9
330
49B
100
AcDbEntity
  8
SLD-0
100
AcDbLine
 10
2199.0255839493
 20
2126.5137889906
 30
0.0
 11
2139.7900083127
 21
2126.5137889906
 31
0.0
  0
MTEXT
  5
4AA
330
49B
100
AcDbEntity
  8
SLD-0
100
AcDbMText
 10
2015.5894821437
 20
2165.2837245797
 30
0.0
 40
26.19375
 41
0.0
 71
     1
 72
     1
  1
 
  7
SLDTEXTSTYLE0
 73
     1
 44
1.0
  0
MTEXT
  5
4AB
330
49B
100
AcDbEntity
  8
SLD-0
100
AcDbMText
 10
2041.1768935083
 20
2165.2837271409
 30
0.0
 40
26.19375
 41
0.0
 71
     1
 72
     1
  1
40.4
  7
SLDTEXTSTYLE0
 73
     1
 44
1.0
  0
MTEXT
  5
4AC
330
49B
100
AcDbEntity
  8
SLD-0
100
AcDbMText
 10
2041.1768960694
 20
2118.3532591981
 30
0.0
 40
26.19375
 41
0.0
 71
     1
 72
     1
  1
1.59
  7
SLDTEXTSTYLE0
 73
     1
 44
1.0
  0
MTEXT
  5
4AD
330
49B
100
AcDbEntity
  8
SLD-0
100
AcDbMText
 10
2124.8271213772
 20
2165.2837245797
 30
0.0
 40
26.19375
 41
0.0
 71
     1
 72
     1
  1
 
  7
SLDTEXTSTYLE0
 73
     1
 44
1.0
  0
ENDBLK
  5
49D
330
49B
100
AcDbEntity
  8
0
100
AcDbBlockEnd
  0
BLOCK
  5
4B0
330
4AF
100
AcDbEntity
  8
0
100
AcDbBlockBegin
  2
SW_NOTE_0_5
 70
     0
 10
0.0
 20
0.0
 30
0.0
  3
SW_NOTE_0_5
  1

  0
LINE
  5
4B2
330
4AF
100
AcDbEntity
  8
SLD-0
 62
     0
100
AcDbLine
 10
0.0
 20
-33.5413048934
 30
0.0
 11
0.0
 21
29.9467754078
 31
0.0
  0
LINE
  5
4B3
330
4AF
100
AcDbEntity
  8
SLD-0
 62
     0
100
AcDbLine
 10
0.0
 20
29.9467754078
 30
0.0
 11
63.4880803011
 21
29.9467754078
 31
0.0
  0
LINE
  5
4B4
330
4AF
100
AcDbEntity
  8
SLD-0
 62
     0
100
AcDbLine
 10
63.4880803011
 20
29.9467754078
 30
0.0
 11
63.4880803011
 21
-33.5413048934
 31
0.0
  0
LINE
  5
4B5
330
4AF
100
AcDbEntity
  8
SLD-0
 62
     0
100
AcDbLine
 10
63.4880803011
 20
-33.5413048934
 30
0.0
 11
0.0
 21
-33.5413048934
 31
0.0
  0
MTEXT
  5
4B6
330
4AF
100
AcDbEntity
  8
SLD-0
 62
     0
100
AcDbMText
 10
31.480283613
 20
10.9550029215
 30
0.0
 40
26.19375
 41
0.0
 71
     2
 72
     1
  1
5
  7
SLDTEXTSTYLE0
 73
     1
 44
1.0
  0
ENDBLK
  5
4B1
330
4AF
100
AcDbEntity
  8
0
100
AcDbBlockEnd
  0
BLOCK
  5
4BB
330
4BA
100
AcDbEntity
  8
0
100
AcDbBlockBegin
  2
SW_CENTERMARKSYMBOL_10
 70
     0
 10
0.0
 20
0.0
 30
0.0
  3
SW_CENTERMARKSYMBOL_10
  1

  0
LINE
  5
4BD
330
4BA
100
AcDbEntity
  8
SLD-0
 62
     0
100
AcDbLine
 10
0.0
 20
0.0
 30
0.0
 11
0.0
 21
6.0
 31
0.0
  0
LINE
  5
4BE
330
4BA
100
AcDbEntity
  8
SLD-0
 62
     0
100
AcDbLine
 10
0.0
 20
0.0
 30
0.0
 11
-6.0
 21
0.0
 31
0.0
  0
LINE
  5
4BF
330
4BA
100
AcDbEntity
  8
SLD-0
 62
     0
100
AcDbLine
 10
0.0
 20
0.0
 30
0.0
 11
0.0
 21
-6.0
 31
0.0
  0
LINE
  5
4C0
330
4BA
100
AcDbEntity
  8
SLD-0
 62
     0
100
AcDbLine
 10
0.0
 20
0.0
 30
0.0
 11
6.0
 21
0.0
 31
0.0
  0
LINE
  5
4C1
330
4BA
100
AcDbEntity
  8
SLD-0
 62
     0
100
AcDbLine
 10
0.0
 20
6.0
 30
0.0
 11
0.0
 21
11.5
 31
0.0
  0
LINE
  5
4C2
330
4BA
100
AcDbEntity
  8
SLD-0
 62
     0
100
AcDbLine
 10
-6.0
 20
0.0
 30
0.0
 11
-11.5
 21
0.0
 31
0.0
  0
LINE
  5
4C3
330
4BA
100
AcDbEntity
  8
SLD-0
 62
     0
100
AcDbLine
 10
0.0
 20
-6.0
 30
0.0
 11
0.0
 21
-11.5
 31
0.0
  0
LINE
  5
4C4
330
4BA
100
AcDbEntity
  8
SLD-0
 62
     0
100
AcDbLine
 10
6.0
 20
0.0
 30
0.0
 11
11.5
 21
0.0
 31
0.0
  0
ENDBLK
  5
4BC
330
4BA
100
AcDbEntity
  8
0
100
AcDbBlockEnd
  0
BLOCK
  5
4C7
330
4C6
100
AcDbEntity
  8
0
100
AcDbBlockBegin
  2
SW_CENTERMARKSYMBOL_11
 70
     0
 10
0.0
 20
0.0
 30
0.0
  3
SW_CENTERMARKSYMBOL_11
  1

  0
LINE
  5
4C9
330
4C6
100
AcDbEntity
  8
SLD-0
 62
     0
100
AcDbLine
 10
0.0
 20
0.0
 30
0.0
 11
0.0
 21
6.0
 31
0.0
  0
LINE
  5
4CA
330
4C6
100
AcDbEntity
  8
SLD-0
 62
     0
100
AcDbLine
 10
0.0
 20
0.0
 30
0.0
 11
-6.0
 21
0.0
 31
0.0
  0
LINE
  5
4CB
330
4C6
100
AcDbEntity
  8
SLD-0
 62
     0
100
AcDbLine
 10
0.0
 20
0.0
 30
0.0
 11
0.0
 21
-6.0
 31
0.0
  0
LINE
  5
4CC
330
4C6
100
AcDbEntity
  8
SLD-0
 62
     0
100
AcDbLine
 10
0.0
 20
0.0
 30
0.0
 11
6.0
 21
0.0
 31
0.0
  0
LINE
  5
4CD
330
4C6
100
AcDbEntity
  8
SLD-0
 62
     0
100
AcDbLine
 10
0.0
 20
6.0
 30
0.0
 11
0.0
 21
11.5
 31
0.0
  0
LINE
  5
4CE
330
4C6
100
AcDbEntity
  8
SLD-0
 62
     0
100
AcDbLine
 10
-6.0
 20
0.0
 30
0.0
 11
-11.5
 21
0.0
 31
0.0
  0
LINE
  5
4CF
330
4C6
100
AcDbEntity
  8
SLD-0
 62
     0
100
AcDbLine
 10
0.0
 20
-6.0
 30
0.0
 11
0.0
 21
-11.5
 31
0.0
  0
LINE
  5
4D0
330
4C6
100
AcDbEntity
  8
SLD-0
 62
     0
100
AcDbLine
 10
6.0
 20
0.0
 30
0.0
 11
11.5
 21
0.0
 31
0.0
  0
ENDBLK
  5
4C8
330
4C6
100
AcDbEntity
  8
0
100
AcDbBlockEnd
  0
BLOCK
  5
550
330
54F
100
AcDbEntity
  8
0
100
AcDbBlockBegin
  2
_D_27
 70
     0
 10
0.0
 20
0.0
 30
0.0
  3
_D_27
  1

  0
SOLID
  5
552
330
54F
100
AcDbEntity
  8
SLD-0
100
AcDbTrace
 10
2481.4255839493
 20
888.2506222531
 30
0.0
 11
2478.6755839493
 21
866.2506222531
 31
0.0
 12
2484.1755839493
 22
866.2506222531
 32
0.0
 13
2484.1755839493
 23
866.2506222531
 33
0.0
  0
SOLID
  5
553
330
54F
100
AcDbEntity
  8
SLD-0
100
AcDbTrace
 10
2481.4255839493
 20
398.2506222531
 30
0.0
 11
2484.1755839493
 21
420.2506222531
 31
0.0
 12
2478.6755839493
 22
420.2506222531
 32
0.0
 13
2478.6755839493
 23
420.2506222531
 33
0.0
  0
LINE
  5
554
330
54F
100
AcDbEntity
  8
SLD-0
100
AcDbLine
 10
2437.8906023968
 20
643.2506273754
 30
0.0
 11
2429.923336492
 21
643.2506273754
 31
0.0
  0
LINE
  5
555
330
54F
100
AcDbEntity
  8
SLD-0
100
AcDbLine
 10
2429.923336492
 20
643.2506273754
 30
0.0
 11
2429.923336492
 21
601.6316683285
 31
0.0
  0
LINE
  5
556
330
54F
100
AcDbEntity
  8
SLD-0
100
AcDbLine
 10
2429.923336492
 20
601.6316683285
 30
0.0
 11
2437.8906023968
 21
601.6316683285
 31
0.0
  0
LINE
  5
557
330
54F
100
AcDbEntity
  8
SLD-0
100
AcDbLine
 10
2524.9605655019
 20
643.2506273754
 30
0.0
 11
2532.9278314067
 21
643.2506273754
 31
0.0
  0
LINE
  5
558
330
54F
100
AcDbEntity
  8
SLD-0
100
AcDbLine
 10
2532.9278314067
 20
643.2506273754
 30
0.0
 11
2532.9278314067
 21
601.6316683285
 31
0.0
  0
LINE
  5
559
330
54F
100
AcDbEntity
  8
SLD-0
100
AcDbLine
 10
2532.9278314067
 20
601.6316683285
 30
0.0
 11
2524.9605655019
 21
601.6316683285
 31
0.0
  0
LINE
  5
55A
330
54F
100
AcDbEntity
  8
SLD-0
100
AcDbLine
 10
2218.9075839493
 20
888.2506222531
 30
0.0
 11
2489.8075839493
 21
888.2506222531
 31
0.0
  0
LINE
  5
55B
330
54F
100
AcDbEntity
  8
SLD-0
100
AcDbLine
 10
2218.9075839493
 20
398.2506222531
 30
0.0
 11
2489.8075839493
 21
398.2506222531
 31
0.0
  0
LINE
  5
55C
330
54F
100
AcDbEntity
  8
SLD-0
100
AcDbLine
 10
2481.4255839493
 20
888.2506222531
 30
0.0
 11
2481.4255839493
 21
690.181092757
 31
0.0
  0
LINE
  5
55D
330
54F
100
AcDbEntity
  8
SLD-0
100
AcDbLine
 10
2481.4255839493
 20
398.2506222531
 30
0.0
 11
2481.4255839493
 21
596.3201517493
 31
0.0
  0
MTEXT
  5
55E
330
54F
100
AcDbEntity
  8
SLD-0
100
AcDbMText
 10
2412.3031884712
 20
682.0205578422
 30
0.0
 40
26.19375
 41
0.0
 71
     1
 72
     1
  1
 
  7
SLDTEXTSTYLE0
 73
     1
 44
1.0
  0
MTEXT
  5
55F
330
54F
100
AcDbEntity
  8
SLD-0
100
AcDbMText
 10
2437.8905998357
 20
682.0205604034
 30
0.0
 40
26.19375
 41
0.0
 71
     1
 72
     1
  1
490.0
  7
SLDTEXTSTYLE0
 73
     1
 44
1.0
  0
MTEXT
  5
560
330
54F
100
AcDbEntity
  8
SLD-0
100
AcDbMText
 10
2437.8906023968
 20
635.0900924606
 30
0.0
 40
26.19375
 41
0.0
 71
     1
 72
     1
  1
19.29
  7
SLDTEXTSTYLE0
 73
     1
 44
1.0
  0
MTEXT
  5
561
330
54F
100
AcDbEntity
  8
SLD-0
100
AcDbMText
 10
2540.8950947505
 20
682.0205578422
 30
0.0
 40
26.19375
 41
0.0
 71
     1
 72
     1
  1
 
  7
SLDTEXTSTYLE0
 73
     1
 44
1.0
  0
ENDBLK
  5
551
330
54F
100
AcDbEntity
  8
0
100
AcDbBlockEnd
  0
BLOCK
  5
564
330
563
100
AcDbEntity
  8
0
100
AcDbBlockBegin
  2
_D_28
 70
     0
 10
0.0
 20
0.0
 30
0.0
  3
_D_28
  1

  0
SOLID
  5
566
330
563
100
AcDbEntity
  8
SLD-0
100
AcDbTrace
 10
1681.8255839493
 20
1075.7121075789
 30
0.0
 11
1703.8255839493
 21
1072.9621075789
 31
0.0
 12
1703.8255839493
 22
1078.4621075789
 32
0.0
 13
1703.8255839493
 23
1078.4621075789
 33
0.0
  0
SOLID
  5
567
330
563
100
AcDbEntity
  8
SLD-0
100
AcDbTrace
 10
2199.0255839493
 20
1075.7121075789
 30
0.0
 11
2177.0255839493
 21
1078.4621075789
 31
0.0
 12
2177.0255839493
 22
1072.9621075789
 32
0.0
 13
2177.0255839493
 23
1072.9621075789
 33
0.0
  0
LINE
  5
568
330
563
100
AcDbEntity
  8
SLD-0
100
AcDbLine
 10
1896.8906023968
 20
1075.7121127012
 30
0.0
 11
1888.923336492
 21
1075.7121127012
 31
0.0
  0
LINE
  5
569
330
563
100
AcDbEntity
  8
SLD-0
100
AcDbLine
 10
1888.923336492
 20
1075.7121127012
 30
0.0
 11
1888.923336492
 21
1034.0931536543
 31
0.0
  0
LINE
  5
56A
330
563
100
AcDbEntity
  8
SLD-0
100
AcDbLine
 10
1888.923336492
 20
1034.0931536543
 30
0.0
 11
1896.8906023968
 21
1034.0931536543
 31
0.0
  0
LINE
  5
56B
330
563
100
AcDbEntity
  8
SLD-0
100
AcDbLine
 10
1983.9605655019
 20
1075.7121127012
 30
0.0
 11
1991.9278314067
 21
1075.7121127012
 31
0.0
  0
LINE
  5
56C
330
563
100
AcDbEntity
  8
SLD-0
100
AcDbLine
 10
1991.9278314067
 20
1075.7121127012
 30
0.0
 11
1991.9278314067
 21
1034.0931536543
 31
0.0
  0
LINE
  5
56D
330
563
100
AcDbEntity
  8
SLD-0
100
AcDbLine
 10
1991.9278314067
 20
1034.0931536543
 30
0.0
 11
1983.9605655019
 21
1034.0931536543
 31
0.0
  0
LINE
  5
56E
330
563
100
AcDbEntity
  8
SLD-0
100
AcDbLine
 10
1681.8255839493
 20
908.1326222531
 30
0.0
 11
1681.8255839493
 21
1084.0941075789
 31
0.0
  0
LINE
  5
56F
330
563
100
AcDbEntity
  8
SLD-0
100
AcDbLine
 10
2199.0255839493
 20
908.1326222531
 30
0.0
 11
2199.0255839493
 21
1084.0941075789
 31
0.0
  0
LINE
  5
570
330
563
100
AcDbEntity
  8
SLD-0
100
AcDbLine
 10
1681.8255839493
 20
1075.7121075789
 30
0.0
 11
1865.9931862127
 21
1075.7121075789
 31
0.0
  0
LINE
  5
571
330
563
100
AcDbEntity
  8
SLD-0
100
AcDbLine
 10
2199.0255839493
 20
1075.7121075789
 30
0.0
 11
2014.857981686
 21
1075.7121075789
 31
0.0
  0
MTEXT
  5
572
330
563
100
AcDbEntity
  8
SLD-0
100
AcDbMText
 10
1871.3031884712
 20
1114.482043168
 30
0.0
 40
26.19375
 41
0.0
 71
     1
 72
     1
  1
 
  7
SLDTEXTSTYLE0
 73
     1
 44
1.0
  0
MTEXT
  5
573
330
563
100
AcDbEntity
  8
SLD-0
100
AcDbMText
 10
1896.8905998357
 20
1114.4820457291
 30
0.0
 40
26.19375
 41
0.0
 71
     1
 72
     1
  1
517.2
  7
SLDTEXTSTYLE0
 73
     1
 44
1.0
  0
MTEXT
  5
574
330
563
100
AcDbEntity
  8
SLD-0
100
AcDbMText
 10
1896.8906023968
 20
1067.5515777864
 30
0.0
 40
26.19375
 41
0.0
 71
     1
 72
     1
  1
20.36
  7
SLDTEXTSTYLE0
 73
     1
 44
1.0
  0
MTEXT
  5
575
330
563
100
AcDbEntity
  8
SLD-0
100
AcDbMText
 10
1999.8950947505
 20
1114.482043168
 30
0.0
 40
26.19375
 41
0.0
 71
     1
 72
     1
  1
 
  7
SLDTEXTSTYLE0
 73
     1
 44
1.0
  0
ENDBLK
  5
565
330
563
100
AcDbEntity
  8
0
100
AcDbBlockEnd
  0
BLOCK
  5
578
330
577
100
AcDbEntity
  8
0
100
AcDbBlockBegin
  2
_D_29
 70
     0
 10
0.0
 20
0.0
 30
0.0
  3
_D_29
  1

  0
SOLID
  5
57A
330
577
100
AcDbEntity
  8
SLD-0
100
AcDbTrace
 10
2199.0255839493
 20
1075.7121075789
 30
0.0
 11
2177.0255839493
 21
1078.4621075789
 31
0.0
 12
2177.0255839493
 22
1072.9621075789
 32
0.0
 13
2177.0255839493
 23
1072.9621075789
 33
0.0
  0
SOLID
  5
57B
330
577
100
AcDbEntity
  8
SLD-0
100
AcDbTrace
 10
2239.4255839493
 20
1075.7121075789
 30
0.0
 11
2261.4255839493
 21
1072.9621075789
 31
0.0
 12
2261.4255839493
 22
1078.4621075789
 32
0.0
 13
2261.4255839493
 23
1078.4621075789
 33
0.0
  0
LINE
  5
57C
330
577
100
AcDbEntity
  8
SLD-0
100
AcDbLine
 10
2315.5677359198
 20
1075.7121127012
 30
0.0
 11
2307.6004700149
 21
1075.7121127012
 31
0.0
  0
LINE
  5
57D
330
577
100
AcDbEntity
  8
SLD-0
100
AcDbLine
 10
2307.6004700149
 20
1075.7121127012
 30
0.0
 11
2307.6004700149
 21
1034.0931536543
 31
0.0
  0
LINE
  5
57E
330
577
100
AcDbEntity
  8
SLD-0
100
AcDbLine
 10
2307.6004700149
 20
1034.0931536543
 30
0.0
 11
2315.5677359198
 21
1034.0931536543
 31
0.0
  0
LINE
  5
57F
330
577
100
AcDbEntity
  8
SLD-0
100
AcDbLine
 10
2383.2834319789
 20
1075.7121127012
 30
0.0
 11
2391.2506978838
 21
1075.7121127012
 31
0.0
  0
LINE
  5
580
330
577
100
AcDbEntity
  8
SLD-0
100
AcDbLine
 10
2391.2506978838
 20
1075.7121127012
 30
0.0
 11
2391.2506978838
 21
1034.0931536543
 31
0.0
  0
LINE
  5
581
330
577
100
AcDbEntity
  8
SLD-0
100
AcDbLine
 10
2391.2506978838
 20
1034.0931536543
 30
0.0
 11
2383.2834319789
 21
1034.0931536543
 31
0.0
  0
LINE
  5
582
330
577
100
AcDbEntity
  8
SLD-0
100
AcDbLine
 10
2199.0255839493
 20
908.1326222531
 30
0.0
 11
2199.0255839493
 21
1084.0941075789
 31
0.0
  0
LINE
  5
583
330
577
100
AcDbEntity
  8
SLD-0
100
AcDbLine
 10
2239.4255839493
 20
996.6326222531
 30
0.0
 11
2239.4255839493
 21
1084.0941075789
 31
0.0
  0
LINE
  5
584
330
577
100
AcDbEntity
  8
SLD-0
100
AcDbLine
 10
2199.0255839493
 20
1075.7121075789
 30
0.0
 11
2155.0255839493
 21
1075.7121075789
 31
0.0
  0
LINE
  5
585
330
577
100
AcDbEntity
  8
SLD-0
100
AcDbLine
 10
2239.4255839493
 20
1075.7121075789
 30
0.0
 11
2284.6703197356
 21
1075.7121075789
 31
0.0
  0
MTEXT
  5
586
330
577
100
AcDbEntity
  8
SLD-0
100
AcDbMText
 10
2289.9803219941
 20
1114.482043168
 30
0.0
 40
26.19375
 41
0.0
 71
     1
 72
     1
  1
 
  7
SLDTEXTSTYLE0
 73
     1
 44
1.0
  0
MTEXT
  5
587
330
577
100
AcDbEntity
  8
SLD-0
100
AcDbMText
 10
2315.5677333586
 20
1114.4820457291
 30
0.0
 40
26.19375
 41
0.0
 71
     1
 72
     1
  1
40.4
  7
SLDTEXTSTYLE0
 73
     1
 44
1.0
  0
MTEXT
  5
588
330
577
100
AcDbEntity
  8
SLD-0
100
AcDbMText
 10
2315.5677359198
 20
1067.5515777864
 30
0.0
 40
26.19375
 41
0.0
 71
     1
 72
     1
  1
1.59
  7
SLDTEXTSTYLE0
 73
     1
 44
1.0
  0
MTEXT
  5
589
330
577
100
AcDbEntity
  8
SLD-0
100
AcDbMText
 10
2399.2179612276
 20
1114.482043168
 30
0.0
 40
26.19375
 41
0.0
 71
     1
 72
     1
  1
 
  7
SLDTEXTSTYLE0
 73
     1
 44
1.0
  0
ENDBLK
  5
579
330
577
100
AcDbEntity
  8
0
100
AcDbBlockEnd
  0
BLOCK
  5
58C
330
58B
100
AcDbEntity
  8
0
100
AcDbBlockBegin
  2
_D_30
 70
     0
 10
0.0
 20
0.0
 30
0.0
  3
_D_30
  1

  0
SOLID
  5
58E
330
58B
100
AcDbEntity
  8
SLD-0
100
AcDbTrace
 10
2481.4255839493
 20
988.2506222531
 30
0.0
 11
2478.6755839493
 21
966.2506222531
 31
0.0
 12
2484.1755839493
 22
966.2506222531
 32
0.0
 13
2484.1755839493
 23
966.2506222531
 33
0.0
  0
SOLID
  5
58F
330
58B
100
AcDbEntity
  8
SLD-0
100
AcDbTrace
 10
2481.4255839493
 20
888.2506222531
 30
0.0
 11
2484.1755839493
 21
910.2506222531
 31
0.0
 12
2478.6755839493
 22
910.2506222531
 32
0.0
 13
2478.6755839493
 23
910.2506222531
 33
0.0
  0
LINE
  5
590
330
58B
100
AcDbEntity
  8
SLD-0
100
AcDbLine
 10
2544.9430046504
 20
1075.7121127012
 30
0.0
 11
2536.9757387455
 21
1075.7121127012
 31
0.0
  0
LINE
  5
591
330
58B
100
AcDbEntity
  8
SLD-0
100
AcDbLine
 10
2536.9757387455
 20
1075.7121127012
 30
0.0
 11
2536.9757387455
 21
1034.0931536543
 31
0.0
  0
LINE
  5
592
330
58B
100
AcDbEntity
  8
SLD-0
100
AcDbLine
 10
2536.9757387455
 20
1034.0931536543
 30
0.0
 11
2544.9430046504
 21
1034.0931536543
 31
0.0
  0
LINE
  5
593
330
58B
100
AcDbEntity
  8
SLD-0
100
AcDbLine
 10
2612.6587007096
 20
1075.7121127012
 30
0.0
 11
2620.6259666145
 21
1075.7121127012
 31
0.0
  0
LINE
  5
594
330
58B
100
AcDbEntity
  8
SLD-0
100
AcDbLine
 10
2620.6259666145
 20
1075.7121127012
 30
0.0
 11
2620.6259666145
 21
1034.0931536543
 31
0.0
  0
LINE
  5
595
330
58B
100
AcDbEntity
  8
SLD-0
100
AcDbLine
 10
2620.6259666145
 20
1034.0931536543
 30
0.0
 11
2612.6587007096
 21
1034.0931536543
 31
0.0
  0
LINE
  5
596
330
58B
100
AcDbEntity
  8
SLD-0
100
AcDbLine
 10
2247.8075839493
 20
988.2506222531
 30
0.0
 11
2489.8075839493
 21
988.2506222531
 31
0.0
  0
LINE
  5
597
330
58B
100
AcDbEntity
  8
SLD-0
100
AcDbLine
 10
2218.9075839493
 20
888.2506222531
 30
0.0
 11
2489.8075839493
 21
888.2506222531
 31
0.0
  0
LINE
  5
598
330
58B
100
AcDbEntity
  8
SLD-0
100
AcDbLine
 10
2503.4255839493
 20
1075.7121075789
 30
0.0
 11
2481.4255839493
 21
1075.7121075789
 31
0.0
  0
LINE
  5
599
330
58B
100
AcDbEntity
  8
SLD-0
100
AcDbLine
 10
2481.4255839493
 20
1075.7121075789
 30
0.0
 11
2481.4255839493
 21
988.2506222531
 31
0.0
  0
LINE
  5
59A
330
58B
100
AcDbEntity
  8
SLD-0
100
AcDbLine
 10
2481.4255839493
 20
988.2506222531
 30
0.0
 11
2481.4255839493
 21
888.2506222531
 31
0.0
  0
MTEXT
  5
59B
330
58B
100
AcDbEntity
  8
SLD-0
100
AcDbMText
 10
2519.3555907248
 20
1114.482043168
 30
0.0
 40
26.19375
 41
0.0
 71
     1
 72
     1
  1
 
  7
SLDTEXTSTYLE0
 73
     1
 44
1.0
  0
MTEXT
  5
59C
330
58B
100
AcDbEntity
  8
SLD-0
100
AcDbMText
 10
2535.2658685664
 20
1114.4820457291
 30
0.0
 40
26.19375
 41
0.0
 71
     1
 72
     1
  1
100.0
  7
SLDTEXTSTYLE0
 73
     1
 44
1.0
  0
MTEXT
  5
59D
330
58B
100
AcDbEntity
  8
SLD-0
100
AcDbMText
 10
2544.9430046504
 20
1067.5515777864
 30
0.0
 40
26.19375
 41
0.0
 71
     1
 72
     1
  1
3.94
  7
SLDTEXTSTYLE0
 73
     1
 44
1.0
  0
MTEXT
  5
59E
330
58B
100
AcDbEntity
  8
SLD-0
100
AcDbMText
 10
2628.5932299582
 20
1114.482043168
 30
0.0
 40
26.19375
 41
0.0
 71
     1
 72
     1
  1
 
  7
SLDTEXTSTYLE0
 73
     1
 44
1.0
  0
ENDBLK
  5
58D
330
58B
100
AcDbEntity
  8
0
100
AcDbBlockEnd
  0
BLOCK
  5
5A1
330
5A0
100
AcDbEntity
  8
0
100
AcDbBlockBegin
  2
_D_31
 70
     0
 10
0.0
 20
0.0
 30
0.0
  3
_D_31
  1

  0
SOLID
  5
5A3
330
5A0
100
AcDbEntity
  8
SLD-0
100
AcDbTrace
 10
1356.5664791455
 20
988.2506222531
 30
0.0
 11
1353.8164791455
 21
966.2506222531
 31
0.0
 12
1359.3164791455
 22
966.2506222531
 32
0.0
 13
1359.3164791455
 23
966.2506222531
 33
0.0
  0
SOLID
  5
5A4
330
5A0
100
AcDbEntity
  8
SLD-0
100
AcDbTrace
 10
1356.5664791455
 20
298.2506222531
 30
0.0
 11
1359.3164791455
 21
320.2506222531
 31
0.0
 12
1353.8164791455
 22
320.2506222531
 32
0.0
 13
1353.8164791455
 23
320.2506222531
 33
0.0
  0
LINE
  5
5A5
330
5A0
100
AcDbEntity
  8
SLD-0
100
AcDbLine
 10
1313.031497593
 20
643.2506273754
 30
0.0
 11
1305.0642316881
 21
643.2506273754
 31
0.0
  0
LINE
  5
5A6
330
5A0
100
AcDbEntity
  8
SLD-0
100
AcDbLine
 10
1305.0642316881
 20
643.2506273754
 30
0.0
 11
1305.0642316881
 21
601.6316683285
 31
0.0
  0
LINE
  5
5A7
330
5A0
100
AcDbEntity
  8
SLD-0
100
AcDbLine
 10
1305.0642316881
 20
601.6316683285
 30
0.0
 11
1313.031497593
 21
601.6316683285
 31
0.0
  0
LINE
  5
5A8
330
5A0
100
AcDbEntity
  8
SLD-0
100
AcDbLine
 10
1400.101460698
 20
643.2506273754
 30
0.0
 11
1408.0687266029
 21
643.2506273754
 31
0.0
  0
LINE
  5
5A9
330
5A0
100
AcDbEntity
  8
SLD-0
100
AcDbLine
 10
1408.0687266029
 20
643.2506273754
 30
0.0
 11
1408.0687266029
 21
601.6316683285
 31
0.0
  0
LINE
  5
5AA
330
5A0
100
AcDbEntity
  8
SLD-0
100
AcDbLine
 10
1408.0687266029
 20
601.6316683285
 30
0.0
 11
1400.101460698
 21
601.6316683285
 31
0.0
  0
LINE
  5
5AB
330
5A0
100
AcDbEntity
  8
SLD-0
100
AcDbLine
 10
1633.0435839493
 20
988.2506222531
 30
0.0
 11
1348.1844791455
 21
988.2506222531
 31
0.0
  0
LINE
  5
5AC
330
5A0
100
AcDbEntity
  8
SLD-0
100
AcDbLine
 10
1633.0435839493
 20
298.2506222531
 30
0.0
 11
1348.1844791455
 21
298.2506222531
 31
0.0
  0
LINE
  5
5AD
330
5A0
100
AcDbEntity
  8
SLD-0
100
AcDbLine
 10
1356.5664791455
 20
988.2506222531
 30
0.0
 11
1356.5664791455
 21
690.181092757
 31
0.0
  0
LINE
  5
5AE
330
5A0
100
AcDbEntity
  8
SLD-0
100
AcDbLine
 10
1356.5664791455
 20
298.2506222531
 30
0.0
 11
1356.5664791455
 21
596.3201517493
 31
0.0
  0
MTEXT
  5
5AF
330
5A0
100
AcDbEntity
  8
SLD-0
100
AcDbMText
 10
1287.4440836673
 20
682.0205578422
 30
0.0
 40
26.19375
 41
0.0
 71
     1
 72
     1
  1
 
  7
SLDTEXTSTYLE0
 73
     1
 44
1.0
  0
MTEXT
  5
5B0
330
5A0
100
AcDbEntity
  8
SLD-0
100
AcDbMText
 10
1313.0314950318
 20
682.0205604034
 30
0.0
 40
26.19375
 41
0.0
 71
     1
 72
     1
  1
690.0
  7
SLDTEXTSTYLE0
 73
     1
 44
1.0
  0
MTEXT
  5
5B1
330
5A0
100
AcDbEntity
  8
SLD-0
100
AcDbMText
 10
1313.031497593
 20
635.0900924606
 30
0.0
 40
26.19375
 41
0.0
 71
     1
 72
     1
  1
27.17
  7
SLDTEXTSTYLE0
 73
     1
 44
1.0
  0
MTEXT
  5
5B2
330
5A0
100
AcDbEntity
  8
SLD-0
100
AcDbMText
 10
1416.0359899466
 20
682.0205578422
 30
0.0
 40
26.19375
 41
0.0
 71
     1
 72
     1
  1
 
  7
SLDTEXTSTYLE0
 73
     1
 44
1.0
  0
ENDBLK
  5
5A2
330
5A0
100
AcDbEntity
  8
0
100
AcDbBlockEnd
  0
BLOCK
  5
5B4
330
5B3
100
AcDbEntity
  8
0
100
AcDbBlockBegin
  2
SW_NOTE_0_6
 70
     0
 10
0.0
 20
0.0
 30
0.0
  3
SW_NOTE_0_6
  1

  0
LINE
  5
5B6
330
5B3
100
AcDbEntity
  8
SLD-0
 62
     0
100
AcDbLine
 10
-63.4880803011
 20
-32.1611292346
 30
0.0
 11
-63.4880803011
 21
31.3269510665
 31
0.0
  0
LINE
  5
5B7
330
5B3
100
AcDbEntity
  8
SLD-0
 62
     0
100
AcDbLine
 10
-63.4880803011
 20
31.3269510665
 30
0.0
 11
0.0
 21
31.3269510665
 31
0.0
  0
LINE
  5
5B8
330
5B3
100
AcDbEntity
  8
SLD-0
 62
     0
100
AcDbLine
 10
0.0
 20
31.3269510665
 30
0.0
 11
0.0
 21
-32.1611292346
 31
0.0
  0
LINE
  5
5B9
330
5B3
100
AcDbEntity
  8
SLD-0
 62
     0
100
AcDbLine
 10
0.0
 20
-32.1611292346
 30
0.0
 11
-63.4880803011
 21
-32.1611292346
 31
0.0
  0
MTEXT
  5
5BA
330
5B3
100
AcDbEntity
  8
SLD-0
 62
     0
100
AcDbMText
 10
-32.0077966881
 20
12.3351785803
 30
0.0
 40
26.19375
 41
0.0
 71
     2
 72
     1
  1
5
  7
SLDTEXTSTYLE0
 73
     1
 44
1.0
  0
ENDBLK
  5
5B5
330
5B3
100
AcDbEntity
  8
0
100
AcDbBlockEnd
  0
BLOCK
  5
5BF
330
5BE
100
AcDbEntity
  8
0
100
AcDbBlockBegin
  2
SW_CENTERMARKSYMBOL_12
 70
     0
 10
0.0
 20
0.0
 30
0.0
  3
SW_CENTERMARKSYMBOL_12
  1

  0
LINE
  5
5C1
330
5BE
100
AcDbEntity
  8
SLD-0
 62
     0
100
AcDbLine
 10
0.0
 20
0.0
 30
0.0
 11
0.0
 21
6.0
 31
0.0
  0
LINE
  5
5C2
330
5BE
100
AcDbEntity
  8
SLD-0
 62
     0
100
AcDbLine
 10
0.0
 20
0.0
 30
0.0
 11
-6.0
 21
0.0
 31
0.0
  0
LINE
  5
5C3
330
5BE
100
AcDbEntity
  8
SLD-0
 62
     0
100
AcDbLine
 10
0.0
 20
0.0
 30
0.0
 11
0.0
 21
-6.0
 31
0.0
  0
LINE
  5
5C4
330
5BE
100
AcDbEntity
  8
SLD-0
 62
     0
100
AcDbLine
 10
0.0
 20
0.0
 30
0.0
 11
6.0
 21
0.0
 31
0.0
  0
LINE
  5
5C5
330
5BE
100
AcDbEntity
  8
SLD-0
 62
     0
100
AcDbLine
 10
0.0
 20
6.0
 30
0.0
 11
0.0
 21
11.5
 31
0.0
  0
LINE
  5
5C6
330
5BE
100
AcDbEntity
  8
SLD-0
 62
     0
100
AcDbLine
 10
-6.0
 20
0.0
 30
0.0
 11
-11.5
 21
0.0
 31
0.0
  0
LINE
  5
5C7
330
5BE
100
AcDbEntity
  8
SLD-0
 62
     0
100
AcDbLine
 10
0.0
 20
-6.0
 30
0.0
 11
0.0
 21
-11.5
 31
0.0
  0
LINE
  5
5C8
330
5BE
100
AcDbEntity
  8
SLD-0
 62
     0
100
AcDbLine
 10
6.0
 20
0.0
 30
0.0
 11
11.5
 21
0.0
 31
0.0
  0
ENDBLK
  5
5C0
330
5BE
100
AcDbEntity
  8
0
100
AcDbBlockEnd
  0
BLOCK
  5
5CB
330
5CA
100
AcDbEntity
  8
0
100
AcDbBlockBegin
  2
SW_CENTERMARKSYMBOL_13
 70
     0
 10
0.0
 20
0.0
 30
0.0
  3
SW_CENTERMARKSYMBOL_13
  1

  0
LINE
  5
5CD
330
5CA
100
AcDbEntity
  8
SLD-0
 62
     0
100
AcDbLine
 10
0.0
 20
0.0
 30
0.0
 11
0.0
 21
6.0
 31
0.0
  0
LINE
  5
5CE
330
5CA
100
AcDbEntity
  8
SLD-0
 62
     0
100
AcDbLine
 10
0.0
 20
0.0
 30
0.0
 11
-6.0
 21
0.0
 31
0.0
  0
LINE
  5
5CF
330
5CA
100
AcDbEntity
  8
SLD-0
 62
     0
100
AcDbLine
 10
0.0
 20
0.0
 30
0.0
 11
0.0
 21
-6.0
 31
0.0
  0
LINE
  5
5D0
330
5CA
100
AcDbEntity
  8
SLD-0
 62
     0
100
AcDbLine
 10
0.0
 20
0.0
 30
0.0
 11
6.0
 21
0.0
 31
0.0
  0
LINE
  5
5D1
330
5CA
100
AcDbEntity
  8
SLD-0
 62
     0
100
AcDbLine
 10
0.0
 20
6.0
 30
0.0
 11
0.0
 21
11.5
 31
0.0
  0
LINE
  5
5D2
330
5CA
100
AcDbEntity
  8
SLD-0
 62
     0
100
AcDbLine
 10
-6.0
 20
0.0
 30
0.0
 11
-11.5
 21
0.0
 31
0.0
  0
LINE
  5
5D3
330
5CA
100
AcDbEntity
  8
SLD-0
 62
     0
100
AcDbLine
 10
0.0
 20
-6.0
 30
0.0
 11
0.0
 21
-11.5
 31
0.0
  0
LINE
  5
5D4
330
5CA
100
AcDbEntity
  8
SLD-0
 62
     0
100
AcDbLine
 10
6.0
 20
0.0
 30
0.0
 11
11.5
 21
0.0
 31
0.0
  0
ENDBLK
  5
5CC
330
5CA
100
AcDbEntity
  8
0
100
AcDbBlockEnd
  0
BLOCK
  5
5D7
330
5D6
100
AcDbEntity
  8
0
100
AcDbBlockBegin
  2
SW_CENTERMARKSYMBOL_14
 70
     0
 10
0.0
 20
0.0
 30
0.0
  3
SW_CENTERMARKSYMBOL_14
  1

  0
LINE
  5
5D9
330
5D6
100
AcDbEntity
  8
SLD-0
 62
     0
100
AcDbLine
 10
0.0
 20
0.0
 30
0.0
 11
0.0
 21
6.0
 31
0.0
  0
LINE
  5
5DA
330
5D6
100
AcDbEntity
  8
SLD-0
 62
     0
100
AcDbLine
 10
0.0
 20
0.0
 30
0.0
 11
-6.0
 21
0.0
 31
0.0
  0
LINE
  5
5DB
330
5D6
100
AcDbEntity
  8
SLD-0
 62
     0
100
AcDbLine
 10
0.0
 20
0.0
 30
0.0
 11
0.0
 21
-6.0
 31
0.0
  0
LINE
  5
5DC
330
5D6
100
AcDbEntity
  8
SLD-0
 62
     0
100
AcDbLine
 10
0.0
 20
0.0
 30
0.0
 11
6.0
 21
0.0
 31
0.0
  0
LINE
  5
5DD
330
5D6
100
AcDbEntity
  8
SLD-0
 62
     0
100
AcDbLine
 10
0.0
 20
6.0
 30
0.0
 11
0.0
 21
11.5
 31
0.0
  0
LINE
  5
5DE
330
5D6
100
AcDbEntity
  8
SLD-0
 62
     0
100
AcDbLine
 10
-6.0
 20
0.0
 30
0.0
 11
-11.5
 21
0.0
 31
0.0
  0
LINE
  5
5DF
330
5D6
100
AcDbEntity
  8
SLD-0
 62
     0
100
AcDbLine
 10
0.0
 20
-6.0
 30
0.0
 11
0.0
 21
-11.5
 31
0.0
  0
LINE
  5
5E0
330
5D6
100
AcDbEntity
  8
SLD-0
 62
     0
100
AcDbLine
 10
6.0
 20
0.0
 30
0.0
 11
11.5
 21
0.0
 31
0.0
  0
ENDBLK
  5
5D8
330
5D6
100
AcDbEntity
  8
0
100
AcDbBlockEnd
  0
BLOCK
  5
5E3
330
5E2
100
AcDbEntity
  8
0
100
AcDbBlockBegin
  2
SW_CENTERMARKSYMBOL_15
 70
     0
 10
0.0
 20
0.0
 30
0.0
  3
SW_CENTERMARKSYMBOL_15
  1

  0
LINE
  5
5E5
330
5E2
100
AcDbEntity
  8
SLD-0
 62
     0
100
AcDbLine
 10
0.0
 20
0.0
 30
0.0
 11
0.0
 21
6.0
 31
0.0
  0
LINE
  5
5E6
330
5E2
100
AcDbEntity
  8
SLD-0
 62
     0
100
AcDbLine
 10
0.0
 20
0.0
 30
0.0
 11
-6.0
 21
0.0
 31
0.0
  0
LINE
  5
5E7
330
5E2
100
AcDbEntity
  8
SLD-0
 62
     0
100
AcDbLine
 10
0.0
 20
0.0
 30
0.0
 11
0.0
 21
-6.0
 31
0.0
  0
LINE
  5
5E8
330
5E2
100
AcDbEntity
  8
SLD-0
 62
     0
100
AcDbLine
 10
0.0
 20
0.0
 30
0.0
 11
6.0
 21
0.0
 31
0.0
  0
LINE
  5
5E9
330
5E2
100
AcDbEntity
  8
SLD-0
 62
     0
100
AcDbLine
 10
0.0
 20
6.0
 30
0.0
 11
0.0
 21
11.5
 31
0.0
  0
LINE
  5
5EA
330
5E2
100
AcDbEntity
  8
SLD-0
 62
     0
100
AcDbLine
 10
-6.0
 20
0.0
 30
0.0
 11
-11.5
 21
0.0
 31
0.0
  0
LINE
  5
5EB
330
5E2
100
AcDbEntity
  8
SLD-0
 62
     0
100
AcDbLine
 10
0.0
 20
-6.0
 30
0.0
 11
0.0
 21
-11.5
 31
0.0
  0
LINE
  5
5EC
330
5E2
100
AcDbEntity
  8
SLD-0
 62
     0
100
AcDbLine
 10
6.0
 20
0.0
 30
0.0
 11
11.5
 21
0.0
 31
0.0
  0
ENDBLK
  5
5E4
330
5E2
100
AcDbEntity
  8
0
100
AcDbBlockEnd
  0
ENDSEC
  0
SECTION
  2
ENTITIES
  0
LINE
  5
68
330
1F
100
AcDbEntity
  8
SLD-0
 62
     7
100
AcDbLine
 10
71.5
 20
3001.9
 30
0.0
 11
4678.3
 21
3001.9
 31
0.0
  0
LINE
  5
69
330
1F
100
AcDbEntity
  8
0
  6
Continuous
 62
     7
370
    18
100
AcDbLine
 10
71.5
 20
198.0
 30
0.0
 11
4678.3
 21
198.0
 31
0.0
  0
LINE
  5
6A
330
1F
100
AcDbEntity
  8
0
  6
CENTER
 62
     7
370
    18
100
AcDbLine
 10
2018.0063839435
 20
98.1944664571
 30
0.0
 11
2069.3930489368
 21
98.1944664571
 31
0.0
  0
LINE
  5
6B
330
1F
100
AcDbEntity
  8
0
  6
Continuous
 62
     7
370
    18
100
AcDbLine
 10
2023.208135354
 20
91.2094664571
 30
0.0
 11
2065.118135354
 21
84.2244664571
 31
0.0
  0
LINE
  5
6C
330
1F
100
AcDbEntity
  8
0
  6
Continuous
 62
     7
370
    18
100
AcDbLine
 10
2023.208135354
 20
105.1794664571
 30
0.0
 11
2065.118135354
 21
112.1644664571
 31
0.0
  0
LINE
  5
6D
330
1F
100
AcDbEntity
  8
0
  6
CENTER
 62
     7
370
    18
100
AcDbLine
 10
1977.163015354
 20
98.1944664571
 30
0.0
 11
2013.0488347084
 21
98.1944664571
 31
0.0
  0
LINE
  5
6E
330
1F
100
AcDbEntity
  8
0
  6
CENTER
 62
     7
370
    18
100
AcDbLine
 10
1995.1059250312
 20
80.0678749211
 30
0.0
 11
1995.1059250312
 21
116.321057993
 31
0.0
  0
LINE
  5
6F
330
1F
100
AcDbEntity
  8
0
  6
Continuous
 62
     7
370
    18
100
AcDbLine
 10
2023.208135354
 20
105.1794664571
 30
0.0
 11
2023.208135354
 21
91.2094664571
 31
0.0
  0
LINE
  5
70
330
1F
100
AcDbEntity
  8
0
  6
Continuous
 62
     7
370
    18
100
AcDbLine
 10
2065.118135354
 20
112.1644664571
 30
0.0
 11
2065.118135354
 21
84.2244664571
 31
0.0
  0
CIRCLE
  5
71
330
1F
100
AcDbEntity
  8
0
  6
Continuous
 62
     7
370
    18
100
AcDbCircle
 10
1995.1059250312
 20
98.1944664571
 30
0.0
 40
13.96999999999926
  0
CIRCLE
  5
72
330
1F
100
AcDbEntity
  8
0
  6
Continuous
 62
     7
370
    18
100
AcDbCircle
 10
1995.1059250312
 20
98.1944664571
 30
0.0
 40
6.984999999999539
  0
INSERT
  5
A5
330
1F
100
AcDbEntity
  8
0
  6
Continuous
 62
     7
370
     0
100
AcDbBlockReference
  2
SW_NOTE_0
 10
90.1164836961
 20
2930.0102416541
 30
0.0
  0
MTEXT
  5
A6
330
1F
100
AcDbEntity
  8
0
  6
Continuous
 62
     7
370
     0
100
AcDbMText
 10
1625.2736604574
 20
159.4007622662
 30
0.0
 40
20.3729166667
 41
0.0
 71
     2
 72
     1
  1
00PW4
  7
SLDTEXTSTYLE0
 73
     1
 44
1.0
  0
MTEXT
  5
A7
330
1F
100
AcDbEntity
  8
0
  6
Continuous
 62
     7
370
     0
100
AcDbMText
 10
2493.706438232
 20
97.8363446369
 30
0.0
 40
20.3729166667
 41
0.0
 71
     1
 72
     1
  1
B.HAWKINS
  7
SLDTEXTSTYLE0
 73
     1
 44
1.0
  0
MTEXT
  5
A8
330
1F
100
AcDbEntity
  8
0
  6
Continuous
 62
     7
370
     0
100
AcDbMText
 10
1777.208693487
 20
181.9275942852
 30
0.0
 40
17.4625
 41
0.0
 71
     1
 72
     1
  1
UNLESS  OTHERWISE  SPECIFIED
  7
SLDTEXTSTYLE0
 73
     1
 44
1.0
  0
MTEXT
  5
A9
330
1F
100
AcDbEntity
  8
0
  6
Continuous
 62
     7
370
     0
100
AcDbMText
 10
1777.208693487
 20
158.6442612332
 30
0.0
 40
17.4625
 41
0.0
 71
     1
 72
     1
  1
DIMENSIONS  ARE  IN  MM [IN]
  7
SLDTEXTSTYLE0
 73
     1
 44
1.0
  0
MTEXT
  5
AA
330
1F
100
AcDbEntity
  8
0
  6
Continuous
 62
     7
370
     0
100
AcDbMText
 10
4322.1322654554
 20
98.9170849448
 30
0.0
 40
20.3729166667
 41
0.0
 71
     2
 72
     1
  1
1:11
  7
SLDTEXTSTYLE0
 73
     1
 44
1.0
  0
MTEXT
  5
AB
330
1F
100
AcDbEntity
  8
0
  6
Continuous
 62
     7
370
     0
100
AcDbMText
 10
1803.7829072348
 20
108.3052956497
 30
0.0
 40
17.4625
 41
0.0
 71
     1
 72
     1
  1
PROJECTION
  7
SLDTEXTSTYLE0
 73
     1
 44
1.0
  0
MTEXT
  5
AC
330
1F
100
AcDbEntity
  8
0
  6
Continuous
 62
     7
370
     0
100
AcDbMText
 10
2340.3334713755
 20
119.9482503757
 30
0.0
 40
17.4625
 41
0.0
 71
     1
 72
     1
  1
%%p
  7
SLDTEXTSTYLE0
 73
     1
 44
1.0
  0
MTEXT
  5
AD
330
1F
100
AcDbEntity
  8
0
  6
Continuous
 62
     7
370
     0
100
AcDbMText
 10
2356.981054482
 20
119.9482503757
 30
0.0
 40
17.4625
 41
0.0
 71
     1
 72
     1
  1
1
  7
SLDTEXTSTYLE0
 73
     1
 44
1.0
  0
MTEXT
  5
AE
330
1F
100
AcDbEntity
  8
0
  6
Continuous
 62
     7
370
     0
100
AcDbMText
 10
2369.8839017404
 20
119.9482503757
 30
0.0
 40
17.4625
 41
0.0
 71
     1
 72
     1
  1
%%d
  7
SLDTEXTSTYLE0
 73
     1
 44
1.0
  0
MTEXT
  5
AF
330
1F
100
AcDbEntity
  8
0
  6
Continuous
 62
     7
370
     0
100
AcDbMText
 10
2167.4056527594
 20
119.9482503757
 30
0.0
 40
17.4625
 41
0.0
 71
     1
 72
     1
  1
.X 
  7
SLDTEXTSTYLE0
 73
     1
 44
1.0
  0
MTEXT
  5
B0
330
1F
100
AcDbEntity
  8
0
  6
Continuous
 62
     7
370
     0
100
AcDbMText
 10
2194.4401910918
 20
119.9482503757
 30
0.0
 40
17.4625
 41
0.0
 71
     1
 72
     1
  1
%%p
  7
SLDTEXTSTYLE0
 73
     1
 44
1.0
  0
MTEXT
  5
B1
330
1F
100
AcDbEntity
  8
0
  6
Continuous
 62
     7
370
     0
100
AcDbMText
 10
2211.0877716372
 20
119.9482503757
 30
0.0
 40
17.4625
 41
0.0
 71
     1
 72
     1
  1
 3
  7
SLDTEXTSTYLE0
 73
     1
 44
1.0
  0
MTEXT
  5
B2
330
1F
100
AcDbEntity
  8
0
  6
Continuous
 62
     7
370
     0
100
AcDbMText
 10
2167.4056527594
 20
96.6649173238
 30
0.0
 40
17.4625
 41
0.0
 71
     1
 72
     1
  1
.XX 
  7
SLDTEXTSTYLE0
 73
     1
 44
1.0
  0
MTEXT
  5
B3
330
1F
100
AcDbEntity
  8
0
  6
Continuous
 62
     7
370
     0
100
AcDbMText
 10
2208.6042165214
 20
96.6649173238
 30
0.0
 40
17.4625
 41
0.0
 71
     1
 72
     1
  1
%%p
  7
SLDTEXTSTYLE0
 73
     1
 44
1.0
  0
MTEXT
  5
B4
330
1F
100
AcDbEntity
  8
0
  6
Continuous
 62
     7
370
     0
100
AcDbMText
 10
3762.5304131705
 20
172.2148215451
 30
0.0
 40
34.925
 41
0.0
 71
     2
 72
     1
  1
LOUDSPEAKER, PL-SUB15, BK, 15" 
  7
SLDTEXTSTYLE0
 73
     1
 44
1.0
  0
MTEXT
  5
B5
330
1F
100
AcDbEntity
  8
0
  6
Continuous
 62
     7
370
     0
100
AcDbMText
 10
3754.2357540209
 20
125.6481554412
 30
0.0
 40
34.925
 41
0.0
 71
     2
 72
     1
  1
SUBWOOFER
  7
SLDTEXTSTYLE0
 73
     1
 44
1.0
  0
MTEXT
  5
B6
330
1F
100
AcDbEntity
  8
0
  6
Continuous
 62
     7
370
     0
100
AcDbMText
 10
2167.7105240136
 20
181.9275942852
 30
0.0
 40
17.4625
 41
0.0
 71
     1
 72
     1
  1
TOLERANCES  ARE:
  7
SLDTEXTSTYLE0
 73
     1
 44
1.0
  0
MTEXT
  5
B7
330
1F
100
AcDbEntity
  8
0
  6
Continuous
 62
     7
370
     0
100
AcDbMText
 10
2167.7105240136
 20
158.6442612332
 30
0.0
 40
17.4625
 41
0.0
 71
     1
 72
     1
  1
DECIMALS          ANGLES
  7
SLDTEXTSTYLE0
 73
     1
 44
1.0
  0
MTEXT
  5
B8
330
1F
100
AcDbEntity
  8
0
  6
Continuous
 62
     7
370
     0
100
AcDbMText
 10
2789.8028798934
 20
119.9343217848
 30
0.0
 40
14.5520833333
 41
0.0
 71
     1
 72
     1
  1
MFG ENGINEER
  7
SLDTEXTSTYLE0
 73
     1
 44
1.0
  0
MTEXT
  5
B9
330
1F
100
AcDbEntity
  8
0
  6
Continuous
 62
     7
370
     0
100
AcDbMText
 10
2493.706438232
 20
119.9343217848
 30
0.0
 40
14.5520833333
 41
0.0
 71
     1
 72
     1
  1
MECH ENGINEER
  7
SLDTEXTSTYLE0
 73
     1
 44
1.0
  0
MTEXT
  5
BB
330
1F
100
AcDbEntity
  8
0
  6
Continuous
 62
     7
370
     0
100
AcDbMText
 10
4240.3954721191
 20
96.5786379889
 30
0.0
 40
14.5520833333
 41
0.0
 71
     1
 72
     1
  1
SCALE:  
  7
SLDTEXTSTYLE1
 73
     1
 44
1.0
  0
MTEXT
  5
BC
330
1F
100
AcDbEntity
  8
SLD-0
 62
     7
100
AcDbMText
 10
4239.5486880922
 20
152.7644776722
 30
0.0
 40
34.925
 41
0.0
 71
     1
 72
     1
  1
FG-901574-2D
  7
SLDTEXTSTYLE0
 73
     1
 44
1.0
  0
MTEXT
  5
BD
330
1F
100
AcDbEntity
  8
0
  6
Continuous
 62
     7
370
     0
100
AcDbMText
 10
4640.7307354297
 20
153.1878696856
 30
0.0
 40
34.925
 41
0.0
 71
     2
 72
     1
  1
A
  7
SLDTEXTSTYLE0
 73
     1
 44
1.0
  0
MTEXT
  5
BE
330
1F
100
AcDbEntity
  8
0
  6
Continuous
 62
     7
370
     0
100
AcDbMText
 10
4628.7839326771
 20
98.9170849448
 30
0.0
 40
20.3729166667
 41
0.0
 71
     2
 72
     1
  1
1  OF  1
  7
SLDTEXTSTYLE0
 73
     1
 44
1.0
  0
MTEXT
  5
BF
330
1F
100
AcDbEntity
  8
0
  6
Continuous
 62
     7
370
     0
100
AcDbMText
 10
4240.3954721192
 20
180.6852348319
 30
0.0
 40
14.5520833333
 41
0.0
 71
     1
 72
     1
  1
DRAWING NUMBER
  7
SLDTEXTSTYLE0
 73
     1
 44
1.0
  0
MTEXT
  5
C0
330
1F
100
AcDbEntity
  8
SLD-0
 62
     7
100
AcDbMText
 10
2789.8028798934
 20
180.501262046
 30
0.0
 40
14.5520833333
 41
0.0
 71
     1
 72
     1
  1
TECH DIRECTOR
  7
SLDTEXTSTYLE0
 73
     1
 44
1.0
  0
MTEXT
  5
C1
330
1F
100
AcDbEntity
  8
SLD-0
 62
     7
100
AcDbMText
 10
2493.706438232
 20
180.501262046
 30
0.0
 40
14.5520833333
 41
0.0
 71
     1
 72
     1
  1
DRAWN BY
  7
SLDTEXTSTYLE0
 73
     1
 44
1.0
  0
MTEXT
  5
C2
330
1F
100
AcDbEntity
  8
SLD-0
 62
     7
100
AcDbMText
 10
2493.706438232
 20
159.6943848859
 30
0.0
 40
20.3729166667
 41
0.0
 71
     1
 72
     1
  1
K.CASTRO
  7
SLDTEXTSTYLE0
 73
     1
 44
1.0
  0
MTEXT
  5
C3
330
1F
100
AcDbEntity
  8
SLD-0
 62
     7
100
AcDbMText
 10
2789.8028798934
 20
97.8363446369
 30
0.0
 40
20.3729166667
 41
0.0
 71
     1
 72
     1
  1
A.TRAN
  7
SLDTEXTSTYLE0
 73
     1
 44
1.0
  0
MTEXT
  5
C4
330
1F
100
AcDbEntity
  8
SLD-0
 62
     7
100
AcDbMText
 10
2789.8028798934
 20
159.6943848859
 30
0.0
 40
20.3729166667
 41
0.0
 71
     1
 72
     1
  1
R.VAUCHER
  7
SLDTEXTSTYLE0
 73
     1
 44
1.0
  0
MTEXT
  5
C6
330
1F
100
AcDbEntity
  8
0
  6
Continuous
 62
     7
370
     0
100
AcDbMText
 10
1205.8969294358
 20
164.7996516629
 30
0.0
 40
11.6416666667
 41
0.0
 71
     2
 72
     1
  1
THIS DOCUMENT CONTAINS CONFIDENTIAL OR PROPRIETARY INFORMATION WHICH 
  7
SLDTEXTSTYLE2
 73
     1
 44
1.0
  0
MTEXT
  5
C7
330
1F
100
AcDbEntity
  8
0
  6
Continuous
 62
     7
370
     0
100
AcDbMText
 10
1206.9027554911
 20
149.2774296282
 30
0.0
 40
11.6416666667
 41
0.0
 71
     2
 72
     1
  1
IS THE PROPERTY OF QSC, LLC THAT MAY NOT BE DISCLOSED, REPRODUCED OR 
  7
SLDTEXTSTYLE2
 73
     1
 44
1.0
  0
MTEXT
  5
C8
330
1F
100
AcDbEntity
  8
0
  6
Continuous
 62
     7
370
     0
100
AcDbMText
 10
1206.6767916732
 20
133.7552075936
 30
0.0
 40
11.6416666667
 41
0.0
 71
     2
 72
     1
  1
USED WITHOUT EXPRESS WRITTEN CONSENT FROM QSC, LLC. NO PORTION OF THIS 
  7
SLDTEXTSTYLE2
 73
     1
 44
1.0
  0
MTEXT
  5
C9
330
1F
100
AcDbEntity
  8
0
  6
Continuous
 62
     7
370
     0
100
AcDbMText
 10
1206.2887281828
 20
118.232985559
 30
0.0
 40
11.6416666667
 41
0.0
 71
     2
 72
     1
  1
DOCUMENT MAY BE REPRODUCED, REDISTRIBUTED, OR OTHERWISE DISCLOSED TO 
  7
SLDTEXTSTYLE2
 73
     1
 44
1.0
  0
MTEXT
  5
CB
330
1F
100
AcDbEntity
  8
0
  6
Continuous
 62
     7
370
     0
100
AcDbMText
 10
1204.3704391403
 20
102.7107635243
 30
0.0
 40
11.6416666667
 41
0.0
 71
     2
 72
     1
  1
ANY THIRD PARTY WITHOUT QSC\U+2019S WRITTEN PERMISSION.
  7
SLDTEXTSTYLE3
 73
     1
 44
1.0
  0
MTEXT
  5
CC
330
1F
100
AcDbEntity
  8
0
  6
Continuous
 62
     7
370
     0
100
AcDbMText
 10
4511.5886688174
 20
96.2193915222
 30
0.0
 40
14.5520833333
 41
0.0
 71
     1
 72
     1
  1
SHEET:
  7
SLDTEXTSTYLE0
 73
     1
 44
1.0
  0
MTEXT
  5
CD
330
1F
100
AcDbEntity
  8
SLD-0
100
AcDbMText
 10
538.0689621114
 20
168.2623158281
 30
0.0
 40
23.2833333333
 41
0.0
 71
     1
 72
     1
  1
QSC, LLC
  7
SLDTEXTSTYLE0
 73
     1
 44
1.0
  0
MTEXT
  5
CE
330
1F
100
AcDbEntity
  8
0
  6
Continuous
 62
     7
370
     0
100
AcDbMText
 10
4642.0101048878
 20
180.9780021707
 30
0.0
 40
14.5520833333
 41
0.0
 71
     2
 72
     1
  1
REV
  7
SLDTEXTSTYLE0
 73
     1
 44
1.0
  0
MTEXT
  5
CF
330
1F
100
AcDbEntity
  8
SLD-0
 62
     7
100
AcDbMText
 10
3083.0038445083
 20
180.501262046
 30
0.0
 40
14.5520833333
 41
0.0
 71
     1
 72
     1
  1
REV BY
  7
SLDTEXTSTYLE0
 73
     1
 44
1.0
  0
MTEXT
  5
D0
330
1F
100
AcDbEntity
  8
SLD-0
 62
     7
100
AcDbMText
 10
3083.0038445083
 20
159.6943848859
 30
0.0
 40
20.3729166667
 41
0.0
 71
     1
 72
     1
  1
KC
  7
SLDTEXTSTYLE0
 73
     1
 44
1.0
  0
MTEXT
  5
D1
330
1F
100
AcDbEntity
  8
SLD-0
 62
     7
100
AcDbMText
 10
3083.0038445083
 20
97.8363446369
 30
0.0
 40
20.3729166667
 41
0.0
 71
     1
 72
     1
  1
05-FEB-2024
  7
SLDTEXTSTYLE0
 73
     1
 44
1.0
  0
MTEXT
  5
D2
330
1F
100
AcDbEntity
  8
0
  6
Continuous
 62
     7
370
     0
100
AcDbMText
 10
3083.0038445083
 20
119.9343217848
 30
0.0
 40
14.5520833333
 41
0.0
 71
     1
 72
     1
  1
REV DATE
  7
SLDTEXTSTYLE0
 73
     1
 44
1.0
  0
MTEXT
  5
D3
330
1F
100
AcDbEntity
  8
SLD-0
100
AcDbMText
 10
1625.5094225881
 20
122.4459892451
 30
0.0
 40
14.5520833333
 41
0.0
 71
     2
 72
     1
  1
FORM
  7
SLDTEXTSTYLE0
 73
     1
 44
1.0
  0
MTEXT
  5
D4
330
1F
100
AcDbEntity
  8
0
  6
Continuous
 62
     7
370
     0
100
AcDbMText
 10
1627.7875132768
 20
100.5447673951
 30
0.0
 40
20.3729166667
 41
0.0
 71
     2
 72
     1
  1
QOS40169 B
  7
SLDTEXTSTYLE0
 73
     1
 44
1.0
  0
MTEXT
  5
D5
330
1F
100
AcDbEntity
  8
SLD-0
100
AcDbMText
 10
541.4349860562
 20
101.5305283897
 30
0.0
 40
17.4625
 41
0.0
 71
     1
 72
     1
  1
COSTA MESA, CA 92626 USA
  7
SLDTEXTSTYLE0
 73
     1
 44
1.0
  0
MTEXT
  5
D6
330
1F
100
AcDbEntity
  8
SLD-0
100
AcDbMText
 10
540.6428571448
 20
131.3251318836
 30
0.0
 40
17.4625
 41
0.0
 71
     1
 72
     1
  1
1675 MACARTHUR BLVD
  7
SLDTEXTSTYLE0
 73
     1
 44
1.0
  0
MTEXT
  5
D7
330
1F
100
AcDbEntity
  8
SLD-0
 62
     7
100
AcDbMText
 10
1626.2529794431
 20
182.2918625588
 30
0.0
 40
14.5520833333
 41
0.0
 71
     2
 72
     1
  1
CAGE CODE
  7
SLDTEXTSTYLE0
 73
     1
 44
1.0
  0
LINE
  5
D8
330
1F
100
AcDbEntity
  8
0
  6
Continuous
 62
     7
370
    25
100
AcDbLine
 10
3913.7958282269
 20
2425.5699919166
 30
0.0
 11
3490.9459730774
 21
2669.6760173516
 31
0.0
  0
LINE
  5
D9
330
1F
100
AcDbEntity
  8
0
  6
Continuous
 62
     7
370
    25
100
AcDbLine
 10
3913.7958282269
 20
2123.4498915189
 30
0.0
 11
3913.7958282269
 21
2425.5699919166
 31
0.0
  0
LINE
  5
DA
330
1F
100
AcDbEntity
  8
0
  6
Continuous
 62
     7
370
    25
100
AcDbLine
 10
3490.9459730774
 20
2367.5559169539
 30
0.0
 11
3913.7958282269
 21
2123.4498915189
 31
0.0
  0
LINE
  5
DB
330
1F
100
AcDbEntity
  8
0
  6
Continuous
 62
     7
370
    25
100
AcDbLine
 10
3490.9459730774
 20
2669.6760173516
 30
0.0
 11
3490.9459730774
 21
2367.5559169539
 31
0.0
  0
LINE
  5
DC
330
1F
100
AcDbEntity
  8
0
  6
Continuous
 62
     7
370
    25
100
AcDbLine
 10
3501.5525747952
 20
2373.6809682935
 30
0.0
 11
3903.1892265092
 21
2141.8210645358
 31
0.0
  0
LINE
  5
DD
330
1F
100
AcDbEntity
  8
0
  6
Continuous
 62
     7
370
    25
100
AcDbLine
 10
3903.1892265092
 20
2141.8210645358
 30
0.0
 11
3903.1892265092
 21
2419.444940577
 31
0.0
  0
LINE
  5
DE
330
1F
100
AcDbEntity
  8
0
  6
Continuous
 62
     7
370
    25
100
AcDbLine
 10
3903.1892265092
 20
2419.444940577
 30
0.0
 11
3501.5525747952
 21
2651.3048443346
 31
0.0
  0
LINE
  5
DF
330
1F
100
AcDbEntity
  8
0
  6
Continuous
 62
     7
370
    25
100
AcDbLine
 10
3501.5525747952
 20
2651.3048443346
 30
0.0
 11
3501.5525747952
 21
2373.6809682935
 31
0.0
  0
LINE
  5
E0
330
1F
100
AcDbEntity
  8
0
  6
Continuous
 62
     7
370
    25
100
AcDbLine
 10
3913.7958282269
 20
2123.4498915189
 30
0.0
 11
4401.6995072457
 21
2405.1106900977
 31
0.0
  0
LINE
  5
E1
330
1F
100
AcDbEntity
  8
0
  6
Continuous
 62
     7
370
    25
100
AcDbLine
 10
3913.7958282269
 20
2425.5699919166
 30
0.0
 11
4401.6995072457
 21
2707.2307904954
 31
0.0
  0
LINE
  5
E2
330
1F
100
AcDbEntity
  8
0
  6
Continuous
 62
     7
370
    25
100
AcDbLine
 10
4401.6995072457
 20
2405.1106900977
 30
0.0
 11
4401.6995072457
 21
2707.2307904954
 31
0.0
  0
LWPOLYLINE
  5
E3
330
1F
100
AcDbEntity
  8
0
  6
Continuous
 62
     7
370
    25
100
AcDbPolyline
 90
       34
 70
   128
 43
0.0
 10
3984.5065063456
 20
2441.5675568264
 10
3983.1682979633
 20
2440.647466009
 10
3981.8784559185
 20
2439.4655105468
 10
3980.6835984635
 20
2438.0644093898
 10
3979.6269108599
 20
2436.4948019843
 10
3978.7465845507
 20
2434.8134180316
 10
3978.0744368226
 20
2433.0810271285
 10
3977.6347608456
 20
2431.3602423959
 10
3977.4434476552
 20
2429.7132574776
 10
3977.5074118084
 20
2428.1995986996
 10
3977.8243414742
 20
2426.8739736341
 10
3978.3827819886
 20
2425.7842938247
 10
3979.1625498566
 20
2424.9699431388
 10
3980.1354622355
 20
2424.4603543322
 10
3981.2663555373
 20
2424.2739452718
 10
3982.5143563314
 20
2424.417453267
 10
3983.8343586175
 20
2424.8856915647
 10
3985.1786540737
 20
2425.661736813
 10
3986.4986563598
 20
2426.7175407147
 10
3987.7466571539
 20
2428.0149437657
 10
3988.8775504557
 20
2429.5070544396
 10
3989.8504628347
 20
2431.1399439689
 10
3990.6302307026
 20
2432.8545954716
 10
3991.188671217
 20
2434.5890369749
 10
3991.5056008828
 20
2436.2805812437
 10
3991.569565036
 20
2437.8680914611
 10
3991.3782518456
 20
2439.2941908714
 10
3990.9385758686
 20
2440.5073365263
 10
3990.2664281405
 20
2441.4636821811
 10
3989.3861018313
 20
2442.1286630121
 10
3988.3294142277
 20
2442.4782448793
 10
3987.1345567727
 20
2442.4997929834
 10
3985.844714728
 20
2442.1925285197
 10
3984.5065063456
 20
2441.5675568264
  0
LWPOLYLINE
  5
E4
330
1F
100
AcDbEntity
  8
0
  6
Continuous
 62
     7
370
    25
100
AcDbPolyline
 90
       34
 70
   128
 43
0.0
 10
4330.988829127
 20
2405.4439414256
 10
4329.6506207447
 20
2404.5238506082
 10
4328.3607786999
 20
2403.341895146
 10
4327.1659212449
 20
2401.940793989
 10
4326.1092336413
 20
2400.3711865835
 10
4325.2289073321
 20
2398.6898026308
 10
4324.556759604
 20
2396.9574117277
 10
4324.117083627
 20
2395.2366269952
 10
4323.9257704366
 20
2393.5896420768
 10
4323.9897345898
 20
2392.0759832989
 10
4324.3066642556
 20
2390.7503582333
 10
4324.8651047701
 20
2389.6606784239
 10
4325.644872638
 20
2388.846327738
 10
4326.6177850169
 20
2388.3367389314
 10
4327.7486783187
 20
2388.150329871
 10
4328.9966791128
 20
2388.2938378662
 10
4330.3166813989
 20
2388.7620761639
 10
4331.6609768551
 20
2389.5381214122
 10
4332.9809791412
 20
2390.5939253139
 10
4334.2289799353
 20
2391.8913283649
 10
4335.3598732371
 20
2393.3834390388
 10
4336.3327856161
 20
2395.0163285681
 10
4337.112553484
 20
2396.7309800708
 10
4337.6709939984
 20
2398.4654215741
 10
4337.9879236642
 20
2400.1569658429
 10
4338.0518878174
 20
2401.7444760603
 10
4337.860574627
 20
2403.1705754706
 10
4337.42089865
 20
2404.3837211255
 10
4336.7487509219
 20
2405.3400667803
 10
4335.8684246127
 20
2406.0050476113
 10
4334.8117370091
 20
2406.3546294785
 10
4333.6168795541
 20
2406.3761775826
 10
4332.3270375094
 20
2406.0689131189
 10
4330.988829127
 20
2405.4439414256
  0
LWPOLYLINE
  5
E5
330
1F
100
AcDbEntity
  8
0
  6
Continuous
 62
     7
370
    25
100
AcDbPolyline
 90
       34
 70
   128
 43
0.0
 10
3984.5065063456
 20
2205.4239540291
 10
3983.1682979633
 20
2204.5038632116
 10
3981.8784559185
 20
2203.3219077494
 10
3980.6835984635
 20
2201.9208065924
 10
3979.6269108599
 20
2200.351199187
 10
3978.7465845507
 20
2198.6698152343
 10
3978.0744368226
 20
2196.9374243312
 10
3977.6347608456
 20
2195.2166395986
 10
3977.4434476552
 20
2193.5696546803
 10
3977.5074118084
 20
2192.0559959023
 10
3977.8243414742
 20
2190.7303708367
 10
3978.3827819886
 20
2189.6406910273
 10
3979.1625498566
 20
2188.8263403415
 10
3980.1354622355
 20
2188.3167515348
 10
3981.2663555373
 20
2188.1303424745
 10
3982.5143563314
 20
2188.2738504696
 10
3983.8343586175
 20
2188.7420887674
 10
3985.1786540737
 20
2189.5181340157
 10
3986.4986563598
 20
2190.5739379173
 10
3987.7466571539
 20
2191.8713409684
 10
3988.8775504557
 20
2193.3634516423
 10
3989.8504628347
 20
2194.9963411716
 10
3990.6302307026
 20
2196.7109926742
 10
3991.188671217
 20
2198.4454341775
 10
3991.5056008828
 20
2200.1369784464
 10
3991.569565036
 20
2201.7244886637
 10
3991.3782518456
 20
2203.150588074
 10
3990.9385758686
 20
2204.363733729
 10
3990.2664281405
 20
2205.3200793838
 10
3989.3861018313
 20
2205.9850602147
 10
3988.3294142277
 20
2206.334642082
 10
3987.1345567727
 20
2206.356190186
 10
3985.844714728
 20
2206.0489257223
 10
3984.5065063456
 20
2205.4239540291
  0
LWPOLYLINE
  5
E6
330
1F
100
AcDbEntity
  8
0
  6
Continuous
 62
     7
370
    25
100
AcDbPolyline
 90
       34
 70
   128
 43
0.0
 10
4330.988829127
 20
2641.587544223
 10
4329.6506207447
 20
2640.6674534055
 10
4328.3607786999
 20
2639.4854979434
 10
4327.1659212449
 20
2638.0843967864
 10
4326.1092336413
 20
2636.5147893809
 10
4325.2289073321
 20
2634.8334054282
 10
4324.556759604
 20
2633.1010145251
 10
4324.117083627
 20
2631.3802297925
 10
4323.9257704366
 20
2629.7332448742
 10
4323.9897345898
 20
2628.2195860962
 10
4324.3066642556
 20
2626.8939610306
 10
4324.8651047701
 20
2625.8042812212
 10
4325.644872638
 20
2624.9899305354
 10
4326.6177850169
 20
2624.4803417287
 10
4327.7486783187
 20
2624.2939326684
 10
4328.9966791128
 20
2624.4374406635
 10
4330.3166813989
 20
2624.9056789613
 10
4331.6609768551
 20
2625.6817242096
 10
4332.9809791412
 20
2626.7375281112
 10
4334.2289799353
 20
2628.0349311623
 10
4335.3598732371
 20
2629.5270418362
 10
4336.3327856161
 20
2631.1599313655
 10
4337.112553484
 20
2632.8745828682
 10
4337.6709939984
 20
2634.6090243714
 10
4337.9879236642
 20
2636.3005686403
 10
4338.0518878174
 20
2637.8880788576
 10
4337.860574627
 20
2639.3141782679
 10
4337.42089865
 20
2640.5273239229
 10
4336.7487509219
 20
2641.4836695777
 10
4335.8684246127
 20
2642.1486504086
 10
4334.8117370091
 20
2642.4982322759
 10
4333.6168795541
 20
2642.51978038
 10
4332.3270375094
 20
2642.2125159162
 10
4330.988829127
 20
2641.587544223
  0
LWPOLYLINE
  5
E7
330
1F
100
AcDbEntity
  8
0
  6
Continuous
 62
     7
370
    25
100
AcDbPolyline
 90
       32
 70
   128
 43
0.0
 10
4025.3419229591
 20
2220.5057138143
 10
4025.2152709323
 20
2221.8708231545
 10
4024.8405000007
 20
2223.0338154403
 10
4024.2329533302
 20
2223.9470776309
 10
4023.417503953
 20
2224.5732206649
 10
4022.4275364624
 20
2224.8866101729
 10
4021.3035802437
 20
2224.8744159517
 10
4020.0916501967
 20
2224.5371372341
 10
4018.8413628797
 20
2223.8885822504
 10
4017.6039052025
 20
2222.9553029179
 10
4016.4299388278
 20
2221.775507802
 10
4015.3675260769
 20
2220.3974978535
 10
4014.4601622527
 20
2218.8776889616
 10
4013.7449949366
 20
2217.2783022808
 10
4013.2513031628
 20
2215.6648168899
 10
4012.9992987303
 20
2214.1032890701
 10
4012.9992987303
 20
2212.6576479541
 10
4013.2513031628
 20
2211.3870782589
 10
4013.7449949366
 20
2210.3435972572
 10
4014.4601622527
 20
2209.5699251837
 10
4015.3675260769
 20
2209.097736264
 10
4016.4299388278
 20
2208.946361968
 10
4017.6039052025
 20
2209.1219995772
 10
4018.8413628797
 20
2209.6174584672
 10
4020.0916501967
 20
2210.4124544928
 10
4021.3035802437
 20
2211.4744404234
 10
4022.4275364624
 20
2212.7599384301
 10
4023.417503953
 20
2214.2163200735
 10
4024.2329533302
 20
2215.7839609181
 10
4024.8405000007
 20
2217.3986815634
 10
4025.2152709323
 20
2218.9943751566
 10
4025.3419229591
 20
2220.5057138143
  0
LWPOLYLINE
  5
E8
330
1F
100
AcDbEntity
  8
0
  6
Continuous
 62
     7
370
    25
100
AcDbPolyline
 90
       32
 70
   128
 43
0.0
 10
4054.3333009878
 20
2429.1291708998
 10
4054.2066489609
 20
2430.49428024
 10
4053.8318780293
 20
2431.6572725258
 10
4053.2243313589
 20
2432.5705347164
 10
4052.4088819817
 20
2433.1966777504
 10
4051.4189144911
 20
2433.5100672584
 10
4050.2949582724
 20
2433.4978730372
 10
4049.0830282253
 20
2433.1605943196
 10
4047.8327409084
 20
2432.5120393359
 10
4046.5952832312
 20
2431.5787600034
 10
4045.4213168565
 20
2430.3989648875
 10
4044.3589041056
 20
2429.020954939
 10
4043.4515402813
 20
2427.5011460471
 10
4042.7363729653
 20
2425.9017593663
 10
4042.2426811914
 20
2424.2882739754
 10
4041.9906767589
 20
2422.7267461557
 10
4041.9906767589
 20
2421.2811050396
 10
4042.2426811914
 20
2420.0105353444
 10
4042.7363729653
 20
2418.9670543427
 10
4043.4515402813
 20
2418.1933822692
 10
4044.3589041056
 20
2417.7211933495
 10
4045.4213168565
 20
2417.5698190536
 10
4046.5952832312
 20
2417.7454566627
 10
4047.8327409084
 20
2418.2409155527
 10
4049.0830282253
 20
2419.0359115784
 10
4050.2949582724
 20
2420.0978975089
 10
4051.4189144911
 20
2421.3833955156
 10
4052.4088819817
 20
2422.8397771591
 10
4053.2243313589
 20
2424.4074180036
 10
4053.8318780293
 20
2426.0221386489
 10
4054.2066489609
 20
2427.6178322421
 10
4054.3333009878
 20
2429.1291708998
  0
LWPOLYLINE
  5
E9
330
1F
100
AcDbEntity
  8
0
  6
Continuous
 62
     7
370
    25
100
AcDbPolyline
 90
       32
 70
   128
 43
0.0
 10
4063.8792425338
 20
2242.7528348615
 10
4063.752590507
 20
2244.1179442017
 10
4063.3778195753
 20
2245.2809364875
 10
4062.7702729049
 20
2246.194198678
 10
4061.9548235277
 20
2246.820341712
 10
4060.9648560371
 20
2247.1337312201
 10
4059.8408998184
 20
2247.1215369989
 10
4058.6289697713
 20
2246.7842582812
 10
4057.3786824544
 20
2246.1357032975
 10
4056.1412247772
 20
2245.202423965
 10
4054.9672584025
 20
2244.0226288492
 10
4053.9048456516
 20
2242.6446189007
 10
4052.9974818273
 20
2241.1248100088
 10
4052.2823145113
 20
2239.525423328
 10
4051.7886227374
 20
2237.911937937
 10
4051.536618305
 20
2236.3504101173
 10
4051.536618305
 20
2234.9047690013
 10
4051.7886227374
 20
2233.6341993061
 10
4052.2823145113
 20
2232.5907183043
 10
4052.9974818273
 20
2231.8170462308
 10
4053.9048456516
 20
2231.3448573112
 10
4054.9672584025
 20
2231.1934830152
 10
4056.1412247772
 20
2231.3691206244
 10
4057.3786824544
 20
2231.8645795144
 10
4058.6289697713
 20
2232.65957554
 10
4059.8408998184
 20
2233.7215614706
 10
4060.9648560371
 20
2235.0070594773
 10
4061.9548235277
 20
2236.4634411207
 10
4062.7702729049
 20
2238.0310819653
 10
4063.3778195753
 20
2239.6458026106
 10
4063.752590507
 20
2241.2414962037
 10
4063.8792425338
 20
2242.7528348615
  0
LWPOLYLINE
  5
EA
330
1F
100
AcDbEntity
  8
0
  6
Continuous
 62
     7
370
    25
100
AcDbPolyline
 90
       32
 70
   128
 43
0.0
 10
4195.0475504439
 20
2318.474687233
 10
4194.9208984171
 20
2319.8397965732
 10
4194.5461274854
 20
2321.002788859
 10
4193.938580815
 20
2321.9160510496
 10
4193.1231314378
 20
2322.5421940836
 10
4192.1331639472
 20
2322.8555835916
 10
4191.0092077285
 20
2322.8433893704
 10
4189.7972776814
 20
2322.5061106528
 10
4188.5469903645
 20
2321.8575556691
 10
4187.3095326873
 20
2320.9242763366
 10
4186.1355663126
 20
2319.7444812207
 10
4185.0731535617
 20
2318.3664712723
 10
4184.1657897374
 20
2316.8466623803
 10
4183.4506224214
 20
2315.2472756996
 10
4182.9569306475
 20
2313.6337903086
 10
4182.7049262151
 20
2312.0722624889
 10
4182.7049262151
 20
2310.6266213728
 10
4182.9569306475
 20
2309.3560516777
 10
4183.4506224214
 20
2308.3125706759
 10
4184.1657897374
 20
2307.5388986024
 10
4185.0731535617
 20
2307.0667096827
 10
4186.1355663126
 20
2306.9153353868
 10
4187.3095326873
 20
2307.090972996
 10
4188.5469903645
 20
2307.5864318859
 10
4189.7972776814
 20
2308.3814279116
 10
4191.0092077285
 20
2309.4434138421
 10
4192.1331639472
 20
2310.7289118488
 10
4193.1231314378
 20
2312.1852934923
 10
4193.938580815
 20
2313.7529343368
 10
4194.5461274854
 20
2315.3676549822
 10
4194.9208984171
 20
2316.9633485753
 10
4195.0475504439
 20
2318.474687233
  0
LWPOLYLINE
  5
EB
330
1F
100
AcDbEntity
  8
0
  6
Continuous
 62
     7
370
    25
100
AcDbPolyline
 90
       32
 70
   128
 43
0.0
 10
4233.5848700186
 20
2340.7218082802
 10
4233.4582179917
 20
2342.0869176204
 10
4233.0834470601
 20
2343.2499099062
 10
4232.4759003897
 20
2344.1631720968
 10
4231.6604510125
 20
2344.7893151308
 10
4230.6704835219
 20
2345.1027046388
 10
4229.5465273032
 20
2345.0905104176
 10
4228.3345972561
 20
2344.7532317
 10
4227.0843099391
 20
2344.1046767163
 10
4225.846852262
 20
2343.1713973837
 10
4224.6728858873
 20
2341.9916022679
 10
4223.6104731364
 20
2340.6135923194
 10
4222.7031093121
 20
2339.0937834275
 10
4221.9879419961
 20
2337.4943967467
 10
4221.4942502222
 20
2335.8809113557
 10
4221.2422457897
 20
2334.319383536
 10
4221.2422457897
 20
2332.87374242
 10
4221.4942502222
 20
2331.6031727248
 10
4221.9879419961
 20
2330.5596917231
 10
4222.7031093121
 20
2329.7860196496
 10
4223.6104731364
 20
2329.3138307299
 10
4224.6728858873
 20
2329.1624564339
 10
4225.846852262
 20
2329.3380940431
 10
4227.0843099391
 20
2329.8335529331
 10
4228.3345972561
 20
2330.6285489587
 10
4229.5465273032
 20
2331.6905348893
 10
4230.6704835219
 20
2332.976032896
 10
4231.6604510125
 20
2334.4324145394
 10
4232.4759003897
 20
2336.000055384
 10
4233.0834470601
 20
2337.6147760293
 10
4233.4582179917
 20
2339.2104696225
 10
4233.5848700186
 20
2340.7218082802
  0
LWPOLYLINE
  5
EC
330
1F
100
AcDbEntity
  8
0
  6
Continuous
 62
     7
370
    25
100
AcDbPolyline
 90
       32
 70
   128
 43
0.0
 10
3997.7647584929
 20
2396.4728464269
 10
3997.638106466
 20
2397.8379557671
 10
3997.2633355344
 20
2399.0009480529
 10
3996.655788864
 20
2399.9142102435
 10
3995.8403394868
 20
2400.5403532775
 10
3994.8503719961
 20
2400.8537427855
 10
3993.7264157775
 20
2400.8415485643
 10
3992.5144857304
 20
2400.5042698467
 10
3991.2641984134
 20
2399.855714863
 10
3990.0267407363
 20
2398.9224355305
 10
3988.8527743616
 20
2397.7426404146
 10
3987.7903616107
 20
2396.3646304661
 10
3986.8829977864
 20
2394.8448215742
 10
3986.1678304704
 20
2393.2454348934
 10
3985.6741386965
 20
2391.6319495025
 10
3985.422134264
 20
2390.0704216828
 10
3985.422134264
 20
2388.6247805667
 10
3985.6741386965
 20
2387.3542108715
 10
3986.1678304704
 20
2386.3107298698
 10
3986.8829977864
 20
2385.5370577963
 10
3987.7903616107
 20
2385.0648688766
 10
3988.8527743616
 20
2384.9134945806
 10
3990.0267407363
 20
2385.0891321898
 10
3991.2641984134
 20
2385.5845910798
 10
3992.5144857304
 20
2386.3795871055
 10
3993.7264157775
 20
2387.441573036
 10
3994.8503719961
 20
2388.7270710427
 10
3995.8403394868
 20
2390.1834526862
 10
3996.655788864
 20
2391.7510935307
 10
3997.2633355344
 20
2393.365814176
 10
3997.638106466
 20
2394.9615077692
 10
3997.7647584929
 20
2396.4728464269
  0
LINE
  5
ED
330
1F
100
AcDbEntity
  8
0
  6
Continuous
 62
     7
370
    25
100
AcDbLine
 10
3490.9459730774
 20
2669.6760173516
 30
0.0
 11
3978.8496520961
 21
2951.3368159304
 31
0.0
  0
LINE
  5
EE
330
1F
100
AcDbEntity
  8
0
  6
Continuous
 62
     7
370
    25
100
AcDbLine
 10
4401.6995072457
 20
2707.2307904954
 30
0.0
 11
3978.8496520961
 21
2951.3368159304
 31
0.0
  0
LWPOLYLINE
  5
EF
330
1F
100
AcDbEntity
  8
0
  6
Continuous
 62
     7
370
    25
100
AcDbPolyline
 90
       34
 70
   128
 43
0.0
 10
3948.8683245738
 20
2478.7998008074
 10
3950.3343163633
 20
2478.1010373428
 10
3952.002890204
 20
2477.5750645919
 10
3953.8137394901
 20
2477.2408925803
 10
3955.7014154102
 20
2477.1105991551
 10
3957.5976924382
 20
2477.1888934603
 10
3959.4340341817
 20
2477.4729457357
 10
3961.1440704654
 20
2477.9524895919
 10
3962.6659961227
 20
2478.6101930646
 10
3963.9448047949
 20
2479.4222850365
 10
3964.9342770048
 20
2480.359414388
 10
3965.5986506486
 20
2481.3877108226
 10
3965.9139135318
 20
2482.470009028
 10
3965.8686712324
 20
2483.5671919272
 10
3965.464558925
 20
2484.6396044714
 10
3964.7161822813
 20
2485.6484868772
 10
3963.6505895831
 20
2486.5573755058
 10
3962.3062941269
 20
2487.3334207541
 10
3960.7318822529
 20
2487.9485743249
 10
3958.9842573084
 20
2488.3806029653
 10
3957.1265830122
 20
2488.6138920347
 10
3955.2260005537
 20
2488.6400098581
 10
3953.3512019346
 20
2488.4580124696
 10
3951.569947262
 20
2488.0744777288
 10
3949.9466157206
 20
2487.5032675806
 10
3948.5398787418
 20
2486.765027048
 10
3947.4005794655
 20
2485.8864380674
 10
3946.5698951357
 20
2484.8992551335
 10
3946.0778488485
 20
2483.8391576098
 10
3945.9422244387
 20
2482.7444601829
 10
3946.167923726
 20
2481.6547280698
 10
3946.7467893499
 20
2480.6093470285
 10
3947.6578995986
 20
2479.6460998535
 10
3948.8683245738
 20
2478.7998008074
  0
LWPOLYLINE
  5
F0
330
1F
100
AcDbEntity
  8
0
  6
Continuous
 62
     7
370
    25
100
AcDbPolyline
 90
       34
 70
   128
 43
0.0
 10
4295.3506473552
 20
2678.819788204
 10
4296.8166391447
 20
2678.1210247394
 10
4298.4852129855
 20
2677.5950519885
 10
4300.2960622715
 20
2677.2608799768
 10
4302.1837381916
 20
2677.1305865517
 10
4304.0800152196
 20
2677.2088808569
 10
4305.9163569631
 20
2677.4929331323
 10
4307.6263932468
 20
2677.9724769885
 10
4309.1483189041
 20
2678.6301804611
 10
4310.4271275763
 20
2679.4422724331
 10
4311.4165997862
 20
2680.3794017846
 10
4312.08097343
 20
2681.4076982192
 10
4312.3962363132
 20
2682.4899964246
 10
4312.3509940138
 20
2683.5871793237
 10
4311.9468817064
 20
2684.659591868
 10
4311.1985050627
 20
2685.6684742738
 10
4310.1329123645
 20
2686.5773629024
 10
4308.7886169083
 20
2687.3534081507
 10
4307.2142050343
 20
2687.9685617215
 10
4305.4665800898
 20
2688.4005903619
 10
4303.6089057936
 20
2688.6338794312
 10
4301.7083233351
 20
2688.6599972547
 10
4299.833524716
 20
2688.4779998662
 10
4298.0522700434
 20
2688.0944651254
 10
4296.428938502
 20
2687.5232549772
 10
4295.0222015232
 20
2686.7850144446
 10
4293.8829022469
 20
2685.9064254639
 10
4293.0522179171
 20
2684.9192425301
 10
4292.5601716299
 20
2683.8591450064
 10
4292.4245472201
 20
2682.7644475794
 10
4292.6502465074
 20
2681.6747154664
 10
4293.2291121313
 20
2680.6293344251
 10
4294.14022238
 20
2679.6660872501
 10
4295.3506473552
 20
2678.819788204
  0
LINE
  5
F1
330
1F
100
AcDbEntity
  8
0
  6
Continuous
 62
     7
370
    25
100
AcDbLine
 10
3903.1892265092
 20
2185.0906944624
 30
0.0
 11
3876.3191688241
 21
2169.5789403378
 31
0.0
  0
LINE
  5
F2
330
1F
100
AcDbEntity
  8
0
  6
Continuous
 62
     7
370
    25
100
AcDbLine
 10
3876.3191688241
 20
2434.9566947016
 30
0.0
 11
3876.3191688241
 21
2169.5789403378
 31
0.0
  0
LINE
  5
F3
330
1F
100
AcDbEntity
  8
0
  6
Continuous
 62
     7
370
    25
100
AcDbLine
 10
3549.6358359159
 20
2358.1692141689
 30
0.0
 11
3876.3191688241
 21
2169.5789403378
 31
0.0
  0
LINE
  5
F4
330
1F
100
AcDbEntity
  8
0
  6
Continuous
 62
     7
370
    25
100
AcDbLine
 10
3549.6358359159
 20
2358.1692141689
 30
0.0
 11
3549.6358359159
 21
2623.5469685327
 31
0.0
  0
LINE
  5
F5
330
1F
100
AcDbEntity
  8
0
  6
Continuous
 62
     7
370
    25
100
AcDbLine
 10
3560.2424376337
 20
2617.423907694
 30
0.0
 11
3560.2424376337
 21
2454.1137548159
 31
0.0
  0
LINE
  5
F6
330
1F
100
AcDbEntity
  8
0
  6
Continuous
 62
     7
370
    25
100
AcDbLine
 10
3560.2424376337
 20
2454.1137548159
 30
0.0
 11
3865.7125671063
 21
2277.7696026622
 31
0.0
  0
LINE
  5
F7
330
1F
100
AcDbEntity
  8
0
  6
Continuous
 62
     7
370
    25
100
AcDbLine
 10
3865.7125671063
 20
2277.7696026622
 30
0.0
 11
3865.7125671063
 21
2441.0797555403
 31
0.0
  0
LWPOLYLINE
  5
F8
330
1F
100
AcDbEntity
  8
0
  6
Continuous
 62
     7
370
    25
100
AcDbPolyline
 90
       17
 70
   128
 43
0.0
 10
3977.6769598804
 20
2431.5753989751
 10
3977.9564774339
 20
2431.0492467736
 10
3978.5745258303
 20
2430.4759272523
 10
3979.379982182
 20
2430.2272078306
 10
3980.3179559699
 20
2430.3200383261
 10
3981.3245258303
 20
2430.7480924938
 10
3982.3310956907
 20
2431.4821991496
 10
3983.2690694785
 20
2432.4723301382
 10
3984.0745258303
 20
2433.6510096688
 10
3984.6925742266
 20
2434.9379126794
 10
3985.0810956907
 20
2436.2453388565
 10
3985.2136131268
 20
2437.4841892667
 10
3985.0810956907
 20
2438.5700383019
 10
3984.6925742266
 20
2439.4288871448
 10
3984.0745258303
 20
2440.002206666
 10
3983.2690694785
 20
2440.2509260877
 10
3982.6731040746
 20
2440.2299122959
  0
LWPOLYLINE
  5
F9
330
1F
100
AcDbEntity
  8
0
  6
Continuous
 62
     7
370
    25
100
AcDbPolyline
 90
       17
 70
   128
 43
0.0
 10
3960.9369136242
 20
2477.8815572357
 10
3961.2519844303
 20
2478.3856359139
 10
3961.4393923857
 20
2479.2074077131
 10
3961.2519844303
 20
2480.0291795122
 10
3960.7025321065
 20
2480.7949489213
 10
3959.8284796822
 20
2481.4525300206
 10
3958.6893923857
 20
2481.9571097448
 10
3957.3628971337
 20
2482.2743018197
 10
3955.9393923857
 20
2482.3824901295
 10
3954.5158876376
 20
2482.2743018197
 10
3953.1893923857
 20
2481.9571097448
 10
3952.0503050891
 20
2481.4525300206
 10
3951.1762526649
 20
2480.7949489213
 10
3950.6268003411
 20
2480.0291795122
 10
3950.4393923857
 20
2479.2074077131
 10
3950.6268003411
 20
2478.3856359139
 10
3950.9418711471
 20
2477.8815572357
  0
LINE
  5
FA
330
1F
100
AcDbEntity
  8
0
  6
Continuous
 62
     7
370
    25
100
AcDbLine
 10
3570.8490393515
 20
2460.2368156546
 30
0.0
 11
3865.7125671063
 21
2290.0157243395
 31
0.0
  0
LINE
  5
FB
330
1F
100
AcDbEntity
  8
0
  6
Continuous
 62
     7
370
    25
100
AcDbLine
 10
3660.0374412311
 20
2559.8134783896
 30
0.0
 11
3570.8490393515
 21
2460.2368156546
 31
0.0
  0
LWPOLYLINE
  5
FC
330
1F
100
AcDbEntity
  8
0
  6
Continuous
 62
     7
370
    25
100
AcDbPolyline
 90
       17
 70
   128
 43
0.0
 10
3758.7675362342
 20
2410.1485070213
 10
3764.4784962025
 20
2407.0417679247
 10
3770.4027802413
 20
2404.1917631138
 10
3776.5287912864
 20
2401.6040716069
 10
3782.8445373834
 20
2399.2837589316
 10
3789.3376551629
 20
2397.2353672089
 10
3795.9954340417
 20
2395.4629062618
 10
3802.8048411052
 20
2393.9698457659
 10
3809.7525466192
 20
2392.7591084572
 10
3816.8249501239
 20
2391.8330644108
 10
3824.0082070574
 20
2391.1935264014
 10
3831.2882558568
 20
2390.8417463548
 10
3838.6508454848
 20
2390.7784128969
 10
3846.0815633265
 20
2391.0036500059
 10
3853.5658634026
 20
2391.5170167695
 10
3861.0890948443
 20
2392.3175082483
 10
3865.7125671063
 20
2392.9493338602
  0
LWPOLYLINE
  5
FD
330
1F
100
AcDbEntity
  8
0
  6
Continuous
 62
     7
370
    25
100
AcDbPolyline
 90
       25
 70
   128
 43
0.0
 10
3705.5934735199
 20
2533.514540738
 10
3705.5057577285
 20
2533.1020162033
 10
3704.294700333
 20
2526.5897542117
 10
3703.4147796146
 20
2520.1002057086
 10
3702.8677180595
 20
2513.64607429
 10
3702.6545865664
 20
2507.2399942213
 10
3702.7758023501
 20
2500.894505705
 10
3703.231128125
 20
2494.6220303329
 10
3704.0196725696
 20
2488.43484677
 10
3705.1398920712
 20
2482.3450667188
 10
3706.5895937473
 20
2476.3646112097
 10
3708.3659397389
 20
2470.5051872651
 10
3710.4654527653
 20
2464.7782649827
 10
3712.8840229312
 20
2459.1950550817
 10
3715.6169157719
 20
2453.7664869576
 10
3718.6587815213
 20
2448.5031872876
 10
3722.0036655844
 20
2443.4154592278
 10
3725.6450201935
 20
2438.5132622449
 10
3729.575717226
 20
2433.8061926197
 10
3733.7880621578
 20
2429.303464662
 10
3738.273809126
 20
2425.0138926733
 10
3743.0241770702
 20
2420.9458736921
 10
3748.0298669221
 20
2417.1073710566
 10
3753.2810798087
 20
2413.505898816
 10
3758.7675362342
 20
2410.1485070213
  0
ARC
  5
FE
330
1F
100
AcDbEntity
  8
0
  6
Continuous
 62
     7
370
    25
100
AcDbCircle
 10
3989.6152009918
 20
2396.8029255525
 30
0.0
 40
1.815848832939445
100
AcDbArc
 50
349.5267315593
 51
87.5841915844
  0
LWPOLYLINE
  5
FF
330
1F
100
AcDbEntity
  8
0
  6
Continuous
 62
     7
370
    25
100
AcDbPolyline
 90
       11
 70
   128
 43
0.0
 10
3985.6844852959
 20
2391.6756372022
 10
3985.6879985586
 20
2391.6692117507
 10
3986.1926233566
 20
2391.1058291154
 10
3986.8929917321
 20
2390.8651789536
 10
3987.7268728814
 20
2390.9686440883
 10
3988.6201728048
 20
2391.4070311881
 10
3989.4935178842
 20
2392.1413876355
 10
3990.2693075764
 20
2393.1064626374
 10
3990.878609563
 20
2394.2165050447
 10
3991.2672846884
 20
2395.3728827182
 10
3991.4007974622
 20
2396.4728464269
  0
LWPOLYLINE
  5
100
330
1F
100
AcDbEntity
  8
0
  6
Continuous
 62
     7
370
    25
100
AcDbPolyline
 90
       15
 70
   128
 43
0.0
 10
3711.3017114346
 20
2530.2192451321
 10
3709.9931740696
 20
2524.594612668
 10
3708.7821166742
 20
2518.0823506763
 10
3707.9021959558
 20
2511.5928021732
 10
3707.3551344007
 20
2505.1386707547
 10
3707.1420029075
 20
2498.7325906859
 10
3707.2632186912
 20
2492.3871021696
 10
3707.7185444662
 20
2486.1146267975
 10
3708.5070889108
 20
2479.9274432347
 10
3709.6273084123
 20
2473.8376631835
 10
3711.0770100884
 20
2467.8572076744
 10
3712.8533560801
 20
2461.9977837298
 10
3714.9528691065
 20
2456.2708614474
 10
3717.3714392724
 20
2450.6876515463
 10
3717.4696197065
 20
2450.4783782357
  0
ARC
  5
101
330
1F
100
AcDbEntity
  8
0
  6
Continuous
 62
     7
370
    25
100
AcDbCircle
 10
4046.1837434868
 20
2429.4592500254
 30
0.0
 40
1.815848832917533
100
AcDbArc
 50
349.526731559
 51
87.5841915932
  0
LWPOLYLINE
  5
102
330
1F
100
AcDbEntity
  8
0
  6
Continuous
 62
     7
370
    25
100
AcDbPolyline
 90
       11
 70
   128
 43
0.0
 10
4042.2530277907
 20
2424.3319616754
 10
4042.2565410535
 20
2424.3255362236
 10
4042.7611658515
 20
2423.7621535883
 10
4043.461534227
 20
2423.5215034265
 10
4044.2954153763
 20
2423.6249685612
 10
4045.1887152998
 20
2424.063355661
 10
4046.0620603791
 20
2424.7977121084
 10
4046.8378500714
 20
2425.7627871103
 10
4047.4471520579
 20
2426.8728295176
 10
4047.8358271833
 20
2428.0292071911
 10
4047.9693399571
 20
2429.1291708998
  0
LWPOLYLINE
  5
103
330
1F
100
AcDbEntity
  8
0
  6
Continuous
 62
     7
370
    25
100
AcDbPolyline
 90
       23
 70
   128
 43
0.0
 10
3774.7876390012
 20
2414.5170649614
 10
3769.5648810243
 20
2417.7241325164
 10
3764.5803575239
 20
2421.1773152077
 10
3759.8450255645
 20
2424.8690221902
 10
3755.3692944333
 20
2428.7911382909
 10
3751.1630027588
 20
2432.9350418472
 10
3747.235396883
 20
2437.2916236599
 10
3743.5951105359
 20
2441.8513070166
 10
3740.250145857
 20
2446.6040687437
 10
3737.2078558047
 20
2451.5394612394
 10
3734.4749279927
 20
2456.64663544
 10
3732.0573699894
 20
2461.9143646681
 10
3729.9604961122
 20
2467.3310693116
 10
3728.1889157447
 20
2472.8848422782
 10
3726.7465232052
 20
2478.5634751695
 10
3725.6364891855
 20
2484.3544851181
 10
3724.8612537812
 20
2490.2451422272
 10
3724.4225211281
 20
2496.222497554
 10
3724.3212556557
 20
2502.2734115744
 10
3724.5576799676
 20
2508.3845830661
 10
3725.1312743516
 20
2514.5425783478
 10
3726.0407779231
 20
2520.7338608094
 10
3726.1979444433
 20
2521.6198328599
  0
LWPOLYLINE
  5
104
330
1F
100
AcDbEntity
  8
0
  6
Continuous
 62
     7
370
    25
100
AcDbPolyline
 90
       16
 70
   128
 43
0.0
 10
3865.7125671063
 20
2398.3439063061
 10
3865.7070801849
 20
2398.3432531606
 10
3858.5425684506
 20
2397.6332803456
 10
3851.4206989252
 20
2397.2135867202
 10
3844.3571270235
 20
2397.0850948621
 10
3837.3673800095
 20
2397.2480872243
 10
3830.4668228641
 20
2397.7022055142
 10
3823.6706245096
 20
2398.4464514812
 10
3816.993724465
 20
2399.4791891112
 10
3810.4508000055
 20
2400.7981482227
 10
3804.0562338992
 20
2402.4004294574
 10
3797.8240827901
 20
2404.2825106533
 10
3791.7680462991
 20
2406.4402545875
 10
3785.9014369085
 20
2408.8689180706
 10
3780.2371506991
 20
2411.5631623731
 10
3774.7876390012
 20
2414.5170649614
  0
LWPOLYLINE
  5
105
330
1F
100
AcDbEntity
  8
0
  6
Continuous
 62
     7
370
    25
100
AcDbPolyline
 90
       20
 70
   128
 43
0.0
 10
3789.7615291944
 20
2423.1700737828
 10
3784.8762632103
 20
2426.1815753308
 10
3780.2290273858
 20
2429.4377844468
 10
3775.8313754814
 20
2432.9306056819
 10
3771.6942407527
 20
2436.6513553322
 10
3767.8279087685
 20
2440.5907830278
 10
3764.2419918393
 20
2444.7390947308
 10
3760.9454051195
 20
2449.0859770846
 10
3757.9463444432
 20
2453.6206230548
 10
3755.2522659477
 20
2458.331758797
 10
3752.8698675367
 20
2463.2076716855
 10
3750.8050722281
 20
2468.2362394326
 10
3749.0630134281
 20
2473.4049602265
 10
3747.6480221696
 20
2478.7009838131
 10
3746.5636163438
 20
2484.111143443
 10
3745.8124919543
 20
2489.6219886072
 10
3745.3965164148
 20
2495.2198184762
 10
3745.316723906
 20
2500.8907159629
 10
3745.5733128047
 20
2506.6205823228
 10
3745.9061362535
 20
2510.2425359004
  0
LWPOLYLINE
  5
106
330
1F
100
AcDbEntity
  8
0
  6
Continuous
 62
     7
370
    25
100
AcDbPolyline
 90
       14
 70
   128
 43
0.0
 10
3865.7125671063
 20
2408.486475416
 10
3862.0348645164
 20
2408.1876987817
 10
3855.377063417
 20
2407.8681138909
 10
3848.7820163797
 20
2407.8387667188
 10
3842.2661197305
 20
2408.099730227
 10
3835.8455730151
 20
2408.6503556192
 10
3829.5363387245
 20
2409.4892739539
 10
3823.354102609
 20
2410.614399548
 10
3817.3142346818
 20
2412.0229351618
 10
3811.4317510061
 20
2413.711378954
 10
3805.7212763633
 20
2415.6755331873
 10
3800.1970078931
 20
2417.9105146647
 10
3794.8726797973
 20
2420.4107668702
 10
3789.7615291944
 20
2423.1700737828
  0
LINE
  5
107
330
1F
100
AcDbEntity
  8
0
  6
Continuous
 62
     7
370
    25
100
AcDbLine
 10
3570.8490393515
 20
2460.2368156546
 30
0.0
 11
3560.2424376337
 21
2454.1137548159
 31
0.0
  0
LINE
  5
108
330
1F
100
AcDbEntity
  8
0
  6
Continuous
 62
     7
370
    25
100
AcDbLine
 10
3549.6358359159
 20
2401.4388440955
 30
0.0
 11
3501.5525747952
 21
2373.6809682935
 31
0.0
  0
ARC
  5
109
330
1F
100
AcDbEntity
  8
0
  6
Continuous
 62
     7
370
    25
100
AcDbCircle
 10
3870.9391094193
 20
2505.2780713217
 30
0.0
 40
78.09763539961538
100
AcDbArc
 50
240.8654203185
 51
266.1627160948
  0
ARC
  5
10A
330
1F
100
AcDbEntity
  8
0
  6
Continuous
 62
     7
370
    25
100
AcDbCircle
 10
3860.1331173496
 20
2486.1278350929
 30
0.0
 40
56.10939948178626
100
AcDbArc
 50
190.2135137887
 51
240.9831253245
  0
LWPOLYLINE
  5
10B
330
1F
100
AcDbEntity
  8
0
  6
Continuous
 62
     7
370
    25
100
AcDbPolyline
 90
       17
 70
   128
 43
0.0
 10
3977.6769598802
 20
2195.4317961781
 10
3977.9564774339
 20
2194.9056439762
 10
3978.5745258303
 20
2194.332324455
 10
3979.379982182
 20
2194.0836050333
 10
3980.3179559699
 20
2194.1764355287
 10
3981.3245258303
 20
2194.6044896964
 10
3982.3310956907
 20
2195.3385963523
 10
3983.2690694785
 20
2196.3287273408
 10
3984.0745258303
 20
2197.5074068714
 10
3984.6925742266
 20
2198.794309882
 10
3985.0810956907
 20
2200.1017360591
 10
3985.2136131268
 20
2201.3405864693
 10
3985.0810956907
 20
2202.4264355045
 10
3984.6925742266
 20
2203.2852843474
 10
3984.0745258303
 20
2203.8586038686
 10
3983.2690694785
 20
2204.1073232903
 10
3982.6731040742
 20
2204.0863094985
  0
ARC
  5
10C
330
1F
100
AcDbEntity
  8
0
  6
Continuous
 62
     7
370
    25
100
AcDbCircle
 10
4017.1923654579
 20
2220.8357929398
 30
0.0
 40
1.815848833138235
100
AcDbArc
 50
349.5267315617
 51
87.5841915079
  0
LWPOLYLINE
  5
10D
330
1F
100
AcDbEntity
  8
0
  6
Continuous
 62
     7
370
    25
100
AcDbPolyline
 90
       11
 70
   128
 43
0.0
 10
4013.2616497633
 20
2215.7085045875
 10
4013.2651630248
 20
2215.7020791381
 10
4013.7697878229
 20
2215.1386965028
 10
4014.4701561984
 20
2214.898046341
 10
4015.3040373476
 20
2215.0015114757
 10
4016.1973372711
 20
2215.4398985755
 10
4017.0706823504
 20
2216.1742550229
 10
4017.8464720427
 20
2217.1393300248
 10
4018.4557740292
 20
2218.2493724321
 10
4018.8444491547
 20
2219.4057501056
 10
4018.9779619284
 20
2220.5057138143
  0
ARC
  5
10E
330
1F
100
AcDbEntity
  8
0
  6
Continuous
 62
     7
370
    25
100
AcDbCircle
 10
4055.729685033
 20
2243.0829139871
 30
0.0
 40
1.815848832711771
100
AcDbArc
 50
349.5267315565
 51
87.5841916719
  0
LWPOLYLINE
  5
10F
330
1F
100
AcDbEntity
  8
0
  6
Continuous
 62
     7
370
    25
100
AcDbPolyline
 90
       11
 70
   128
 43
0.0
 10
4051.7989693356
 20
2237.9556256391
 10
4051.8024825995
 20
2237.9492001853
 10
4052.3071073976
 20
2237.38581755
 10
4053.0074757731
 20
2237.1451673882
 10
4053.8413569223
 20
2237.2486325229
 10
4054.7346568458
 20
2237.6870196227
 10
4055.6080019251
 20
2238.4213760701
 10
4056.3837916174
 20
2239.3864510719
 10
4056.9930936039
 20
2240.4964934792
 10
4057.3817687293
 20
2241.6528711528
 10
4057.5152815031
 20
2242.7528348615
  0
LWPOLYLINE
  5
110
330
1F
100
AcDbEntity
  8
0
  6
Continuous
 62
     7
370
    25
100
AcDbPolyline
 90
       17
 70
   128
 43
0.0
 10
4324.1592826611
 20
2631.5953863734
 10
4324.4388002153
 20
2631.0692341701
 10
4325.0568486117
 20
2630.4959146489
 10
4325.8623049634
 20
2630.2471952272
 10
4326.8002787513
 20
2630.3400257226
 10
4327.8068486117
 20
2630.7680798904
 10
4328.8134184721
 20
2631.5021865462
 10
4329.7513922599
 20
2632.4923175347
 10
4330.5568486117
 20
2633.6709970654
 10
4331.174897008
 20
2634.9579000759
 10
4331.5634184721
 20
2636.265326253
 10
4331.6959359082
 20
2637.5041766632
 10
4331.5634184721
 20
2638.5900256984
 10
4331.174897008
 20
2639.4488745413
 10
4330.5568486117
 20
2640.0221940626
 10
4329.7513922599
 20
2640.2709134842
 10
4329.1554268538
 20
2640.2498996921
  0
LWPOLYLINE
  5
111
330
1F
100
AcDbEntity
  8
0
  6
Continuous
 62
     7
370
    25
100
AcDbPolyline
 90
       17
 70
   128
 43
0.0
 10
4307.419236407
 20
2677.901544634
 10
4307.7343072117
 20
2678.4056233105
 10
4307.9217151671
 20
2679.2273951096
 10
4307.7343072117
 20
2680.0491669088
 10
4307.1848548879
 20
2680.8149363179
 10
4306.3108024636
 20
2681.4725174172
 10
4305.1717151671
 20
2681.9770971414
 10
4303.8452199151
 20
2682.2942892163
 10
4302.4217151671
 20
2682.4024775261
 10
4300.998210419
 20
2682.2942892163
 10
4299.6717151671
 20
2681.9770971414
 10
4298.5326278705
 20
2681.4725174172
 10
4297.6585754463
 20
2680.8149363179
 10
4297.1091231225
 20
2680.0491669088
 10
4296.9217151671
 20
2679.2273951096
 10
4297.1091231225
 20
2678.4056233105
 10
4297.4241939272
 20
2677.9015446339
  0
ARC
  5
112
330
1F
100
AcDbEntity
  8
0
  6
Continuous
 62
     7
370
    25
100
AcDbCircle
 10
4186.8979929431
 20
2318.8047663586
 30
0.0
 40
1.815848832736185
100
AcDbArc
 50
349.5267315568
 51
87.584191663
  0
LWPOLYLINE
  5
113
330
1F
100
AcDbEntity
  8
0
  6
Continuous
 62
     7
370
    25
100
AcDbPolyline
 90
       11
 70
   128
 43
0.0
 10
4182.9672772458
 20
2313.6774780104
 10
4182.9707905096
 20
2313.6710525568
 10
4183.4754153077
 20
2313.1076699215
 10
4184.1757836832
 20
2312.8670197598
 10
4185.0096648324
 20
2312.9704848944
 10
4185.9029647559
 20
2313.4088719942
 10
4186.7763098352
 20
2314.1432284416
 10
4187.5520995275
 20
2315.1083034435
 10
4188.161401514
 20
2316.2183458508
 10
4188.5500766395
 20
2317.3747235243
 10
4188.6835894132
 20
2318.474687233
  0
ARC
  5
114
330
1F
100
AcDbEntity
  8
0
  6
Continuous
 62
     7
370
    25
100
AcDbCircle
 10
4225.4353125179
 20
2341.0518874058
 30
0.0
 40
1.815848832595863
100
AcDbArc
 50
349.526731555
 51
87.5841917161
  0
LWPOLYLINE
  5
115
330
1F
100
AcDbEntity
  8
0
  6
Continuous
 62
     7
370
    25
100
AcDbPolyline
 90
       11
 70
   128
 43
0.0
 10
4221.5045968197
 20
2335.9245990591
 10
4221.5081100843
 20
2335.918173604
 10
4222.0127348823
 20
2335.3547909687
 10
4222.7131032578
 20
2335.1141408069
 10
4223.5469844071
 20
2335.2176059416
 10
4224.4402843306
 20
2335.6559930414
 10
4225.3136294099
 20
2336.3903494888
 10
4226.0894191021
 20
2337.3554244907
 10
4226.6987210887
 20
2338.465466898
 10
4227.0873962141
 20
2339.6218445715
 10
4227.2209089879
 20
2340.7218082802
  0
LWPOLYLINE
  5
116
330
1F
100
AcDbEntity
  8
0
  6
Continuous
 62
     7
370
    25
100
AcDbPolyline
 90
       17
 70
   128
 43
0.0
 10
4324.15928266
 20
2395.4517835788
 10
4324.4388002153
 20
2394.9256313728
 10
4325.0568486117
 20
2394.3523118515
 10
4325.8623049634
 20
2394.1035924298
 10
4326.8002787513
 20
2394.1964229253
 10
4327.8068486117
 20
2394.624477093
 10
4328.8134184721
 20
2395.3585837488
 10
4329.7513922599
 20
2396.3487147374
 10
4330.5568486117
 20
2397.527394268
 10
4331.174897008
 20
2398.8142972786
 10
4331.5634184721
 20
2400.1217234557
 10
4331.6959359082
 20
2401.3605738659
 10
4331.5634184721
 20
2402.4464229011
 10
4331.174897008
 20
2403.305271744
 10
4330.5568486117
 20
2403.8785912652
 10
4329.7513922599
 20
2404.1273106869
 10
4329.1554268517
 20
2404.1062968945
  0
ARC
  5
117
330
1F
100
AcDbEntity
  8
0
  6
Continuous
 62
     7
370
    25
100
AcDbCircle
 10
1941.4255839493
 20
1493.0042551077
 30
0.0
 40
101.7999999999999
100
AcDbArc
 50
84.3994652242
 51
95.6005347758
  0
LINE
  5
118
330
1F
100
AcDbEntity
  8
0
  6
Continuous
 62
     7
370
    25
100
AcDbLine
 10
1641.4255839493
 20
1763.864710705
 30
0.0
 11
1641.4255839493
 21
1393.864710705
 31
0.0
  0
LINE
  5
119
330
1F
100
AcDbEntity
  8
0
  6
Continuous
 62
     7
370
    25
100
AcDbLine
 10
1656.4255839493
 20
1408.864710705
 30
0.0
 11
2224.4255839493
 21
1408.864710705
 31
0.0
  0
LINE
  5
11A
330
1F
100
AcDbEntity
  8
0
  6
Continuous
 62
     7
370
    25
100
AcDbLine
 10
2224.4255839493
 20
1408.864710705
 30
0.0
 11
2224.4255839493
 21
1748.864710705
 31
0.0
  0
LINE
  5
11B
330
1F
100
AcDbEntity
  8
0
  6
Continuous
 62
     7
370
    25
100
AcDbLine
 10
2224.4255839493
 20
1748.864710705
 30
0.0
 11
1656.4255839493
 21
1748.864710705
 31
0.0
  0
LINE
  5
11C
330
1F
100
AcDbEntity
  8
0
  6
Continuous
 62
     7
370
    25
100
AcDbLine
 10
1656.4255839493
 20
1748.864710705
 30
0.0
 11
1656.4255839493
 21
1408.864710705
 31
0.0
  0
LINE
  5
11D
330
1F
100
AcDbEntity
  8
0
  6
Continuous
 62
     7
370
    25
100
AcDbLine
 10
2239.4255839493
 20
1763.864710705
 30
0.0
 11
1641.4255839493
 21
1763.864710705
 31
0.0
  0
LINE
  5
11E
330
1F
100
AcDbEntity
  8
0
  6
Continuous
 62
     7
370
    25
100
AcDbLine
 10
2239.4255839493
 20
1393.864710705
 30
0.0
 11
2239.4255839493
 21
1763.864710705
 31
0.0
  0
LINE
  5
11F
330
1F
100
AcDbEntity
  8
0
  6
Continuous
 62
     7
370
    25
100
AcDbLine
 10
1641.4255839493
 20
1393.864710705
 30
0.0
 11
2239.4255839493
 21
1393.864710705
 31
0.0
  0
LINE
  5
120
330
1F
100
AcDbEntity
  8
0
  6
Continuous
 62
     7
370
    25
100
AcDbLine
 10
1709.4255839493
 20
1408.864710705
 30
0.0
 11
1709.4255839493
 21
1748.864710705
 31
0.0
  0
LINE
  5
121
330
1F
100
AcDbEntity
  8
0
  6
Continuous
 62
     7
370
    25
100
AcDbLine
 10
1724.4255839493
 20
1748.864710705
 30
0.0
 11
1724.4255839493
 21
1533.864710705
 31
0.0
  0
LINE
  5
122
330
1F
100
AcDbEntity
  8
0
  6
Continuous
 62
     7
370
    25
100
AcDbLine
 10
1724.4255839493
 20
1533.864710705
 30
0.0
 11
2156.4255839493
 21
1533.864710705
 31
0.0
  0
LINE
  5
123
330
1F
100
AcDbEntity
  8
0
  6
Continuous
 62
     7
370
    25
100
AcDbLine
 10
2156.4255839493
 20
1533.864710705
 30
0.0
 11
2156.4255839493
 21
1748.864710705
 31
0.0
  0
LINE
  5
124
330
1F
100
AcDbEntity
  8
0
  6
Continuous
 62
     7
370
    25
100
AcDbLine
 10
2171.4255839493
 20
1748.864710705
 30
0.0
 11
2171.4255839493
 21
1408.864710705
 31
0.0
  0
LINE
  5
125
330
1F
100
AcDbEntity
  8
0
  6
Continuous
 62
     7
370
    25
100
AcDbLine
 10
2188.0055839493
 20
1383.864710705
 30
0.0
 11
2180.1755839493
 21
1383.864710705
 31
0.0
  0
LINE
  5
126
330
1F
100
AcDbEntity
  8
0
  6
Continuous
 62
     7
370
    25
100
AcDbLine
 10
2180.1755839493
 20
1383.864710705
 30
0.0
 11
2180.1755839493
 21
1393.864710705
 31
0.0
  0
LINE
  5
127
330
1F
100
AcDbEntity
  8
0
  6
Continuous
 62
     7
370
    25
100
AcDbLine
 10
1692.8455839493
 20
1383.864710705
 30
0.0
 11
1670.0055839493
 21
1383.864710705
 31
0.0
  0
LINE
  5
128
330
1F
100
AcDbEntity
  8
0
  6
Continuous
 62
     7
370
    25
100
AcDbLine
 10
1670.0055839493
 20
1383.864710705
 30
0.0
 11
1662.1755839493
 21
1383.864710705
 31
0.0
  0
LINE
  5
129
330
1F
100
AcDbEntity
  8
0
  6
Continuous
 62
     7
370
    25
100
AcDbLine
 10
1662.1755839493
 20
1383.864710705
 30
0.0
 11
1662.1755839493
 21
1393.864710705
 31
0.0
  0
LINE
  5
12A
330
1F
100
AcDbEntity
  8
0
  6
Continuous
 62
     7
370
    25
100
AcDbLine
 10
2218.6755839493
 20
1383.864710705
 30
0.0
 11
2218.6755839493
 21
1393.864710705
 31
0.0
  0
LINE
  5
12B
330
1F
100
AcDbEntity
  8
0
  6
Continuous
 62
     7
370
    25
100
AcDbLine
 10
2218.6755839493
 20
1383.864710705
 30
0.0
 11
2210.8455839493
 21
1383.864710705
 31
0.0
  0
LINE
  5
12C
330
1F
100
AcDbEntity
  8
0
  6
Continuous
 62
     7
370
    25
100
AcDbLine
 10
1700.6755839493
 20
1383.864710705
 30
0.0
 11
1700.6755839493
 21
1393.864710705
 31
0.0
  0
LINE
  5
12D
330
1F
100
AcDbEntity
  8
0
  6
Continuous
 62
     7
370
    25
100
AcDbLine
 10
1700.6755839493
 20
1383.864710705
 30
0.0
 11
1692.8455839493
 21
1383.864710705
 31
0.0
  0
LINE
  5
12E
330
1F
100
AcDbEntity
  8
0
  6
Continuous
 62
     7
370
    25
100
AcDbLine
 10
2210.8455839493
 20
1383.864710705
 30
0.0
 11
2188.0055839493
 21
1383.864710705
 31
0.0
  0
LINE
  5
12F
330
1F
100
AcDbEntity
  8
0
  6
Continuous
 62
     7
370
    25
100
AcDbLine
 10
1724.4255839493
 20
1720.634710705
 30
0.0
 11
2156.4255839493
 21
1720.634710705
 31
0.0
  0
LWPOLYLINE
  5
130
330
1F
100
AcDbEntity
  8
0
  6
Continuous
 62
     7
370
    25
100
AcDbPolyline
 90
      143
 70
   128
 43
0.0
 10
1941.4255839493
 20
1556.6305201265
 10
1949.3433530132
 20
1556.7046435259
 10
1957.2456226723
 20
1556.9268686241
 10
1965.1169238626
 20
1557.296760405
 10
1972.9418481426
 20
1557.813594788
 10
1980.7050778554
 20
1558.4763600457
 10
1988.3914161143
 20
1559.2837587838
 10
1995.9858165512
 20
1560.2342104815
 10
2003.4734127706
 20
1561.3258545848
 10
2010.8395474514
 20
1562.5565541493
 10
2018.0698010389
 20
1563.9239000227
 10
2025.1500199722
 20
1565.4252155613
 10
2032.0663443904
 20
1567.0575618693
 10
2038.8052352634
 20
1568.8177435523
 10
2045.3535008961
 20
1570.702314972
 10
2051.6983227509
 20
1572.7075869912
 10
2057.8272805411
 20
1574.8296341958
 10
2063.7283765439
 20
1577.0643025789
 10
2069.3900590869
 20
1579.407217672
 10
2074.8012451606
 20
1581.8537931089
 10
2079.9513421142
 20
1584.3992396032
 10
2084.830268391
 20
1587.038574324
 10
2089.4284732637
 20
1589.7666306494
 10
2093.7369555303
 20
1592.5780682813
 10
2097.7472811345
 20
1595.4673836984
 10
2101.4515996756
 20
1598.4289209301
 10
2104.8426597761
 20
1601.4568826281
 10
2107.9138232766
 20
1604.5453414153
 10
2110.6590782303
 20
1607.6882514885
 10
2113.0730506717
 20
1610.8794604538
 10
2115.1510151365
 20
1614.1127213696
 10
2116.8889039115
 20
1617.3817049759
 10
2118.283314998
 20
1620.6800120838
 10
2119.3315187706
 20
1624.0011861022
 10
2120.0314633214
 20
1627.3387256771
 10
2120.381778476
 20
1630.6860974179
 10
2120.381778476
 20
1634.0367486874
 10
2120.0314633214
 20
1637.3841204282
 10
2119.3315187706
 20
1640.7216600031
 10
2118.283314998
 20
1644.0428340215
 10
2116.8889039115
 20
1647.3411411294
 10
2115.1510151365
 20
1650.6101247357
 10
2113.0730506717
 20
1653.8433856515
 10
2110.6590782303
 20
1657.0345946168
 10
2107.9138232766
 20
1660.17750469
 10
2104.8426597761
 20
1663.2659634772
 10
2101.4515996756
 20
1666.2939251752
 10
2097.7472811345
 20
1669.2554624069
 10
2093.7369555303
 20
1672.144777824
 10
2089.4284732637
 20
1674.9562154559
 10
2084.830268391
 20
1677.6842717814
 10
2079.9513421142
 20
1680.3236065021
 10
2074.8012451606
 20
1682.8690529964
 10
2069.3900590869
 20
1685.3156284333
 10
2063.7283765439
 20
1687.6585435264
 10
2057.8272805411
 20
1689.8932119095
 10
2051.6983227509
 20
1692.0152591141
 10
2045.3535008961
 20
1694.0205311333
 10
2038.8052352634
 20
1695.905102553
 10
2032.0663443904
 20
1697.665284236
 10
2025.1500199722
 20
1699.297630544
 10
2018.0698010389
 20
1700.7989460826
 10
2010.8395474514
 20
1702.166291956
 10
2003.4734127706
 20
1703.3969915205
 10
1995.9858165512
 20
1704.4886356238
 10
1988.3914161143
 20
1705.4390873215
 10
1980.7050778554
 20
1706.2464860596
 10
1972.9418481426
 20
1706.9092513173
 10
1965.1169238626
 20
1707.4260857003
 10
1957.2456226723
 20
1707.7959774812
 10
1949.3433530132
 20
1708.0182025794
 10
1941.4255839493
 20
1708.0923259788
 10
1933.5078148855
 20
1708.0182025794
 10
1925.6055452264
 20
1707.7959774812
 10
1917.734244036
 20
1707.4260857003
 10
1909.9093197561
 20
1706.9092513173
 10
1902.1460900433
 20
1706.2464860596
 10
1894.4597517844
 20
1705.4390873215
 10
1886.8653513475
 20
1704.4886356238
 10
1879.3777551281
 20
1703.3969915205
 10
1872.0116204473
 20
1702.166291956
 10
1864.7813668598
 20
1700.7989460826
 10
1857.7011479265
 20
1699.297630544
 10
1850.7848235083
 20
1697.665284236
 10
1844.0459326353
 20
1695.905102553
 10
1837.4976670026
 20
1694.0205311333
 10
1831.1528451478
 20
1692.0152591141
 10
1825.0238873576
 20
1689.8932119095
 10
1819.1227913548
 20
1687.6585435264
 10
1813.4611088118
 20
1685.3156284333
 10
1808.049922738
 20
1682.8690529964
 10
1802.8998257845
 20
1680.3236065021
 10
1798.0208995077
 20
1677.6842717814
 10
1793.422694635
 20
1674.9562154559
 10
1789.1142123684
 20
1672.144777824
 10
1785.1038867642
 20
1669.2554624069
 10
1781.3995682231
 20
1666.2939251752
 10
1778.0085081226
 20
1663.2659634772
 10
1774.9373446221
 20
1660.17750469
 10
1772.1920896684
 20
1657.0345946168
 10
1769.778117227
 20
1653.8433856515
 10
1767.7001527622
 20
1650.6101247357
 10
1765.9622639872
 20
1647.3411411294
 10
1764.5678529007
 20
1644.0428340215
 10
1763.5196491281
 20
1640.7216600031
 10
1762.8197045773
 20
1637.3841204282
 10
1762.4693894227
 20
1634.0367486874
 10
1762.4693894227
 20
1630.6860974179
 10
1762.8197045773
 20
1627.3387256771
 10
1763.5196491281
 20
1624.0011861022
 10
1764.5678529007
 20
1620.6800120838
 10
1765.9622639872
 20
1617.3817049759
 10
1767.7001527622
 20
1614.1127213696
 10
1769.778117227
 20
1610.8794604538
 10
1772.1920896684
 20
1607.6882514885
 10
1774.9373446221
 20
1604.5453414153
 10
1778.0085081226
 20
1601.4568826281
 10
1781.3995682231
 20
1598.4289209301
 10
1785.1038867642
 20
1595.4673836984
 10
1789.1142123684
 20
1592.5780682813
 10
1793.422694635
 20
1589.7666306494
 10
1798.0208995077
 20
1587.038574324
 10
1802.8998257845
 20
1584.3992396032
 10
1808.0499227381
 20
1581.8537931089
 10
1813.4611088118
 20
1579.407217672
 10
1819.1227913548
 20
1577.0643025789
 10
1825.0238873576
 20
1574.8296341958
 10
1831.1528451478
 20
1572.7075869912
 10
1837.4976670026
 20
1570.702314972
 10
1844.0459326353
 20
1568.8177435523
 10
1850.7848235083
 20
1567.0575618693
 10
1857.7011479265
 20
1565.4252155613
 10
1864.7813668598
 20
1563.9239000227
 10
1872.0116204473
 20
1562.5565541493
 10
1879.3777551281
 20
1561.3258545848
 10
1886.8653513475
 20
1560.2342104815
 10
1894.4597517844
 20
1559.2837587838
 10
1902.1460900433
 20
1558.4763600457
 10
1909.9093197561
 20
1557.813594788
 10
1917.7342440361
 20
1557.296760405
 10
1925.6055452264
 20
1556.9268686241
 10
1933.5078148855
 20
1556.7046435259
 10
1941.4255839493
 20
1556.6305201265
  0
LWPOLYLINE
  5
131
330
1F
100
AcDbEntity
  8
0
  6
Continuous
 62
     7
370
    25
100
AcDbPolyline
 90
       69
 70
   128
 43
0.0
 10
2119.7034426734
 20
1625.5657224051
 10
2119.3315187706
 20
1627.1302587081
 10
2118.283314998
 20
1630.4514327265
 10
2116.8889039115
 20
1633.7497398344
 10
2115.1510151365
 20
1637.0187234407
 10
2113.0730506717
 20
1640.2519843565
 10
2110.6590782303
 20
1643.4431933218
 10
2107.9138232766
 20
1646.586103395
 10
2104.8426597761
 20
1649.6745621822
 10
2101.4515996756
 20
1652.7025238802
 10
2097.7472811345
 20
1655.6640611119
 10
2093.7369555303
 20
1658.553376529
 10
2089.4284732637
 20
1661.3648141608
 10
2084.830268391
 20
1664.0928704863
 10
2079.9513421142
 20
1666.7322052071
 10
2074.8012451606
 20
1669.2776517014
 10
2069.3900590869
 20
1671.7242271383
 10
2063.7283765439
 20
1674.0671422314
 10
2057.8272805411
 20
1676.3018106145
 10
2051.6983227509
 20
1678.4238578191
 10
2045.3535008961
 20
1680.4291298383
 10
2038.8052352634
 20
1682.313701258
 10
2032.0663443904
 20
1684.0738829409
 10
2025.1500199722
 20
1685.706229249
 10
2018.0698010389
 20
1687.2075447876
 10
2010.8395474514
 20
1688.574890661
 10
2003.4734127706
 20
1689.8055902255
 10
1995.9858165512
 20
1690.8972343288
 10
1988.3914161143
 20
1691.8476860265
 10
1980.7050778554
 20
1692.6550847646
 10
1972.9418481426
 20
1693.3178500223
 10
1965.1169238626
 20
1693.8346844053
 10
1957.2456226723
 20
1694.2045761862
 10
1949.3433530132
 20
1694.4268012844
 10
1941.4255839493
 20
1694.5009246838
 10
1933.5078148855
 20
1694.4268012844
 10
1925.6055452264
 20
1694.2045761862
 10
1917.734244036
 20
1693.8346844053
 10
1909.9093197561
 20
1693.3178500223
 10
1902.1460900433
 20
1692.6550847646
 10
1894.4597517844
 20
1691.8476860265
 10
1886.8653513475
 20
1690.8972343288
 10
1879.3777551281
 20
1689.8055902255
 10
1872.0116204473
 20
1688.574890661
 10
1864.7813668598
 20
1687.2075447876
 10
1857.7011479265
 20
1685.706229249
 10
1850.7848235083
 20
1684.0738829409
 10
1844.0459326353
 20
1682.313701258
 10
1837.4976670026
 20
1680.4291298383
 10
1831.1528451478
 20
1678.4238578191
 10
1825.0238873576
 20
1676.3018106145
 10
1819.1227913548
 20
1674.0671422314
 10
1813.4611088118
 20
1671.7242271383
 10
1808.049922738
 20
1669.2776517014
 10
1802.8998257845
 20
1666.7322052071
 10
1798.0208995077
 20
1664.0928704863
 10
1793.422694635
 20
1661.3648141608
 10
1789.1142123684
 20
1658.553376529
 10
1785.1038867642
 20
1655.6640611119
 10
1781.3995682231
 20
1652.7025238802
 10
1778.0085081226
 20
1649.6745621822
 10
1774.9373446221
 20
1646.586103395
 10
1772.1920896684
 20
1643.4431933218
 10
1769.778117227
 20
1640.2519843565
 10
1767.7001527622
 20
1637.0187234407
 10
1765.9622639872
 20
1633.7497398344
 10
1764.5678529007
 20
1630.4514327265
 10
1763.5196491281
 20
1627.1302587081
 10
1763.1477252253
 20
1625.5657224051
  0
LWPOLYLINE
  5
132
330
1F
100
AcDbEntity
  8
0
  6
Continuous
 62
     7
370
    25
100
AcDbPolyline
 90
       91
 70
   128
 43
0.0
 10
1801.2474185528
 20
1585.26643203
 10
1799.5476211678
 20
1586.5726055821
 10
1796.1364477159
 20
1589.4215202423
 10
1793.0446513174
 20
1592.3349492783
 10
1790.2790284117
 20
1595.3064883407
 10
1787.8456584382
 20
1598.3296053419
 10
1785.7498904722
 20
1601.3976548145
 10
1783.9963314665
 20
1604.5038925199
 10
1782.5888361244
 20
1607.6414902736
 10
1781.5304984262
 20
1610.8035509547
 10
1780.8236448277
 20
1613.9831236675
 10
1780.4698291467
 20
1617.1732190213
 10
1780.4698291467
 20
1620.366824494
 10
1780.8236448277
 20
1623.5569198477
 10
1781.5304984262
 20
1626.7364925606
 10
1782.5888361244
 20
1629.8985532417
 10
1783.9963314665
 20
1633.0361509953
 10
1785.7498904722
 20
1636.1423887008
 10
1787.8456584382
 20
1639.2104381734
 10
1790.2790284117
 20
1642.2335551745
 10
1793.0446513174
 20
1645.205094237
 10
1796.1364477159
 20
1648.118523273
 10
1799.5476211678
 20
1650.9674379332
 10
1803.2706731734
 20
1653.7455756848
 10
1807.2974196565
 20
1656.4468295783
 10
1811.6190089544
 20
1659.0652616712
 10
1816.2259412758
 20
1661.5951160816
 10
1821.1080895837
 20
1664.0308316403
 10
1826.2547218566
 20
1666.3670541161
 10
1831.6545246797
 20
1668.5986479848
 10
1837.2956281146
 20
1670.7207077188
 10
1843.1656317915
 20
1672.7285685704
 10
1849.2516321685
 20
1674.6178168254
 10
1855.540250896
 20
1676.3842995064
 10
1862.017664225
 20
1678.0241335009
 10
1868.6696333954
 20
1679.5337140979
 10
1875.4815359352
 20
1680.9097229118
 10
1882.4383978043
 20
1682.1491351764
 10
1889.5249263104
 20
1683.2492263946
 10
1896.725543726
 20
1684.2075783272
 10
1904.0244215311
 20
1685.0220843087
 10
1911.4055152084
 20
1685.6909538781
 10
1918.852599512
 20
1686.2127167149
 10
1926.3493041343
 20
1686.5862258712
 10
1933.8791496917
 20
1686.8106602928
 10
1941.4255839493
 20
1686.8855266242
 10
1948.972018207
 20
1686.8106602928
 10
1956.5018637644
 20
1686.5862258712
 10
1963.9985683867
 20
1686.2127167149
 10
1971.4456526903
 20
1685.6909538781
 10
1978.8267463676
 20
1685.0220843087
 10
1986.1256241727
 20
1684.2075783272
 10
1993.3262415883
 20
1683.2492263946
 10
2000.4127700944
 20
1682.1491351764
 10
2007.3696319635
 20
1680.9097229118
 10
2014.1815345033
 20
1679.5337140979
 10
2020.8335036737
 20
1678.0241335009
 10
2027.3109170027
 20
1676.3842995064
 10
2033.5995357301
 20
1674.6178168254
 10
2039.6855361072
 20
1672.7285685704
 10
2045.5555397841
 20
1670.7207077188
 10
2051.196643219
 20
1668.5986479848
 10
2056.5964460421
 20
1666.3670541161
 10
2061.743078315
 20
1664.0308316403
 10
2066.6252266229
 20
1661.5951160816
 10
2071.2321589443
 20
1659.0652616712
 10
2075.5537482422
 20
1656.4468295783
 10
2079.5804947252
 20
1653.7455756848
 10
2083.3035467309
 20
1650.9674379332
 10
2086.7147201828
 20
1648.118523273
 10
2089.8065165813
 20
1645.205094237
 10
2092.572139487
 20
1642.2335551745
 10
2095.0055094605
 20
1639.2104381734
 10
2097.1012774265
 20
1636.1423887008
 10
2098.8548364322
 20
1633.0361509953
 10
2100.2623317743
 20
1629.8985532417
 10
2101.3206694725
 20
1626.7364925606
 10
2102.027523071
 20
1623.5569198477
 10
2102.381338752
 20
1620.366824494
 10
2102.381338752
 20
1617.1732190213
 10
2102.027523071
 20
1613.9831236675
 10
2101.3206694725
 20
1610.8035509547
 10
2100.2623317743
 20
1607.6414902736
 10
2098.8548364322
 20
1604.5038925199
 10
2097.1012774265
 20
1601.3976548145
 10
2095.0055094605
 20
1598.3296053419
 10
2092.572139487
 20
1595.3064883407
 10
2089.8065165813
 20
1592.3349492783
 10
2086.7147201828
 20
1589.4215202423
 10
2083.3035467309
 20
1586.5726055821
 10
2081.6037493459
 20
1585.26643203
  0
LWPOLYLINE
  5
133
330
1F
100
AcDbEntity
  8
0
  6
Continuous
 62
     7
370
    25
100
AcDbPolyline
 90
       93
 70
   128
 43
0.0
 10
1832.3869333128
 20
1572.3029098921
 10
1830.5558038535
 20
1573.2542458901
 10
1826.2864648888
 20
1575.6388428182
 10
1822.3033799156
 20
1578.1105102327
 10
1818.6164515108
 20
1580.6631031789
 10
1815.2348459594
 20
1583.2902755086
 10
1812.1669704654
 20
1585.9854956573
 10
1809.4204522509
 20
1588.7420628833
 10
1807.0021195927
 20
1591.553123926
 10
1804.917984847
 20
1594.4116900447
 10
1803.1732295012
 20
1597.3106543937
 10
1801.7721912918
 20
1600.2428096908
 10
1800.7183534206
 20
1603.2008661359
 10
1800.0143358947
 20
1606.1774695348
 10
1799.6618890125
 20
1609.1652195822
 10
1799.6618890125
 20
1612.1566882609
 10
1800.0143358947
 20
1615.1444383083
 10
1800.7183534206
 20
1618.1210417072
 10
1801.7721912918
 20
1621.0790981523
 10
1803.1732295012
 20
1624.0112534494
 10
1804.917984847
 20
1626.9102177984
 10
1807.0021195927
 20
1629.7687839171
 10
1809.4204522509
 20
1632.5798449598
 10
1812.1669704654
 20
1635.3364121857
 10
1815.2348459594
 20
1638.0316323345
 10
1818.6164515108
 20
1640.6588046642
 10
1822.3033799156
 20
1643.2113976104
 10
1826.2864648888
 20
1645.6830650249
 10
1830.5558038535
 20
1648.067661953
 10
1835.1007825604
 20
1650.3592599111
 10
1839.9101014763
 20
1652.5521616255
 10
1844.9718038767
 20
1654.6409151971
 10
1850.2733055717
 20
1656.6203276554
 10
1855.801426193
 20
1658.4854778691
 10
1861.5424219616
 20
1660.231728781
 10
1867.4820198575
 20
1661.8547389361
 10
1873.6054531043
 20
1663.3504732754
 10
1879.8974978824
 20
1664.7152131678
 10
1886.3425111769
 20
1665.9455656548
 10
1892.9244696694
 20
1667.0384718862
 10
1899.6270095738
 20
1667.991214725
 10
1906.4334673201
 20
1668.8014255024
 10
1913.3269209817
 20
1669.4670899066
 10
1920.2902323467
 20
1669.9865529912
 10
1927.306089526
 20
1670.3585232891
 10
1934.3570499931
 20
1670.5820760234
 10
1941.4255839493
 20
1670.6566554069
 10
1948.4941179056
 20
1670.5820760234
 10
1955.5450783727
 20
1670.3585232891
 10
1962.5609355519
 20
1669.9865529912
 10
1969.524246917
 20
1669.4670899066
 10
1976.4177005786
 20
1668.8014255024
 10
1983.2241583249
 20
1667.991214725
 10
1989.9266982293
 20
1667.0384718862
 10
1996.5086567218
 20
1665.9455656547
 10
2002.9536700163
 20
1664.7152131678
 10
2009.2457147943
 20
1663.3504732754
 10
2015.3691480412
 20
1661.8547389361
 10
2021.3087459371
 20
1660.231728781
 10
2027.0497417057
 20
1658.4854778691
 10
2032.5778623269
 20
1656.6203276554
 10
2037.879364022
 20
1654.6409151971
 10
2042.9410664224
 20
1652.5521616255
 10
2047.7503853383
 20
1650.3592599111
 10
2052.2953640452
 20
1648.067661953
 10
2056.5647030099
 20
1645.6830650249
 10
2060.5477879831
 20
1643.2113976104
 10
2064.2347163879
 20
1640.6588046642
 10
2067.6163219393
 20
1638.0316323345
 10
2070.6841974333
 20
1635.3364121857
 10
2073.4307156478
 20
1632.5798449598
 10
2075.8490483059
 20
1629.7687839171
 10
2077.9331830516
 20
1626.9102177984
 10
2079.6779383975
 20
1624.0112534494
 10
2081.0789766069
 20
1621.0790981523
 10
2082.1328144781
 20
1618.1210417071
 10
2082.836832004
 20
1615.1444383083
 10
2083.1892788862
 20
1612.1566882609
 10
2083.1892788862
 20
1609.1652195822
 10
2082.836832004
 20
1606.1774695348
 10
2082.1328144781
 20
1603.2008661359
 10
2081.0789766069
 20
1600.2428096908
 10
2079.6779383975
 20
1597.3106543937
 10
2077.9331830516
 20
1594.4116900447
 10
2075.8490483059
 20
1591.553123926
 10
2073.4307156478
 20
1588.7420628833
 10
2070.6841974333
 20
1585.9854956573
 10
2067.6163219393
 20
1583.2902755086
 10
2064.2347163879
 20
1580.6631031789
 10
2060.5477879831
 20
1578.1105102327
 10
2056.5647030099
 20
1575.6388428182
 10
2052.2953640452
 20
1573.2542458901
 10
2050.4642345859
 20
1572.3029098921
  0
LWPOLYLINE
  5
134
330
1F
100
AcDbEntity
  8
0
  6
Continuous
 62
     7
370
    25
100
AcDbPolyline
 90
       60
 70
   128
 43
0.0
 10
2030.9240932384
 20
1566.7761731441
 10
2031.7665222236
 20
1568.3489508729
 10
2032.7430425893
 20
1570.74030654
 10
2033.3662734475
 20
1573.1527213721
 10
2033.633803639
 20
1575.5768622049
 10
2033.5445981416
 20
1578.0033505085
 10
2033.0990020741
 20
1580.4227986709
 10
2032.2987393609
 20
1582.8258463172
 10
2031.1469060631
 20
1585.203196523
 10
2029.6479584
 20
1587.545651782
 10
2027.8076955088
 20
1589.8441495901
 10
2025.6332370092
 20
1592.0897975057
 10
2023.1329954587
 20
1594.2739075532
 10
2020.3166438062
 20
1596.3880298353
 10
2017.195077969
 20
1598.4239852234
 10
2013.7803746789
 20
1600.3738970017
 10
2010.0857447597
 20
1602.2302213404
 10
2006.1254820168
 20
1603.9857764811
 10
2001.9149079373
 20
1605.6337705222
 10
1997.4703124143
 20
1607.1678276948
 10
1992.8088907246
 20
1608.5820130297
 10
1987.9486770031
 20
1609.8708553186
 10
1982.9084744724
 20
1611.0293682811
 10
1977.7077826971
 20
1612.0530698555
 10
1972.3667221433
 20
1612.9379995394
 10
1966.9059563366
 20
1613.6807337118
 10
1961.3466119192
 20
1614.2783988783
 10
1955.7101969146
 20
1614.7286827886
 10
1950.0185175174
 20
1615.0298433816
 10
1944.2935937296
 20
1615.1807155257
 10
1938.5575741691
 20
1615.1807155257
 10
1932.8326503813
 20
1615.0298433816
 10
1927.1409709841
 20
1614.7286827886
 10
1921.5045559795
 20
1614.2783988783
 10
1915.945211562
 20
1613.6807337118
 10
1910.4844457554
 20
1612.9379995394
 10
1905.1433852016
 20
1612.0530698555
 10
1899.9426934262
 20
1611.0293682811
 10
1894.9024908956
 20
1609.8708553186
 10
1890.0422771741
 20
1608.5820130297
 10
1885.3808554843
 20
1607.1678276948
 10
1880.9362599614
 20
1605.6337705222
 10
1876.7256858819
 20
1603.9857764811
 10
1872.7654231389
 20
1602.2302213404
 10
1869.0707932197
 20
1600.3738970017
 10
1865.6560899297
 20
1598.4239852234
 10
1862.5345240925
 20
1596.3880298353
 10
1859.71817244
 20
1594.2739075532
 10
1857.2179308895
 20
1592.0897975057
 10
1855.0434723899
 20
1589.8441495901
 10
1853.2032094987
 20
1587.545651782
 10
1851.7042618356
 20
1585.203196523
 10
1850.5524285378
 20
1582.8258463172
 10
1849.7521658246
 20
1580.4227986709
 10
1849.306569757
 20
1578.0033505085
 10
1849.2173642597
 20
1575.5768622049
 10
1849.4848944512
 20
1573.1527213721
 10
1850.1081253094
 20
1570.74030654
 10
1851.0846456751
 20
1568.3489508729
 10
1851.9270746603
 20
1566.7761731441
  0
LWPOLYLINE
  5
135
330
1F
100
AcDbEntity
  8
0
  6
Continuous
 62
     7
370
    25
100
AcDbPolyline
 90
       67
 70
   128
 43
0.0
 10
1951.36046877
 20
1594.3183117021
 10
1953.1312051543
 20
1594.1282021194
 10
1956.8860762089
 20
1593.6120340086
 10
1960.5164684705
 20
1592.9555426449
 10
1963.9931521552
 20
1592.1640137105
 10
1967.2881350502
 20
1591.2438201312
 10
1970.3748878907
 20
1590.2023707645
 10
1973.2285579577
 20
1589.0480507483
 10
1975.8261691779
 20
1587.7901539888
 10
1978.1468071131
 20
1586.4388083309
 10
1980.171787351
 20
1585.0048940154
 10
1981.8848059416
 20
1583.4999560772
 10
1983.2720706663
 20
1581.9361113916
 10
1984.3224120853
 20
1580.3259511167
 10
1985.0273734671
 20
1578.682439316
 10
1985.3812788772
 20
1577.0188085803
 10
1985.3812788772
 20
1575.3484534861
 10
1985.0273734671
 20
1573.6848227505
 10
1984.3224120853
 20
1572.0413109498
 10
1983.2720706663
 20
1570.4311506748
 10
1981.8848059416
 20
1568.8673059893
 10
1980.171787351
 20
1567.3623680511
 10
1978.1468071131
 20
1565.9284537356
 10
1975.8261691779
 20
1564.5771080777
 10
1973.2285579577
 20
1563.3192113182
 10
1970.3748878907
 20
1562.164891302
 10
1967.2881350502
 20
1561.1234419353
 10
1963.9931521552
 20
1560.203248356
 10
1960.5164684705
 20
1559.4117194216
 10
1956.8860762089
 20
1558.7552280578
 10
1953.1312051543
 20
1558.2390599471
 10
1949.2820873205
 20
1557.8673709715
 10
1945.3697135411
 20
1557.6431537521
 10
1941.4255839493
 20
1557.5682135542
 10
1937.4814543576
 20
1557.6431537521
 10
1933.5690805782
 20
1557.8673709715
 10
1929.7199627444
 20
1558.2390599471
 10
1925.9650916898
 20
1558.7552280578
 10
1922.3346994282
 20
1559.4117194216
 10
1918.8580157435
 20
1560.203248356
 10
1915.5630328485
 20
1561.1234419353
 10
1912.476280008
 20
1562.164891302
 10
1909.6226099409
 20
1563.3192113182
 10
1907.0249987208
 20
1564.5771080777
 10
1904.7043607856
 20
1565.9284537356
 10
1902.6793805476
 20
1567.3623680511
 10
1900.9663619571
 20
1568.8673059893
 10
1899.5790972324
 20
1570.4311506748
 10
1898.5287558133
 20
1572.0413109498
 10
1897.8237944316
 20
1573.6848227505
 10
1897.4698890215
 20
1575.3484534861
 10
1897.4698890215
 20
1577.0188085803
 10
1897.8237944316
 20
1578.682439316
 10
1898.5287558133
 20
1580.3259511167
 10
1899.5790972324
 20
1581.9361113916
 10
1900.9663619571
 20
1583.4999560772
 10
1902.6793805476
 20
1585.0048940154
 10
1904.7043607856
 20
1586.4388083309
 10
1907.0249987208
 20
1587.7901539888
 10
1909.6226099409
 20
1589.0480507483
 10
1912.476280008
 20
1590.2023707645
 10
1915.5630328485
 20
1591.2438201312
 10
1918.8580157435
 20
1592.1640137105
 10
1922.3346994282
 20
1592.9555426449
 10
1925.9650916898
 20
1593.6120340086
 10
1929.7199627444
 20
1594.1282021194
 10
1931.4906991287
 20
1594.3183117021
  0
LINE
  5
136
330
1F
100
AcDbEntity
  8
0
  6
Continuous
 62
     7
370
    25
100
AcDbLine
 10
2188.0055839493
 20
1383.864710705
 30
0.0
 11
2188.0055839493
 21
1393.864710705
 31
0.0
  0
LINE
  5
137
330
1F
100
AcDbEntity
  8
0
  6
Continuous
 62
     7
370
    25
100
AcDbLine
 10
1692.8455839493
 20
1383.864710705
 30
0.0
 11
1692.8455839493
 21
1393.864710705
 31
0.0
  0
LINE
  5
138
330
1F
100
AcDbEntity
  8
0
  6
Continuous
 62
     7
370
    25
100
AcDbLine
 10
1670.0055839493
 20
1383.864710705
 30
0.0
 11
1670.0055839493
 21
1393.864710705
 31
0.0
  0
LINE
  5
139
330
1F
100
AcDbEntity
  8
0
  6
Continuous
 62
     7
370
    25
100
AcDbLine
 10
2210.8455839493
 20
1383.864710705
 30
0.0
 11
2210.8455839493
 21
1393.864710705
 31
0.0
  0
LINE
  5
13A
330
1F
100
AcDbEntity
  8
SLD-0
100
AcDbLine
 10
1943.1255839493
 20
1526.2052187565
 30
0.0
 11
1943.1255839493
 21
1532.6642026534
 31
0.0
  0
LINE
  5
13B
330
1F
100
AcDbEntity
  8
SLD-0
100
AcDbLine
 10
1939.8960920009
 20
1529.434710705
 30
0.0
 11
1946.3550758978
 21
1529.434710705
 31
0.0
  0
LINE
  5
13C
330
1F
100
AcDbEntity
  8
SLD-0
  6
CENTERX2
100
AcDbLine
 10
1940.4255839493
 20
1372.6707415061
 30
0.0
 11
1940.4255839493
 21
1790.1584640793
 31
0.0
  0
DIMENSION
  5
13D
330
1F
100
AcDbEntity
  8
SLD-0
100
AcDbDimension
  2
_D
 10
1502.9227109052
 20
1529.434710705
 30
0.0
 11
1502.9227109052
 21
1461.649710705
 31
0.0
 70
   160
  1
<>
 71
     2
 42
-1.0
  3
SLDDIMSTYLE0
100
AcDbAlignedDimension
 13
1641.4255839493
 23
1393.864710705
 33
0.0
 14
1939.8960920009
 24
1529.434710705
 34
0.0
 50
90.0
100
AcDbRotatedDimension
  0
DIMENSION
  5
152
330
1F
100
AcDbEntity
  8
SLD-0
100
AcDbDimension
  2
_D_1
 10
2239.4255839493
 20
1918.2562025293
 30
0.0
 11
1940.4255839493
 21
1918.2562025293
 31
0.0
 70
   160
  1
<>
 71
     2
 42
-1.0
  3
SLDDIMSTYLE1
100
AcDbAlignedDimension
 13
1641.4255839493
 23
1763.864710705
 33
0.0
 14
2239.4255839493
 24
1763.864710705
 34
0.0
100
AcDbRotatedDimension
  0
INSERT
  5
16C
330
1F
100
AcDbEntity
  8
SLD-0
100
AcDbBlockReference
  2
SW_SYMBOL_MOD_CL
 10
1918.0553935897
 20
1801.5940237397
 30
0.0
 41
0.0030416748
 42
0.0030416748
 43
0.0030416748
  0
INSERT
  5
16D
330
1F
100
AcDbEntity
  8
SLD-0
100
AcDbBlockReference
  2
SW_SYMBOL_MOD_COM
 10
1922.3445111475
 20
1512.3507792579
 30
0.0
 41
0.0030416748
 42
0.0030416748
 43
0.0030416748
  0
LINE
  5
16E
330
1F
100
AcDbEntity
  8
0
  6
Continuous
 62
     7
370
    25
100
AcDbLine
 10
2712.2483807932
 20
1393.864710705
 30
0.0
 11
2712.2483807932
 21
1763.864710705
 31
0.0
  0
LINE
  5
16F
330
1F
100
AcDbEntity
  8
0
  6
Continuous
 62
     7
370
    25
100
AcDbLine
 10
2712.2483807932
 20
1763.864710705
 30
0.0
 11
3402.2483807932
 21
1763.864710705
 31
0.0
  0
LINE
  5
170
330
1F
100
AcDbEntity
  8
0
  6
Continuous
 62
     7
370
    25
100
AcDbLine
 10
3402.2483807932
 20
1393.864710705
 30
0.0
 11
3402.2483807932
 21
1763.864710705
 31
0.0
  0
CIRCLE
  5
171
330
1F
100
AcDbEntity
  8
0
  6
Continuous
 62
     7
370
    25
100
AcDbCircle
 10
2812.2483807932
 20
1723.464710705
 30
0.0
 40
10.0
  0
CIRCLE
  5
172
330
1F
100
AcDbEntity
  8
0
  6
Continuous
 62
     7
370
    25
100
AcDbCircle
 10
3302.2483807932
 20
1434.264710705
 30
0.0
 40
10.0
  0
CIRCLE
  5
173
330
1F
100
AcDbEntity
  8
0
  6
Continuous
 62
     7
370
    25
100
AcDbCircle
 10
2812.2483807932
 20
1434.264710705
 30
0.0
 40
10.0
  0
CIRCLE
  5
174
330
1F
100
AcDbEntity
  8
0
  6
Continuous
 62
     7
370
    25
100
AcDbCircle
 10
3302.2483807932
 20
1723.464710705
 30
0.0
 40
10.0
  0
CIRCLE
  5
175
330
1F
100
AcDbEntity
  8
0
  6
Continuous
 62
     7
370
    25
100
AcDbCircle
 10
2861.2483807932
 20
1433.864710705
 30
0.0
 40
8.75
  0
CIRCLE
  5
176
330
1F
100
AcDbEntity
  8
0
  6
Continuous
 62
     7
370
    25
100
AcDbCircle
 10
2902.2483807932
 20
1668.864710705
 30
0.0
 40
8.75
  0
CIRCLE
  5
177
330
1F
100
AcDbEntity
  8
0
  6
Continuous
 62
     7
370
    25
100
AcDbCircle
 10
2915.7483807932
 20
1433.864710705
 30
0.0
 40
8.749999999999545
  0
CIRCLE
  5
178
330
1F
100
AcDbEntity
  8
0
  6
Continuous
 62
     7
370
    25
100
AcDbCircle
 10
3101.2483807932
 20
1433.864710705
 30
0.0
 40
8.75
  0
CIRCLE
  5
179
330
1F
100
AcDbEntity
  8
0
  6
Continuous
 62
     7
370
    25
100
AcDbCircle
 10
3155.7483807932
 20
1433.864710705
 30
0.0
 40
8.75
  0
CIRCLE
  5
17A
330
1F
100
AcDbEntity
  8
0
  6
Continuous
 62
     7
370
    25
100
AcDbCircle
 10
2822.2483807932
 20
1668.864710705
 30
0.0
 40
8.75000000000091
  0
LINE
  5
17B
330
1F
100
AcDbEntity
  8
0
  6
Continuous
 62
     7
370
    25
100
AcDbLine
 10
2712.2483807932
 20
1393.864710705
 30
0.0
 11
3402.2483807932
 21
1393.864710705
 31
0.0
  0
CIRCLE
  5
17C
330
1F
100
AcDbEntity
  8
0
  6
Continuous
 62
     7
370
    25
100
AcDbCircle
 10
3302.2483807932
 20
1723.464710705
 30
0.0
 40
5.5
  0
CIRCLE
  5
17D
330
1F
100
AcDbEntity
  8
0
  6
Continuous
 62
     7
370
    25
100
AcDbCircle
 10
3302.2483807932
 20
1434.264710705
 30
0.0
 40
5.5
  0
CIRCLE
  5
17E
330
1F
100
AcDbEntity
  8
0
  6
Continuous
 62
     7
370
    25
100
AcDbCircle
 10
3155.7483807932
 20
1433.864710705
 30
0.0
 40
4.25
  0
CIRCLE
  5
17F
330
1F
100
AcDbEntity
  8
0
  6
Continuous
 62
     7
370
    25
100
AcDbCircle
 10
3101.2483807932
 20
1433.864710705
 30
0.0
 40
4.25
  0
CIRCLE
  5
180
330
1F
100
AcDbEntity
  8
0
  6
Continuous
 62
     7
370
    25
100
AcDbCircle
 10
2915.7483807932
 20
1433.864710705
 30
0.0
 40
4.249999999999545
  0
CIRCLE
  5
181
330
1F
100
AcDbEntity
  8
0
  6
Continuous
 62
     7
370
    25
100
AcDbCircle
 10
2902.2483807932
 20
1668.864710705
 30
0.0
 40
4.249999999999545
  0
CIRCLE
  5
182
330
1F
100
AcDbEntity
  8
0
  6
Continuous
 62
     7
370
    25
100
AcDbCircle
 10
2861.2483807932
 20
1433.864710705
 30
0.0
 40
4.25
  0
CIRCLE
  5
183
330
1F
100
AcDbEntity
  8
0
  6
Continuous
 62
     7
370
    25
100
AcDbCircle
 10
2822.2483807932
 20
1668.864710705
 30
0.0
 40
4.250000000000909
  0
CIRCLE
  5
184
330
1F
100
AcDbEntity
  8
0
  6
Continuous
 62
     7
370
    25
100
AcDbCircle
 10
2812.2483807932
 20
1434.264710705
 30
0.0
 40
5.5
  0
CIRCLE
  5
185
330
1F
100
AcDbEntity
  8
0
  6
Continuous
 62
     7
370
    25
100
AcDbCircle
 10
2812.2483807932
 20
1723.464710705
 30
0.0
 40
5.5
  0
LINE
  5
186
330
1F
100
AcDbEntity
  8
0
  6
Continuous
 62
     7
370
    25
100
AcDbLine
 10
3373.9983807932
 20
1383.864710705
 30
0.0
 11
3373.9983807932
 21
1393.864710705
 31
0.0
  0
LINE
  5
187
330
1F
100
AcDbEntity
  8
0
  6
Continuous
 62
     7
370
    25
100
AcDbLine
 10
3373.9983807932
 20
1383.864710705
 30
0.0
 11
3366.1683807932
 21
1383.864710705
 31
0.0
  0
LINE
  5
188
330
1F
100
AcDbEntity
  8
0
  6
Continuous
 62
     7
370
    25
100
AcDbLine
 10
3366.1683807932
 20
1383.864710705
 30
0.0
 11
3343.3283807932
 21
1383.864710705
 31
0.0
  0
LINE
  5
189
330
1F
100
AcDbEntity
  8
0
  6
Continuous
 62
     7
370
    25
100
AcDbLine
 10
3335.4983807932
 20
1383.864710705
 30
0.0
 11
3335.4983807932
 21
1393.864710705
 31
0.0
  0
LINE
  5
18A
330
1F
100
AcDbEntity
  8
0
  6
Continuous
 62
     7
370
    25
100
AcDbLine
 10
3343.3283807932
 20
1383.864710705
 30
0.0
 11
3335.4983807932
 21
1383.864710705
 31
0.0
  0
LINE
  5
18B
330
1F
100
AcDbEntity
  8
0
  6
Continuous
 62
     7
370
    25
100
AcDbLine
 10
2773.9983807932
 20
1383.864710705
 30
0.0
 11
2773.9983807932
 21
1393.864710705
 31
0.0
  0
LINE
  5
18C
330
1F
100
AcDbEntity
  8
0
  6
Continuous
 62
     7
370
    25
100
AcDbLine
 10
2773.9983807932
 20
1383.864710705
 30
0.0
 11
2766.1683807932
 21
1383.864710705
 31
0.0
  0
LINE
  5
18D
330
1F
100
AcDbEntity
  8
0
  6
Continuous
 62
     7
370
    25
100
AcDbLine
 10
2766.1683807932
 20
1383.864710705
 30
0.0
 11
2743.3283807932
 21
1383.864710705
 31
0.0
  0
LINE
  5
18E
330
1F
100
AcDbEntity
  8
0
  6
Continuous
 62
     7
370
    25
100
AcDbLine
 10
2735.4983807932
 20
1383.864710705
 30
0.0
 11
2735.4983807932
 21
1393.864710705
 31
0.0
  0
LINE
  5
18F
330
1F
100
AcDbEntity
  8
0
  6
Continuous
 62
     7
370
    25
100
AcDbLine
 10
2743.3283807932
 20
1383.864710705
 30
0.0
 11
2735.4983807932
 21
1383.864710705
 31
0.0
  0
LINE
  5
190
330
1F
100
AcDbEntity
  8
0
  6
Continuous
 62
     7
370
    25
100
AcDbLine
 10
3366.1683807932
 20
1383.864710705
 30
0.0
 11
3366.1683807932
 21
1393.864710705
 31
0.0
  0
LINE
  5
191
330
1F
100
AcDbEntity
  8
0
  6
Continuous
 62
     7
370
    25
100
AcDbLine
 10
3343.3283807932
 20
1383.864710705
 30
0.0
 11
3343.3283807932
 21
1393.864710705
 31
0.0
  0
LINE
  5
192
330
1F
100
AcDbEntity
  8
0
  6
Continuous
 62
     7
370
    25
100
AcDbLine
 10
2766.1683807932
 20
1383.864710705
 30
0.0
 11
2766.1683807932
 21
1393.864710705
 31
0.0
  0
LINE
  5
193
330
1F
100
AcDbEntity
  8
0
  6
Continuous
 62
     7
370
    25
100
AcDbLine
 10
2743.3283807932
 20
1383.864710705
 30
0.0
 11
2743.3283807932
 21
1393.864710705
 31
0.0
  0
LINE
  5
194
330
1F
100
AcDbEntity
  8
SLD-0
100
AcDbLine
 10
2812.2483807932
 20
1723.464710705
 30
0.0
 11
3302.2483807932
 21
1723.464710705
 31
0.0
  0
LINE
  5
195
330
1F
100
AcDbEntity
  8
SLD-0
100
AcDbLine
 10
3302.2483807932
 20
1434.264710705
 30
0.0
 11
2812.2483807932
 21
1434.264710705
 31
0.0
  0
DIMENSION
  5
196
330
1F
100
AcDbEntity
  8
SLD-0
100
AcDbDimension
  2
_D_2
 10
2450.6414501196
 20
1763.864710705
 30
0.0
 11
2450.6414501196
 21
1573.864710705
 31
0.0
 70
   160
  1
<>
 71
     2
 42
-1.0
  3
SLDDIMSTYLE1
100
AcDbAlignedDimension
 13
2735.4983807932
 23
1383.864710705
 33
0.0
 14
2712.2483807932
 24
1763.864710705
 34
0.0
 50
90.0
100
AcDbRotatedDimension
  0
DIMENSION
  5
1AA
330
1F
100
AcDbEntity
  8
SLD-0
100
AcDbDimension
  2
_D_3
 10
2602.2483807932
 20
1763.864710705
 30
0.0
 11
2602.2483807932
 21
1578.864710705
 31
0.0
 70
   160
  1
<>
 71
     2
 42
-1.0
  3
SLDDIMSTYLE1
100
AcDbAlignedDimension
 13
2712.2483807932
 23
1393.864710705
 33
0.0
 14
2712.2483807932
 24
1763.864710705
 34
0.0
 50
90.0
100
AcDbRotatedDimension
  0
DIMENSION
  5
1BE
330
1F
100
AcDbEntity
  8
SLD-0
100
AcDbDimension
  2
_D_4
 10
3302.2483807932
 20
1273.864710705
 30
0.0
 11
3057.2483807932
 21
1273.864710705
 31
0.0
 70
   160
  1
<>\PBOTH SIDES
 71
     2
 42
-1.0
  3
SLDDIMSTYLE2
100
AcDbAlignedDimension
 13
2812.2483807932
 23
1422.764710705
 33
0.0
 14
3302.2483807932
 24
1422.764710705
 34
0.0
100
AcDbRotatedDimension
  0
DIMENSION
  5
1D2
330
1F
100
AcDbEntity
  8
SLD-0
100
AcDbDimension
  2
_D_5
 10
3478.7553155366
 20
1393.864710705
 30
0.0
 11
3478.7553155366
 21
1273.864710705
 31
0.0
 70
   160
  1
<>\PBOTH SIDES
 71
     2
 42
-1.0
  3
SLDDIMSTYLE3
100
AcDbAlignedDimension
 13
3313.7483807932
 23
1434.264710705
 33
0.0
 14
3402.2483807932
 24
1393.864710705
 34
0.0
 50
90.0
100
AcDbRotatedDimension
  0
DIMENSION
  5
1E7
330
1F
100
AcDbEntity
  8
SLD-0
100
AcDbDimension
  2
_D_6
 10
2812.2483807932
 20
1273.864710705
 30
0.0
 11
2602.2483807932
 21
1273.864710705
 31
0.0
 70
   160
  1
<>\PBOTH SIDES
 71
     2
 42
-1.0
  3
SLDDIMSTYLE2
100
AcDbAlignedDimension
 13
2712.2483807932
 23
1393.864710705
 33
0.0
 14
2812.2483807932
 24
1422.764710705
 34
0.0
100
AcDbRotatedDimension
  0
DIMENSION
  5
1FA
330
1F
100
AcDbEntity
  8
SLD-0
100
AcDbDimension
  2
_D_7
 10
3464.5636711312
 20
1763.864710705
 30
0.0
 11
3464.5636711312
 21
1661.9256532635
 31
0.0
 70
   160
  1
<>
 71
     2
 42
-1.0
  3
SLDDIMSTYLE4
100
AcDbAlignedDimension
 13
3313.7483807932
 23
1723.464710705
 33
0.0
 14
3402.2483807932
 24
1763.864710705
 34
0.0
 50
90.0
100
AcDbRotatedDimension
  0
DIMENSION
  5
210
330
1F
100
AcDbEntity
  8
SLD-0
100
AcDbDimension
  2
_D_8
 10
3302.2483807932
 20
1958.1265601579
 30
0.0
 11
3057.2483807932
 21
1958.1265601579
 31
0.0
 70
   160
  1
<>
 71
     2
 42
-1.0
  3
SLDDIMSTYLE2
100
AcDbAlignedDimension
 13
2812.2483807932
 23
1734.964710705
 33
0.0
 14
3302.2483807932
 24
1734.964710705
 34
0.0
100
AcDbRotatedDimension
  0
DIMENSION
  5
224
330
1F
100
AcDbEntity
  8
SLD-0
100
AcDbDimension
  2
_D_9
 10
2712.2483807932
 20
1958.1265601579
 30
0.0
 11
2602.2483807932
 21
1958.1265601579
 31
0.0
 70
   160
  1
<>
 71
     2
 42
-1.0
  3
SLDDIMSTYLE2
100
AcDbAlignedDimension
 13
2812.2483807932
 23
1734.964710705
 33
0.0
 14
2712.2483807932
 24
1763.864710705
 34
0.0
100
AcDbRotatedDimension
  0
INSERT
  5
240
102
{ACAD_REACTORS
330
242
102
}
330
1F
100
AcDbEntity
  8
SLD-0
100
AcDbBlockReference
  2
SW_NOTE_0_1
 10
3439.3977415307
 20
1894.9811794228
 30
0.0
  0
LEADER
  5
242
330
1F
100
AcDbEntity
  8
SLD-0
100
AcDbLeader
  3
SLDDIMSTYLE5
 73
     2
 76
     3
 10
3310.0977404811
 20
1729.6604796234
 30
0.0
 10
3417.3977415307
 20
1894.9811794228
 30
0.0
 10
3439.3977415307
 20
1894.9811794228
 30
0.0
340
240
  0
MTEXT
  5
243
330
1F
100
AcDbEntity
  8
SLD-0
100
AcDbMText
 10
3516.6555149976
 20
1906.555605842
 30
0.0
 40
26.19375
 41
0.0
 71
     1
 72
     1
  1
4X
  7
SLDTEXTSTYLE0
 73
     1
 44
1.0
  0
INSERT
  5
24C
102
{ACAD_REACTORS
330
24D
102
}
330
1F
100
AcDbEntity
  8
SLD-0
100
AcDbBlockReference
  2
SW_NOTE_0_2
 10
3023.964868256
 20
1838.3939774153
 30
0.0
  0
LEADER
  5
24D
330
1F
100
AcDbEntity
  8
SLD-0
100
AcDbLeader
  3
SLDDIMSTYLE5
 73
     2
 76
     3
 10
2906.5624814583
 20
1676.477268452
 30
0.0
 10
3001.964868256
 20
1838.3939774153
 30
0.0
 10
3023.964868256
 20
1838.3939774153
 30
0.0
340
24C
  0
MTEXT
  5
24E
330
1F
100
AcDbEntity
  8
SLD-0
100
AcDbMText
 10
3098.6191523851
 20
1849.5088313555
 30
0.0
 40
26.19375
 41
0.0
 71
     1
 72
     1
  1
6X
  7
SLDTEXTSTYLE0
 73
     1
 44
1.0
  0
INSERT
  5
25A
330
1F
100
AcDbEntity
  8
SLD-0
100
AcDbBlockReference
  2
SW_CENTERMARKSYMBOL_0
 10
2812.2483807932
 20
1723.464710705
 30
0.0
  0
INSERT
  5
266
330
1F
100
AcDbEntity
  8
SLD-0
100
AcDbBlockReference
  2
SW_CENTERMARKSYMBOL_1
 10
3302.2483807932
 20
1723.464710705
 30
0.0
  0
INSERT
  5
272
330
1F
100
AcDbEntity
  8
SLD-0
100
AcDbBlockReference
  2
SW_CENTERMARKSYMBOL_2
 10
3302.2483807932
 20
1434.264710705
 30
0.0
  0
INSERT
  5
27E
330
1F
100
AcDbEntity
  8
SLD-0
100
AcDbBlockReference
  2
SW_CENTERMARKSYMBOL_3
 10
2812.2483807932
 20
1434.264710705
 30
0.0
  0
LINE
  5
27F
330
1F
100
AcDbEntity
  8
0
  6
Continuous
 62
     7
370
    25
100
AcDbLine
 10
1014.2191726888
 20
1763.864710705
 30
0.0
 11
1014.2191726888
 21
1393.864710705
 31
0.0
  0
CIRCLE
  5
280
330
1F
100
AcDbEntity
  8
0
  6
Continuous
 62
     7
370
    25
100
AcDbCircle
 10
914.2191726888
 20
1434.364710705
 30
0.0
 40
10.00000000000011
  0
CIRCLE
  5
281
330
1F
100
AcDbEntity
  8
0
  6
Continuous
 62
     7
370
    25
100
AcDbCircle
 10
424.2191726888
 20
1434.364710705
 30
0.0
 40
9.999999999999943
  0
CIRCLE
  5
282
330
1F
100
AcDbEntity
  8
0
  6
Continuous
 62
     7
370
    25
100
AcDbCircle
 10
865.2191726888
 20
1433.864710705
 30
0.0
 40
8.749999999999545
  0
CIRCLE
  5
283
330
1F
100
AcDbEntity
  8
0
  6
Continuous
 62
     7
370
    25
100
AcDbCircle
 10
824.2191726888
 20
1668.864710705
 30
0.0
 40
8.75
  0
CIRCLE
  5
284
330
1F
100
AcDbEntity
  8
0
  6
Continuous
 62
     7
370
    25
100
AcDbCircle
 10
810.7191726888
 20
1433.864710705
 30
0.0
 40
8.749999999999545
  0
CIRCLE
  5
285
330
1F
100
AcDbEntity
  8
0
  6
Continuous
 62
     7
370
    25
100
AcDbCircle
 10
625.2191726888
 20
1433.864710705
 30
0.0
 40
8.75
  0
CIRCLE
  5
286
330
1F
100
AcDbEntity
  8
0
  6
Continuous
 62
     7
370
    25
100
AcDbCircle
 10
570.7191726888
 20
1433.864710705
 30
0.0
 40
8.75
  0
CIRCLE
  5
287
330
1F
100
AcDbEntity
  8
0
  6
Continuous
 62
     7
370
    25
100
AcDbCircle
 10
904.2191726888
 20
1668.864710705
 30
0.0
 40
8.750000000000341
  0
LINE
  5
288
330
1F
100
AcDbEntity
  8
0
  6
Continuous
 62
     7
370
    25
100
AcDbLine
 10
1014.2191726888
 20
1763.864710705
 30
0.0
 11
324.2191726888
 21
1763.864710705
 31
0.0
  0
LINE
  5
289
330
1F
100
AcDbEntity
  8
0
  6
Continuous
 62
     7
370
    25
100
AcDbLine
 10
324.2191726888
 20
1763.864710705
 30
0.0
 11
324.2191726888
 21
1393.864710705
 31
0.0
  0
LINE
  5
28A
330
1F
100
AcDbEntity
  8
0
  6
Continuous
 62
     7
370
    25
100
AcDbLine
 10
1014.2191726888
 20
1393.864710705
 30
0.0
 11
324.2191726888
 21
1393.864710705
 31
0.0
  0
CIRCLE
  5
28B
330
1F
100
AcDbEntity
  8
0
  6
Continuous
 62
     7
370
    25
100
AcDbCircle
 10
424.2191726888
 20
1434.364710705
 30
0.0
 40
5.499999999999943
  0
CIRCLE
  5
28C
330
1F
100
AcDbEntity
  8
0
  6
Continuous
 62
     7
370
    25
100
AcDbCircle
 10
570.7191726888
 20
1433.864710705
 30
0.0
 40
4.25
  0
CIRCLE
  5
28D
330
1F
100
AcDbEntity
  8
0
  6
Continuous
 62
     7
370
    25
100
AcDbCircle
 10
625.2191726888
 20
1433.864710705
 30
0.0
 40
4.25
  0
CIRCLE
  5
28E
330
1F
100
AcDbEntity
  8
0
  6
Continuous
 62
     7
370
    25
100
AcDbCircle
 10
810.7191726888
 20
1433.864710705
 30
0.0
 40
4.249999999999545
  0
CIRCLE
  5
28F
330
1F
100
AcDbEntity
  8
0
  6
Continuous
 62
     7
370
    25
100
AcDbCircle
 10
824.2191726888
 20
1668.864710705
 30
0.0
 40
4.249999999999886
  0
CIRCLE
  5
290
330
1F
100
AcDbEntity
  8
0
  6
Continuous
 62
     7
370
    25
100
AcDbCircle
 10
865.2191726888
 20
1433.864710705
 30
0.0
 40
4.249999999999432
  0
CIRCLE
  5
291
330
1F
100
AcDbEntity
  8
0
  6
Continuous
 62
     7
370
    25
100
AcDbCircle
 10
904.2191726888
 20
1668.864710705
 30
0.0
 40
4.250000000000227
  0
CIRCLE
  5
292
330
1F
100
AcDbEntity
  8
0
  6
Continuous
 62
     7
370
    25
100
AcDbCircle
 10
914.2191726888
 20
1434.364710705
 30
0.0
 40
5.5
  0
LINE
  5
293
330
1F
100
AcDbEntity
  8
0
  6
Continuous
 62
     7
370
    25
100
AcDbLine
 10
952.4691726888
 20
1383.864710705
 30
0.0
 11
952.4691726888
 21
1393.864710705
 31
0.0
  0
LINE
  5
294
330
1F
100
AcDbEntity
  8
0
  6
Continuous
 62
     7
370
    25
100
AcDbLine
 10
960.2991726888
 20
1383.864710705
 30
0.0
 11
952.4691726888
 21
1383.864710705
 31
0.0
  0
LINE
  5
295
330
1F
100
AcDbEntity
  8
0
  6
Continuous
 62
     7
370
    25
100
AcDbLine
 10
983.1391726888
 20
1383.864710705
 30
0.0
 11
960.2991726888
 21
1383.864710705
 31
0.0
  0
LINE
  5
296
330
1F
100
AcDbEntity
  8
0
  6
Continuous
 62
     7
370
    25
100
AcDbLine
 10
990.9691726888
 20
1383.864710705
 30
0.0
 11
990.9691726888
 21
1393.864710705
 31
0.0
  0
LINE
  5
297
330
1F
100
AcDbEntity
  8
0
  6
Continuous
 62
     7
370
    25
100
AcDbLine
 10
990.9691726888
 20
1383.864710705
 30
0.0
 11
983.1391726888
 21
1383.864710705
 31
0.0
  0
LINE
  5
298
330
1F
100
AcDbEntity
  8
0
  6
Continuous
 62
     7
370
    25
100
AcDbLine
 10
352.4691726888
 20
1383.864710705
 30
0.0
 11
352.4691726888
 21
1393.864710705
 31
0.0
  0
LINE
  5
299
330
1F
100
AcDbEntity
  8
0
  6
Continuous
 62
     7
370
    25
100
AcDbLine
 10
360.2991726888
 20
1383.864710705
 30
0.0
 11
352.4691726888
 21
1383.864710705
 31
0.0
  0
LINE
  5
29A
330
1F
100
AcDbEntity
  8
0
  6
Continuous
 62
     7
370
    25
100
AcDbLine
 10
383.1391726888
 20
1383.864710705
 30
0.0
 11
360.2991726888
 21
1383.864710705
 31
0.0
  0
LINE
  5
29B
330
1F
100
AcDbEntity
  8
0
  6
Continuous
 62
     7
370
    25
100
AcDbLine
 10
390.9691726888
 20
1383.864710705
 30
0.0
 11
390.9691726888
 21
1393.864710705
 31
0.0
  0
LINE
  5
29C
330
1F
100
AcDbEntity
  8
0
  6
Continuous
 62
     7
370
    25
100
AcDbLine
 10
390.9691726888
 20
1383.864710705
 30
0.0
 11
383.1391726888
 21
1383.864710705
 31
0.0
  0
LINE
  5
29D
330
1F
100
AcDbEntity
  8
0
  6
Continuous
 62
     7
370
    25
100
AcDbLine
 10
960.2991726888
 20
1383.864710705
 30
0.0
 11
960.2991726888
 21
1393.864710705
 31
0.0
  0
LINE
  5
29E
330
1F
100
AcDbEntity
  8
0
  6
Continuous
 62
     7
370
    25
100
AcDbLine
 10
983.1391726888
 20
1383.864710705
 30
0.0
 11
983.1391726888
 21
1393.864710705
 31
0.0
  0
LINE
  5
29F
330
1F
100
AcDbEntity
  8
0
  6
Continuous
 62
     7
370
    25
100
AcDbLine
 10
360.2991726888
 20
1383.864710705
 30
0.0
 11
360.2991726888
 21
1393.864710705
 31
0.0
  0
LINE
  5
2A0
330
1F
100
AcDbEntity
  8
0
  6
Continuous
 62
     7
370
    25
100
AcDbLine
 10
383.1391726888
 20
1383.864710705
 30
0.0
 11
383.1391726888
 21
1393.864710705
 31
0.0
  0
LINE
  5
2A1
330
1F
100
AcDbEntity
  8
SLD-0
100
AcDbLine
 10
570.7191726888
 20
1433.864710705
 30
0.0
 11
865.2191726888
 21
1433.864710705
 31
0.0
  0
LINE
  5
2A2
330
1F
100
AcDbEntity
  8
SLD-0
100
AcDbLine
 10
824.2191726888
 20
1668.864710705
 30
0.0
 11
904.2191726888
 21
1668.864710705
 31
0.0
  0
DIMENSION
  5
2A3
330
1F
100
AcDbEntity
  8
SLD-0
100
AcDbDimension
  2
_D_10
 10
1141.074193159
 20
1433.864710705
 30
0.0
 11
1141.074193159
 21
1551.364710705
 31
0.0
 70
   160
  1
<>
 71
     2
 42
-1.0
  3
SLDDIMSTYLE2
100
AcDbAlignedDimension
 13
914.9691726888
 23
1668.864710705
 33
0.0
 14
875.9691726888
 24
1433.864710705
 34
0.0
 50
90.0
100
AcDbRotatedDimension
  0
DIMENSION
  5
2B7
330
1F
100
AcDbEntity
  8
SLD-0
100
AcDbDimension
  2
_D_11
 10
1141.074193159
 20
1393.864710705
 30
0.0
 11
1141.074193159
 21
1312.980406647
 31
0.0
 70
   160
  1
<>
 71
     2
 42
-1.0
  3
SLDDIMSTYLE6
100
AcDbAlignedDimension
 13
875.9691726888
 23
1433.864710705
 33
0.0
 14
1014.2191726888
 24
1393.864710705
 34
0.0
 50
90.0
100
AcDbRotatedDimension
  0
DIMENSION
  5
2CD
330
1F
100
AcDbEntity
  8
SLD-0
100
AcDbDimension
  2
_D_12
 10
1014.2191726888
 20
1207.864710705
 30
0.0
 11
1124.2191726888
 21
1207.864710705
 31
0.0
 70
   160
  1
<>
 71
     2
 42
-1.0
  3
SLDDIMSTYLE2
100
AcDbAlignedDimension
 13
865.2191726888
 23
1423.114710705
 33
0.0
 14
1014.2191726888
 24
1393.864710705
 34
0.0
100
AcDbRotatedDimension
  0
DIMENSION
  5
2E1
330
1F
100
AcDbEntity
  8
SLD-0
100
AcDbDimension
  2
_D_13
 10
1014.2191726888
 20
1897.3497219504
 30
0.0
 11
1124.2191726888
 21
1897.3497219504
 31
0.0
 70
   160
  1
<>
 71
     2
 42
-1.0
  3
SLDDIMSTYLE2
100
AcDbAlignedDimension
 13
904.2191726888
 23
1679.614710705
 33
0.0
 14
1014.2191726888
 24
1763.864710705
 34
0.0
100
AcDbRotatedDimension
  0
DIMENSION
  5
2F5
330
1F
100
AcDbEntity
  8
SLD-0
100
AcDbDimension
  2
_D_14
 10
824.2191726888
 20
1897.3497219504
 30
0.0
 11
717.9691726888
 21
1897.3497219504
 31
0.0
 70
   160
  1
<>
 71
     2
 42
-1.0
  3
SLDDIMSTYLE2
100
AcDbAlignedDimension
 13
904.2191726888
 23
1679.614710705
 33
0.0
 14
824.2191726888
 24
1679.614710705
 34
0.0
100
AcDbRotatedDimension
  0
DIMENSION
  5
309
330
1F
100
AcDbEntity
  8
SLD-0
100
AcDbDimension
  2
_D_15
 10
810.7191726888
 20
1312.980406647
 30
0.0
 11
717.9691726888
 21
1312.980406647
 31
0.0
 70
   160
  1
<>
 71
     2
 42
-1.0
  3
SLDDIMSTYLE7
100
AcDbAlignedDimension
 13
865.2191726888
 23
1423.114710705
 33
0.0
 14
810.7191726888
 24
1423.114710705
 34
0.0
100
AcDbRotatedDimension
  0
DIMENSION
  5
31E
330
1F
100
AcDbEntity
  8
SLD-0
100
AcDbDimension
  2
_D_16
 10
625.2191726888
 20
1187.730463826
 30
0.0
 11
745.2191726888
 21
1187.730463826
 31
0.0
 70
   160
  1
<>
 71
     2
 42
-1.0
  3
SLDDIMSTYLE8
100
AcDbAlignedDimension
 13
865.2191726888
 23
1423.114710705
 33
0.0
 14
625.2191726888
 24
1423.114710705
 34
0.0
100
AcDbRotatedDimension
  0
DIMENSION
  5
333
330
1F
100
AcDbEntity
  8
SLD-0
100
AcDbDimension
  2
_D_17
 10
570.7191726888
 20
1048.8981176107
 30
0.0
 11
717.9691726888
 21
1048.8981176107
 31
0.0
 70
   160
  1
<>
 71
     2
 42
-1.0
  3
SLDDIMSTYLE7
100
AcDbAlignedDimension
 13
865.2191726888
 23
1423.114710705
 33
0.0
 14
570.7191726888
 24
1423.114710705
 34
0.0
100
AcDbRotatedDimension
  0
MTEXT
  5
347
330
1F
100
AcDbEntity
  8
SLD-0
100
AcDbMText
 10
663.787081373
 20
940.0614511068
 30
0.0
 40
26.19375
 41
0.0
 71
     2
 72
     1
  1
DIMENSIONS TYP
  7
SLDTEXTSTYLE0
 73
     1
 44
1.0
  0
MTEXT
  5
348
330
1F
100
AcDbEntity
  8
SLD-0
100
AcDbMText
 10
664.5722872856
 20
894.1364522869
 30
0.0
 40
26.19375
 41
0.0
 71
     2
 72
     1
  1
BOTH SIDES
  7
SLDTEXTSTYLE0
 73
     1
 44
1.0
  0
INSERT
  5
351
102
{ACAD_REACTORS
330
352
102
}
330
1F
100
AcDbEntity
  8
SLD-0
100
AcDbBlockReference
  2
SW_NOTE_0_3
 10
539.6486825596
 20
1868.7578419072
 30
0.0
  0
LEADER
  5
352
330
1F
100
AcDbEntity
  8
SLD-0
100
AcDbLeader
  3
SLDDIMSTYLE5
 73
     2
 76
     3
 10
816.4733603411
 20
1672.9347096086
 30
0.0
 10
561.6486825596
 20
1868.7578419072
 30
0.0
 10
539.6486825596
 20
1868.7578419072
 30
0.0
340
351
  0
MTEXT
  5
353
330
1F
100
AcDbEntity
  8
SLD-0
100
AcDbMText
 10
415.9717095951
 20
1881.5184185831
 30
0.0
 40
26.19375
 41
0.0
 71
     1
 72
     1
  1
6X
  7
SLDTEXTSTYLE0
 73
     1
 44
1.0
  0
INSERT
  5
35C
102
{ACAD_REACTORS
330
35D
102
}
330
1F
100
AcDbEntity
  8
SLD-0
100
AcDbBlockReference
  2
SW_NOTE_0_4
 10
368.5069008783
 20
1265.6210790464
 30
0.0
  0
LEADER
  5
35D
330
1F
100
AcDbEntity
  8
SLD-0
100
AcDbLeader
  3
SLDDIMSTYLE5
 73
     2
 76
     3
 10
421.2656975851
 20
1424.8108117725
 30
0.0
 10
390.5069008783
 20
1265.6210790464
 30
0.0
 10
368.5069008783
 20
1265.6210790464
 30
0.0
340
35C
  0
MTEXT
  5
35E
330
1F
100
AcDbEntity
  8
SLD-0
100
AcDbMText
 10
253.6675709556
 20
1278.1495353572
 30
0.0
 40
26.19375
 41
0.0
 71
     1
 72
     1
  1
2X
  7
SLDTEXTSTYLE0
 73
     1
 44
1.0
  0
INSERT
  5
36A
330
1F
100
AcDbEntity
  8
SLD-0
100
AcDbBlockReference
  2
SW_CENTERMARKSYMBOL_4
 10
824.2191726888
 20
1668.864710705
 30
0.0
  0
INSERT
  5
376
330
1F
100
AcDbEntity
  8
SLD-0
100
AcDbBlockReference
  2
SW_CENTERMARKSYMBOL_5
 10
904.2191726888
 20
1668.864710705
 30
0.0
  0
INSERT
  5
382
330
1F
100
AcDbEntity
  8
SLD-0
100
AcDbBlockReference
  2
SW_CENTERMARKSYMBOL_6
 10
570.7191726888
 20
1433.864710705
 30
0.0
  0
INSERT
  5
38E
330
1F
100
AcDbEntity
  8
SLD-0
100
AcDbBlockReference
  2
SW_CENTERMARKSYMBOL_7
 10
625.2191726888
 20
1433.864710705
 30
0.0
  0
INSERT
  5
39A
330
1F
100
AcDbEntity
  8
SLD-0
100
AcDbBlockReference
  2
SW_CENTERMARKSYMBOL_8
 10
810.7191726888
 20
1433.864710705
 30
0.0
  0
INSERT
  5
3A6
330
1F
100
AcDbEntity
  8
SLD-0
100
AcDbBlockReference
  2
SW_CENTERMARKSYMBOL_9
 10
865.2191726888
 20
1433.864710705
 30
0.0
  0
LINE
  5
3A7
330
1F
100
AcDbEntity
  8
0
  6
Continuous
 62
     7
370
    25
100
AcDbLine
 10
4075.0380054364
 20
1492.264710705
 30
0.0
 11
4075.0380054364
 21
1445.764710705
 31
0.0
  0
LINE
  5
3A8
330
1F
100
AcDbEntity
  8
0
  6
Continuous
 62
     7
370
    25
100
AcDbLine
 10
4087.5380054364
 20
1492.264710705
 30
0.0
 11
4075.0380054364
 21
1492.264710705
 31
0.0
  0
LINE
  5
3A9
330
1F
100
AcDbEntity
  8
0
  6
Continuous
 62
     7
370
    25
100
AcDbLine
 10
4087.5380054364
 20
1445.764710705
 30
0.0
 11
4087.5380054364
 21
1492.264710705
 31
0.0
  0
LINE
  5
3AA
330
1F
100
AcDbEntity
  8
0
  6
Continuous
 62
     7
370
    25
100
AcDbLine
 10
4075.0380054364
 20
1445.764710705
 30
0.0
 11
4087.5380054364
 21
1445.764710705
 31
0.0
  0
LINE
  5
3AB
330
1F
100
AcDbEntity
  8
0
  6
Continuous
 62
     7
370
    25
100
AcDbLine
 10
3836.5380054364
 20
1393.864710705
 30
0.0
 11
3836.5380054364
 21
1763.864710705
 31
0.0
  0
LINE
  5
3AC
330
1F
100
AcDbEntity
  8
0
  6
Continuous
 62
     7
370
    25
100
AcDbLine
 10
3836.5380054364
 20
1763.864710705
 30
0.0
 11
4434.5380054364
 21
1763.864710705
 31
0.0
  0
LINE
  5
3AD
330
1F
100
AcDbEntity
  8
0
  6
Continuous
 62
     7
370
    25
100
AcDbLine
 10
4434.5380054364
 20
1763.864710705
 30
0.0
 11
4434.5380054364
 21
1393.864710705
 31
0.0
  0
ARC
  5
3AE
330
1F
100
AcDbEntity
  8
0
  6
Continuous
 62
     7
370
    25
100
AcDbCircle
 10
4069.0380054364
 20
1419.364710705
 30
0.0
 40
11.0
100
AcDbArc
 50
180.0
 51
270.0
  0
LINE
  5
3AF
330
1F
100
AcDbEntity
  8
0
  6
Continuous
 62
     7
370
    25
100
AcDbLine
 10
4069.0380054364
 20
1408.364710705
 30
0.0
 11
4202.0380054364
 21
1408.364710705
 31
0.0
  0
ARC
  5
3B0
330
1F
100
AcDbEntity
  8
0
  6
Continuous
 62
     7
370
    25
100
AcDbCircle
 10
4202.0380054364
 20
1419.364710705
 30
0.0
 40
11.0
100
AcDbArc
 50
270.0
 51
0.0
  0
LINE
  5
3B1
330
1F
100
AcDbEntity
  8
0
  6
Continuous
 62
     7
370
    25
100
AcDbLine
 10
4213.0380054364
 20
1419.364710705
 30
0.0
 11
4213.0380054364
 21
1518.364710705
 31
0.0
  0
ARC
  5
3B2
330
1F
100
AcDbEntity
  8
0
  6
Continuous
 62
     7
370
    25
100
AcDbCircle
 10
4202.0380054364
 20
1518.364710705
 30
0.0
 40
11.0
100
AcDbArc
 50
0.0
 51
90.0
  0
LINE
  5
3B3
330
1F
100
AcDbEntity
  8
0
  6
Continuous
 62
     7
370
    25
100
AcDbLine
 10
4202.0380054364
 20
1529.364710705
 30
0.0
 11
4069.0380054364
 21
1529.364710705
 31
0.0
  0
ARC
  5
3B4
330
1F
100
AcDbEntity
  8
0
  6
Continuous
 62
     7
370
    25
100
AcDbCircle
 10
4069.0380054364
 20
1518.364710705
 30
0.0
 40
11.0
100
AcDbArc
 50
90.0
 51
180.0
  0
LINE
  5
3B5
330
1F
100
AcDbEntity
  8
0
  6
Continuous
 62
     7
370
    25
100
AcDbLine
 10
4058.0380054364
 20
1518.364710705
 30
0.0
 11
4058.0380054364
 21
1419.364710705
 31
0.0
  0
LINE
  5
3B6
330
1F
100
AcDbEntity
  8
0
  6
Continuous
 62
     7
370
    25
100
AcDbLine
 10
4434.5380054364
 20
1393.864710705
 30
0.0
 11
3836.5380054364
 21
1393.864710705
 31
0.0
  0
ARC
  5
3B7
330
1F
100
AcDbEntity
  8
0
  6
Continuous
 62
     7
370
    25
100
AcDbCircle
 10
4135.5380054364
 20
1503.114710705
 30
0.0
 40
5.000000000000292
100
AcDbArc
 50
174.586687726
 51
5.413312274
  0
ARC
  5
3B8
330
1F
100
AcDbEntity
  8
0
  6
Continuous
 62
     7
370
    25
100
AcDbCircle
 10
4128.9425524573
 20
1503.739710705
 30
0.0
 40
1.625
100
AcDbArc
 50
354.586687726
 51
90.0
  0
LINE
  5
3B9
330
1F
100
AcDbEntity
  8
0
  6
Continuous
 62
     7
370
    25
100
AcDbLine
 10
4128.9425524573
 20
1505.364710705
 30
0.0
 11
4079.1925524573
 21
1505.364710705
 31
0.0
  0
ARC
  5
3BA
330
1F
100
AcDbEntity
  8
0
  6
Continuous
 62
     7
370
    25
100
AcDbCircle
 10
4079.1925524573
 20
1503.739710705
 30
0.0
 40
1.625
100
AcDbArc
 50
90.0
 51
184.4464035239
  0
ARC
  5
3BB
330
1F
100
AcDbEntity
  8
0
  6
Continuous
 62
     7
370
    25
100
AcDbCircle
 10
4072.5874917799
 20
1503.2260975749
 30
0.0
 40
5.000000000000526
100
AcDbArc
 50
266.3263474424
 51
4.4464035239
  0
ARC
  5
3BC
330
1F
100
AcDbEntity
  8
0
  6
Continuous
 62
     7
370
    25
100
AcDbCircle
 10
4072.1630054364
 20
1496.614710705
 30
0.0
 40
1.625
100
AcDbArc
 50
86.3263474424
 51
180.0
  0
LINE
  5
3BD
330
1F
100
AcDbEntity
  8
0
  6
Continuous
 62
     7
370
    25
100
AcDbLine
 10
4070.5380054364
 20
1496.614710705
 30
0.0
 11
4070.5380054364
 21
1441.114710705
 31
0.0
  0
ARC
  5
3BE
330
1F
100
AcDbEntity
  8
0
  6
Continuous
 62
     7
370
    25
100
AcDbCircle
 10
4072.1630054364
 20
1441.114710705
 30
0.0
 40
1.625000000000038
100
AcDbArc
 50
180.0
 51
273.6736525576
  0
ARC
  5
3BF
330
1F
100
AcDbEntity
  8
0
  6
Continuous
 62
     7
370
    25
100
AcDbCircle
 10
4072.5874917799
 20
1434.503323835
 30
0.0
 40
5.000000000000544
100
AcDbArc
 50
355.5535964761
 51
93.6736525576
  0
ARC
  5
3C0
330
1F
100
AcDbEntity
  8
0
  6
Continuous
 62
     7
370
    25
100
AcDbCircle
 10
4079.1925524573
 20
1433.989710705
 30
0.0
 40
1.625
100
AcDbArc
 50
175.5535964761
 51
270.0
  0
LINE
  5
3C1
330
1F
100
AcDbEntity
  8
0
  6
Continuous
 62
     7
370
    25
100
AcDbLine
 10
4079.1925524573
 20
1432.364710705
 30
0.0
 11
4128.9425524573
 21
1432.364710705
 31
0.0
  0
ARC
  5
3C2
330
1F
100
AcDbEntity
  8
0
  6
Continuous
 62
     7
370
    25
100
AcDbCircle
 10
4128.9425524573
 20
1433.989710705
 30
0.0
 40
1.625
100
AcDbArc
 50
270.0
 51
5.413312274
  0
ARC
  5
3C3
330
1F
100
AcDbEntity
  8
0
  6
Continuous
 62
     7
370
    25
100
AcDbCircle
 10
4135.5380054364
 20
1434.614710705
 30
0.0
 40
5.000000000000292
100
AcDbArc
 50
354.586687726
 51
185.413312274
  0
ARC
  5
3C4
330
1F
100
AcDbEntity
  8
0
  6
Continuous
 62
     7
370
    25
100
AcDbCircle
 10
4142.1334584156
 20
1433.989710705
 30
0.0
 40
1.625000000000232
100
AcDbArc
 50
174.586687726
 51
270.0
  0
LINE
  5
3C5
330
1F
100
AcDbEntity
  8
0
  6
Continuous
 62
     7
370
    25
100
AcDbLine
 10
4142.1334584156
 20
1432.364710705
 30
0.0
 11
4191.8834584156
 21
1432.364710705
 31
0.0
  0
ARC
  5
3C6
330
1F
100
AcDbEntity
  8
0
  6
Continuous
 62
     7
370
    25
100
AcDbCircle
 10
4191.8834584156
 20
1433.989710705
 30
0.0
 40
1.625000000000411
100
AcDbArc
 50
270.0
 51
4.4464035239
  0
ARC
  5
3C7
330
1F
100
AcDbEntity
  8
0
  6
Continuous
 62
     7
370
    25
100
AcDbCircle
 10
4198.488519093
 20
1434.503323835
 30
0.0
 40
5.000000000000544
100
AcDbArc
 50
86.3263474424
 51
184.4464035239
  0
ARC
  5
3C8
330
1F
100
AcDbEntity
  8
0
  6
Continuous
 62
     7
370
    25
100
AcDbCircle
 10
4198.9130054364
 20
1441.114710705
 30
0.0
 40
1.625000000000038
100
AcDbArc
 50
266.3263474424
 51
0.0
  0
LINE
  5
3C9
330
1F
100
AcDbEntity
  8
0
  6
Continuous
 62
     7
370
    25
100
AcDbLine
 10
4200.5380054364
 20
1441.114710705
 30
0.0
 11
4200.5380054364
 21
1496.614710705
 31
0.0
  0
ARC
  5
3CA
330
1F
100
AcDbEntity
  8
0
  6
Continuous
 62
     7
370
    25
100
AcDbCircle
 10
4198.9130054364
 20
1496.614710705
 30
0.0
 40
1.625
100
AcDbArc
 50
0.0
 51
93.6736525576
  0
ARC
  5
3CB
330
1F
100
AcDbEntity
  8
0
  6
Continuous
 62
     7
370
    25
100
AcDbCircle
 10
4198.488519093
 20
1503.2260975749
 30
0.0
 40
5.000000000000561
100
AcDbArc
 50
175.5535964761
 51
273.6736525576
  0
ARC
  5
3CC
330
1F
100
AcDbEntity
  8
0
  6
Continuous
 62
     7
370
    25
100
AcDbCircle
 10
4191.8834584156
 20
1503.739710705
 30
0.0
 40
1.625000000000393
100
AcDbArc
 50
355.5535964761
 51
90.0
  0
LINE
  5
3CD
330
1F
100
AcDbEntity
  8
0
  6
Continuous
 62
     7
370
    25
100
AcDbLine
 10
4191.8834584156
 20
1505.364710705
 30
0.0
 11
4142.1334584156
 21
1505.364710705
 31
0.0
  0
ARC
  5
3CE
330
1F
100
AcDbEntity
  8
0
  6
Continuous
 62
     7
370
    25
100
AcDbCircle
 10
4142.1334584156
 20
1503.739710705
 30
0.0
 40
1.625000000000253
100
AcDbArc
 50
90.0
 51
185.413312274
  0
LINE
  5
3CF
330
1F
100
AcDbEntity
  8
0
  6
Continuous
 62
     7
370
    25
100
AcDbLine
 10
4202.0380054364
 20
1528.264710705
 30
0.0
 11
4069.0380054364
 21
1528.264710705
 31
0.0
  0
ARC
  5
3D0
330
1F
100
AcDbEntity
  8
0
  6
Continuous
 62
     7
370
    25
100
AcDbCircle
 10
4202.0380054364
 20
1419.364710705
 30
0.0
 40
9.899999999999864
100
AcDbArc
 50
270.0
 51
0.0
  0
LINE
  5
3D1
330
1F
100
AcDbEntity
  8
0
  6
Continuous
 62
     7
370
    25
100
AcDbLine
 10
4069.0380054364
 20
1409.464710705
 30
0.0
 11
4202.0380054364
 21
1409.464710705
 31
0.0
  0
ARC
  5
3D2
330
1F
100
AcDbEntity
  8
0
  6
Continuous
 62
     7
370
    25
100
AcDbCircle
 10
4069.0380054364
 20
1419.364710705
 30
0.0
 40
9.900000000000091
100
AcDbArc
 50
180.0
 51
270.0
  0
LINE
  5
3D3
330
1F
100
AcDbEntity
  8
0
  6
Continuous
 62
     7
370
    25
100
AcDbLine
 10
4059.1380054364
 20
1518.364710705
 30
0.0
 11
4059.1380054364
 21
1419.364710705
 31
0.0
  0
ARC
  5
3D4
330
1F
100
AcDbEntity
  8
0
  6
Continuous
 62
     7
370
    25
100
AcDbCircle
 10
4069.0380054364
 20
1518.364710705
 30
0.0
 40
9.900000000000091
100
AcDbArc
 50
90.0
 51
180.0
  0
LINE
  5
3D5
330
1F
100
AcDbEntity
  8
0
  6
Continuous
 62
     7
370
    25
100
AcDbLine
 10
4211.9380054364
 20
1419.364710705
 30
0.0
 11
4211.9380054364
 21
1518.364710705
 31
0.0
  0
ARC
  5
3D6
330
1F
100
AcDbEntity
  8
0
  6
Continuous
 62
     7
370
    25
100
AcDbCircle
 10
4202.0380054364
 20
1518.364710705
 30
0.0
 40
9.900000000000091
100
AcDbArc
 50
0.0
 51
90.0
  0
LINE
  5
3D7
330
1F
100
AcDbEntity
  8
0
  6
Continuous
 62
     7
370
    25
100
AcDbLine
 10
4413.7880054364
 20
1383.864710705
 30
0.0
 11
4413.7880054364
 21
1393.864710705
 31
0.0
  0
LINE
  5
3D8
330
1F
100
AcDbEntity
  8
0
  6
Continuous
 62
     7
370
    25
100
AcDbLine
 10
4413.7880054364
 20
1383.864710705
 30
0.0
 11
4405.9580054364
 21
1383.864710705
 31
0.0
  0
LINE
  5
3D9
330
1F
100
AcDbEntity
  8
0
  6
Continuous
 62
     7
370
    25
100
AcDbLine
 10
4405.9580054364
 20
1383.864710705
 30
0.0
 11
4383.1180054364
 21
1383.864710705
 31
0.0
  0
LINE
  5
3DA
330
1F
100
AcDbEntity
  8
0
  6
Continuous
 62
     7
370
    25
100
AcDbLine
 10
4375.2880054364
 20
1383.864710705
 30
0.0
 11
4375.2880054364
 21
1393.864710705
 31
0.0
  0
LINE
  5
3DB
330
1F
100
AcDbEntity
  8
0
  6
Continuous
 62
     7
370
    25
100
AcDbLine
 10
4383.1180054364
 20
1383.864710705
 30
0.0
 11
4375.2880054364
 21
1383.864710705
 31
0.0
  0
LINE
  5
3DC
330
1F
100
AcDbEntity
  8
0
  6
Continuous
 62
     7
370
    25
100
AcDbLine
 10
3895.7880054364
 20
1383.864710705
 30
0.0
 11
3895.7880054364
 21
1393.864710705
 31
0.0
  0
LINE
  5
3DD
330
1F
100
AcDbEntity
  8
0
  6
Continuous
 62
     7
370
    25
100
AcDbLine
 10
3895.7880054364
 20
1383.864710705
 30
0.0
 11
3887.9580054364
 21
1383.864710705
 31
0.0
  0
LINE
  5
3DE
330
1F
100
AcDbEntity
  8
0
  6
Continuous
 62
     7
370
    25
100
AcDbLine
 10
3887.9580054364
 20
1383.864710705
 30
0.0
 11
3865.1180054364
 21
1383.864710705
 31
0.0
  0
LINE
  5
3DF
330
1F
100
AcDbEntity
  8
0
  6
Continuous
 62
     7
370
    25
100
AcDbLine
 10
3857.2880054364
 20
1383.864710705
 30
0.0
 11
3857.2880054364
 21
1393.864710705
 31
0.0
  0
LINE
  5
3E0
330
1F
100
AcDbEntity
  8
0
  6
Continuous
 62
     7
370
    25
100
AcDbLine
 10
3865.1180054364
 20
1383.864710705
 30
0.0
 11
3857.2880054364
 21
1383.864710705
 31
0.0
  0
CIRCLE
  5
3E1
330
1F
100
AcDbEntity
  8
0
  6
Continuous
 62
     7
370
    25
100
AcDbCircle
 10
4157.5380054364
 20
1466.864710705
 30
0.0
 40
8.914999999999964
  0
CIRCLE
  5
3E2
330
1F
100
AcDbEntity
  8
0
  6
Continuous
 62
     7
370
    25
100
AcDbCircle
 10
4117.5380054364
 20
1466.864710705
 30
0.0
 40
8.914999999999964
  0
CIRCLE
  5
3E3
330
1F
100
AcDbEntity
  8
0
  6
Continuous
 62
     7
370
    25
100
AcDbCircle
 10
4157.5380054364
 20
1466.864710705
 30
0.0
 40
3.494999999999891
  0
CIRCLE
  5
3E4
330
1F
100
AcDbEntity
  8
0
  6
Continuous
 62
     7
370
    25
100
AcDbCircle
 10
4157.5380054364
 20
1466.864710705
 30
0.0
 40
6.095000000000255
  0
CIRCLE
  5
3E5
330
1F
100
AcDbEntity
  8
0
  6
Continuous
 62
     7
370
    25
100
AcDbCircle
 10
4117.5380054364
 20
1466.864710705
 30
0.0
 40
6.095000000000255
  0
CIRCLE
  5
3E6
330
1F
100
AcDbEntity
  8
0
  6
Continuous
 62
     7
370
    25
100
AcDbCircle
 10
4117.5380054364
 20
1466.864710705
 30
0.0
 40
3.494999999999891
  0
LINE
  5
3E7
330
1F
100
AcDbEntity
  8
0
  6
Continuous
 62
     7
370
    25
100
AcDbLine
 10
4405.9580054364
 20
1383.864710705
 30
0.0
 11
4405.9580054364
 21
1393.864710705
 31
0.0
  0
LINE
  5
3E8
330
1F
100
AcDbEntity
  8
0
  6
Continuous
 62
     7
370
    25
100
AcDbLine
 10
4383.1180054364
 20
1383.864710705
 30
0.0
 11
4383.1180054364
 21
1393.864710705
 31
0.0
  0
LINE
  5
3E9
330
1F
100
AcDbEntity
  8
0
  6
Continuous
 62
     7
370
    25
100
AcDbLine
 10
3887.9580054364
 20
1383.864710705
 30
0.0
 11
3887.9580054364
 21
1393.864710705
 31
0.0
  0
LINE
  5
3EA
330
1F
100
AcDbEntity
  8
0
  6
Continuous
 62
     7
370
    25
100
AcDbLine
 10
3865.1180054364
 20
1383.864710705
 30
0.0
 11
3865.1180054364
 21
1393.864710705
 31
0.0
  0
DIMENSION
  5
3EB
330
1F
100
AcDbEntity
  8
SLD-0
100
AcDbDimension
  2
_D_18
 10
4213.0380054364
 20
1303.605128357
 30
0.0
 11
4321.7355000157
 21
1303.605128357
 31
0.0
 70
   160
  1
<>
 71
     2
 42
-1.0
  3
SLDDIMSTYLE2
100
AcDbAlignedDimension
 13
4058.0380054364
 23
1419.364710705
 33
0.0
 14
4213.0380054364
 24
1419.364710705
 34
0.0
100
AcDbRotatedDimension
  0
DIMENSION
  5
3FF
330
1F
100
AcDbEntity
  8
SLD-0
100
AcDbDimension
  2
_D_19
 10
4492.8082584848
 20
1408.364710705
 30
0.0
 11
4492.8082584848
 21
1566.6001706706
 31
0.0
 70
   160
  1
<>
 71
     2
 42
-1.0
  3
SLDDIMSTYLE2
100
AcDbAlignedDimension
 13
4202.0380054364
 23
1529.364710705
 33
0.0
 14
4202.0380054364
 24
1408.364710705
 34
0.0
 50
90.0
100
AcDbRotatedDimension
  0
DIMENSION
  5
414
330
1F
100
AcDbEntity
  8
SLD-0
100
AcDbDimension
  2
_D_20
 10
4492.8082584848
 20
1393.864710705
 30
0.0
 11
4492.8082584848
 21
1325.8145877989
 31
0.0
 70
   160
  1
<>
 71
     2
 42
-1.0
  3
SLDDIMSTYLE0
100
AcDbAlignedDimension
 13
4202.0380054364
 23
1408.364710705
 33
0.0
 14
4434.5380054364
 24
1393.864710705
 34
0.0
 50
90.0
100
AcDbRotatedDimension
  0
DIMENSION
  5
429
330
1F
100
AcDbEntity
  8
SLD-0
100
AcDbDimension
  2
_D_21
 10
3836.5380054364
 20
1303.605128357
 30
0.0
 11
3947.2880054364
 21
1303.605128357
 31
0.0
 70
   160
  1
<>
 71
     2
 42
-1.0
  3
SLDDIMSTYLE7
100
AcDbAlignedDimension
 13
4058.0380054364
 23
1419.364710705
 33
0.0
 14
3836.5380054364
 24
1393.864710705
 34
0.0
100
AcDbRotatedDimension
  0
LINE
  5
43D
330
1F
100
AcDbEntity
  8
0
  6
Continuous
 62
     7
370
    25
100
AcDbLine
 10
2239.4255839493
 20
2209.3266737096
 30
0.0
 11
1641.4255839493
 21
2209.3266737096
 31
0.0
  0
LINE
  5
43E
330
1F
100
AcDbEntity
  8
0
  6
Continuous
 62
     7
370
    25
100
AcDbLine
 10
2239.4255839493
 20
2899.3266737096
 30
0.0
 11
1641.4255839493
 21
2899.3266737096
 31
0.0
  0
CIRCLE
  5
43F
330
1F
100
AcDbEntity
  8
0
  6
Continuous
 62
     7
370
    25
100
AcDbCircle
 10
2199.0255839493
 20
2309.3266737096
 30
0.0
 40
10.0
  0
CIRCLE
  5
440
330
1F
100
AcDbEntity
  8
0
  6
Continuous
 62
     7
370
    25
100
AcDbCircle
 10
2199.0255839493
 20
2799.3266737096
 30
0.0
 40
10.0
  0
LINE
  5
441
330
1F
100
AcDbEntity
  8
0
  6
Continuous
 62
     7
370
    25
100
AcDbLine
 10
2239.4255839493
 20
2209.3266737096
 30
0.0
 11
2239.4255839493
 21
2899.3266737096
 31
0.0
  0
LINE
  5
442
330
1F
100
AcDbEntity
  8
0
  6
Continuous
 62
     7
370
    25
100
AcDbLine
 10
1641.4255839493
 20
2209.3266737096
 30
0.0
 11
1641.4255839493
 21
2899.3266737096
 31
0.0
  0
CIRCLE
  5
443
330
1F
100
AcDbEntity
  8
0
  6
Continuous
 62
     7
370
    25
100
AcDbCircle
 10
2199.0255839493
 20
2799.3266737096
 30
0.0
 40
5.5
  0
CIRCLE
  5
444
330
1F
100
AcDbEntity
  8
0
  6
Continuous
 62
     7
370
    25
100
AcDbCircle
 10
2199.0255839493
 20
2309.3266737096
 30
0.0
 40
5.5
  0
LINE
  5
445
330
1F
100
AcDbEntity
  8
SLD-0
100
AcDbLine
 10
1943.1255839493
 20
2533.5545560317
 30
0.0
 11
1943.1255839493
 21
2526.2987913874
 31
0.0
  0
LINE
  5
446
330
1F
100
AcDbEntity
  8
SLD-0
100
AcDbLine
 10
1939.4977016272
 20
2529.9266737096
 30
0.0
 11
1946.7534662715
 21
2529.9266737096
 31
0.0
  0
LINE
  5
447
330
1F
100
AcDbEntity
  8
SLD-0
  6
CENTERX2
100
AcDbLine
 10
2199.0255839493
 20
2309.3266737096
 30
0.0
 11
2199.0255839493
 21
2799.3266737096
 31
0.0
  0
DIMENSION
  5
448
330
1F
100
AcDbEntity
  8
SLD-0
100
AcDbDimension
  2
_D_22
 10
1531.4255839493
 20
2209.3266737096
 30
0.0
 11
1531.4255839493
 21
2387.1660398015
 31
0.0
 70
   160
  1
<>
 71
     2
 42
-1.0
  3
SLDDIMSTYLE9
100
AcDbAlignedDimension
 13
1943.1255839493
 23
2529.9266737096
 33
0.0
 14
1641.4255839493
 24
2209.3266737096
 34
0.0
 50
90.0
100
AcDbRotatedDimension
  0
DIMENSION
  5
45D
330
1F
100
AcDbEntity
  8
SLD-0
100
AcDbDimension
  2
_D_23
 10
1943.1255839493
 20
2126.5137889906
 30
0.0
 11
1765.250210142
 21
2126.5137889906
 31
0.0
 70
   160
  1
<>
 71
     2
 42
-1.0
  3
SLDDIMSTYLE9
100
AcDbAlignedDimension
 13
1641.4255839493
 23
2209.3266737096
 33
0.0
 14
1943.1255839493
 24
2526.2987913874
 34
0.0
100
AcDbRotatedDimension
  0
DIMENSION
  5
471
330
1F
100
AcDbEntity
  8
SLD-0
100
AcDbDimension
  2
_D_24
 10
2415.4255839493
 20
2309.3266737096
 30
0.0
 11
2415.4255839493
 21
2126.5137889906
 31
0.0
 70
   160
  1
<>
 71
     2
 42
-1.0
  3
SLDDIMSTYLE1
100
AcDbAlignedDimension
 13
2239.4255839493
 23
2209.3266737096
 33
0.0
 14
2210.5255839493
 24
2309.3266737096
 34
0.0
 50
90.0
100
AcDbRotatedDimension
  0
DIMENSION
  5
486
330
1F
100
AcDbEntity
  8
SLD-0
100
AcDbDimension
  2
_D_25
 10
2415.4255839493
 20
2799.3266737096
 30
0.0
 11
2415.4255839493
 21
2570.5399515147
 31
0.0
 70
   160
  1
<>
 71
     2
 42
-1.0
  3
SLDDIMSTYLE1
100
AcDbAlignedDimension
 13
2199.0255839493
 23
2309.3266737096
 33
0.0
 14
2199.0255839493
 24
2799.3266737096
 34
0.0
 50
90.0
100
AcDbRotatedDimension
  0
DIMENSION
  5
49A
330
1F
100
AcDbEntity
  8
SLD-0
100
AcDbDimension
  2
_D_26
 10
2199.0255839493
 20
2126.5137889906
 30
0.0
 11
2075.034744099
 21
2126.5137889906
 31
0.0
 70
   160
  1
<>
 71
     2
 42
-1.0
  3
SLDDIMSTYLE0
100
AcDbAlignedDimension
 13
2239.4255839493
 23
2209.3266737096
 33
0.0
 14
2199.0255839493
 24
2309.3266737096
 34
0.0
100
AcDbRotatedDimension
  0
INSERT
  5
4AE
330
1F
100
AcDbEntity
  8
SLD-0
100
AcDbBlockReference
  2
SW_SYMBOL_MOD_COM
 10
1922.3216579474
 20
2512.7793353453
 30
0.0
 41
0.0030416748
 42
0.0030416748
 43
0.0030416748
  0
INSERT
  5
4B7
102
{ACAD_REACTORS
330
4B8
102
}
330
1F
100
AcDbEntity
  8
SLD-0
100
AcDbBlockReference
  2
SW_NOTE_0_5
 10
2358.7202007528
 20
2899.7490589711
 30
0.0
  0
LEADER
  5
4B8
330
1F
100
AcDbEntity
  8
SLD-0
100
AcDbLeader
  3
SLDDIMSTYLE5
 73
     2
 76
     3
 10
2206.0102670968
 20
2806.4830835168
 30
0.0
 10
2336.7202007528
 20
2899.7490589711
 30
0.0
 10
2358.7202007528
 20
2899.7490589711
 30
0.0
340
4B7
  0
MTEXT
  5
4B9
330
1F
100
AcDbEntity
  8
SLD-0
100
AcDbMText
 10
2439.6366100469
 20
2911.1869811025
 30
0.0
 40
26.19375
 41
0.0
 71
     1
 72
     1
  1
2X
  7
SLDTEXTSTYLE0
 73
     1
 44
1.0
  0
INSERT
  5
4C5
330
1F
100
AcDbEntity
  8
SLD-0
100
AcDbBlockReference
  2
SW_CENTERMARKSYMBOL_10
 10
2199.0255839493
 20
2309.3266737096
 30
0.0
  0
INSERT
  5
4D1
330
1F
100
AcDbEntity
  8
SLD-0
100
AcDbBlockReference
  2
SW_CENTERMARKSYMBOL_11
 10
2199.0255839493
 20
2799.3266737096
 30
0.0
  0
LINE
  5
4D2
330
1F
100
AcDbEntity
  8
0
  6
Continuous
 62
     7
370
    25
100
AcDbLine
 10
1700.6755839494
 20
334.3306222531
 30
0.0
 11
1700.6755839494
 21
357.1706222531
 31
0.0
  0
ARC
  5
4D3
330
1F
100
AcDbEntity
  8
0
  6
Continuous
 62
     7
370
    25
100
AcDbCircle
 10
1692.8455839494
 20
334.3306222531
 30
0.0
 40
7.830000000000041
100
AcDbArc
 50
270.0
 51
0.0
  0
LINE
  5
4D4
330
1F
100
AcDbEntity
  8
0
  6
Continuous
 62
     7
370
    25
100
AcDbLine
 10
1662.1755839494
 20
357.1706222531
 30
0.0
 11
1662.1755839494
 21
334.3306222531
 31
0.0
  0
ARC
  5
4D5
330
1F
100
AcDbEntity
  8
0
  6
Continuous
 62
     7
370
    25
100
AcDbCircle
 10
1670.0055839494
 20
357.1706222531
 30
0.0
 40
7.830000000000155
100
AcDbArc
 50
90.0
 51
180.0
  0
LINE
  5
4D6
330
1F
100
AcDbEntity
  8
0
  6
Continuous
 62
     7
370
    25
100
AcDbLine
 10
1692.8455839494
 20
365.0006222531
 30
0.0
 11
1670.0055839494
 21
365.0006222531
 31
0.0
  0
ARC
  5
4D7
330
1F
100
AcDbEntity
  8
0
  6
Continuous
 62
     7
370
    25
100
AcDbCircle
 10
1692.8455839494
 20
357.1706222531
 30
0.0
 40
7.830000000000098
100
AcDbArc
 50
0.0
 51
90.0
  0
ARC
  5
4D8
330
1F
100
AcDbEntity
  8
0
  6
Continuous
 62
     7
370
    25
100
AcDbCircle
 10
1670.0055839494
 20
334.3306222531
 30
0.0
 40
7.830000000000155
100
AcDbArc
 50
180.0
 51
270.0
  0
LINE
  5
4D9
330
1F
100
AcDbEntity
  8
0
  6
Continuous
 62
     7
370
    25
100
AcDbLine
 10
1670.0055839494
 20
326.5006222531
 30
0.0
 11
1692.8455839494
 21
326.5006222531
 31
0.0
  0
LINE
  5
4DA
330
1F
100
AcDbEntity
  8
0
  6
Continuous
 62
     7
370
    25
100
AcDbLine
 10
2218.6755839494
 20
334.3306222531
 30
0.0
 11
2218.6755839494
 21
357.1706222531
 31
0.0
  0
ARC
  5
4DB
330
1F
100
AcDbEntity
  8
0
  6
Continuous
 62
     7
370
    25
100
AcDbCircle
 10
2210.8455839494
 20
334.3306222531
 30
0.0
 40
7.830000000000041
100
AcDbArc
 50
270.0
 51
0.0
  0
LINE
  5
4DC
330
1F
100
AcDbEntity
  8
0
  6
Continuous
 62
     7
370
    25
100
AcDbLine
 10
2188.0055839494
 20
326.5006222531
 30
0.0
 11
2210.8455839494
 21
326.5006222531
 31
0.0
  0
LINE
  5
4DD
330
1F
100
AcDbEntity
  8
0
  6
Continuous
 62
     7
370
    25
100
AcDbLine
 10
2180.1755839494
 20
357.1706222531
 30
0.0
 11
2180.1755839494
 21
334.3306222531
 31
0.0
  0
ARC
  5
4DE
330
1F
100
AcDbEntity
  8
0
  6
Continuous
 62
     7
370
    25
100
AcDbCircle
 10
2188.0055839494
 20
357.1706222531
 30
0.0
 40
7.830000000000382
100
AcDbArc
 50
90.0
 51
180.0
  0
LINE
  5
4DF
330
1F
100
AcDbEntity
  8
0
  6
Continuous
 62
     7
370
    25
100
AcDbLine
 10
2210.8455839494
 20
365.0006222531
 30
0.0
 11
2188.0055839494
 21
365.0006222531
 31
0.0
  0
ARC
  5
4E0
330
1F
100
AcDbEntity
  8
0
  6
Continuous
 62
     7
370
    25
100
AcDbCircle
 10
2210.8455839494
 20
357.1706222531
 30
0.0
 40
7.830000000000098
100
AcDbArc
 50
0.0
 51
90.0
  0
ARC
  5
4E1
330
1F
100
AcDbEntity
  8
0
  6
Continuous
 62
     7
370
    25
100
AcDbCircle
 10
2188.0055839494
 20
334.3306222531
 30
0.0
 40
7.830000000000382
100
AcDbArc
 50
180.0
 51
270.0
  0
LINE
  5
4E2
330
1F
100
AcDbEntity
  8
0
  6
Continuous
 62
     7
370
    25
100
AcDbLine
 10
1700.6755839493
 20
934.3306222531
 30
0.0
 11
1700.6755839493
 21
957.1706222531
 31
0.0
  0
ARC
  5
4E3
330
1F
100
AcDbEntity
  8
0
  6
Continuous
 62
     7
370
    25
100
AcDbCircle
 10
1670.0055839493
 20
934.3306222531
 30
0.0
 40
7.830000000000041
100
AcDbArc
 50
180.0
 51
270.0
  0
LINE
  5
4E4
330
1F
100
AcDbEntity
  8
0
  6
Continuous
 62
     7
370
    25
100
AcDbLine
 10
1662.1755839493
 20
957.1706222531
 30
0.0
 11
1662.1755839493
 21
934.3306222531
 31
0.0
  0
ARC
  5
4E5
330
1F
100
AcDbEntity
  8
0
  6
Continuous
 62
     7
370
    25
100
AcDbCircle
 10
1670.0055839493
 20
957.1706222531
 30
0.0
 40
7.830000000000041
100
AcDbArc
 50
90.0
 51
180.0
  0
LINE
  5
4E6
330
1F
100
AcDbEntity
  8
0
  6
Continuous
 62
     7
370
    25
100
AcDbLine
 10
1692.8455839493
 20
965.0006222531
 30
0.0
 11
1670.0055839493
 21
965.0006222531
 31
0.0
  0
ARC
  5
4E7
330
1F
100
AcDbEntity
  8
0
  6
Continuous
 62
     7
370
    25
100
AcDbCircle
 10
1692.8455839493
 20
957.1706222531
 30
0.0
 40
7.830000000000155
100
AcDbArc
 50
0.0
 51
90.0
  0
ARC
  5
4E8
330
1F
100
AcDbEntity
  8
0
  6
Continuous
 62
     7
370
    25
100
AcDbCircle
 10
1692.8455839493
 20
934.3306222531
 30
0.0
 40
7.830000000000155
100
AcDbArc
 50
270.0
 51
0.0
  0
LINE
  5
4E9
330
1F
100
AcDbEntity
  8
0
  6
Continuous
 62
     7
370
    25
100
AcDbLine
 10
1670.0055839493
 20
926.5006222531
 30
0.0
 11
1692.8455839493
 21
926.5006222531
 31
0.0
  0
LINE
  5
4EA
330
1F
100
AcDbEntity
  8
0
  6
Continuous
 62
     7
370
    25
100
AcDbLine
 10
2218.6755839493
 20
934.3306222531
 30
0.0
 11
2218.6755839493
 21
957.1706222531
 31
0.0
  0
LINE
  5
4EB
330
1F
100
AcDbEntity
  8
0
  6
Continuous
 62
     7
370
    25
100
AcDbLine
 10
2180.1755839493
 20
957.1706222531
 30
0.0
 11
2180.1755839493
 21
934.3306222531
 31
0.0
  0
ARC
  5
4EC
330
1F
100
AcDbEntity
  8
0
  6
Continuous
 62
     7
370
    25
100
AcDbCircle
 10
2188.0055839493
 20
957.1706222531
 30
0.0
 40
7.830000000000041
100
AcDbArc
 50
90.0
 51
180.0
  0
LINE
  5
4ED
330
1F
100
AcDbEntity
  8
0
  6
Continuous
 62
     7
370
    25
100
AcDbLine
 10
2210.8455839493
 20
965.0006222531
 30
0.0
 11
2188.0055839493
 21
965.0006222531
 31
0.0
  0
ARC
  5
4EE
330
1F
100
AcDbEntity
  8
0
  6
Continuous
 62
     7
370
    25
100
AcDbCircle
 10
2210.8455839493
 20
957.1706222531
 30
0.0
 40
7.830000000000382
100
AcDbArc
 50
0.0
 51
90.0
  0
LINE
  5
4EF
330
1F
100
AcDbEntity
  8
0
  6
Continuous
 62
     7
370
    25
100
AcDbLine
 10
2188.0055839493
 20
926.5006222531
 30
0.0
 11
2210.8455839493
 21
926.5006222531
 31
0.0
  0
ARC
  5
4F0
330
1F
100
AcDbEntity
  8
0
  6
Continuous
 62
     7
370
    25
100
AcDbCircle
 10
2188.0055839493
 20
934.3306222531
 30
0.0
 40
7.830000000000041
100
AcDbArc
 50
180.0
 51
270.0
  0
ARC
  5
4F1
330
1F
100
AcDbEntity
  8
0
  6
Continuous
 62
     7
370
    25
100
AcDbCircle
 10
2210.8455839493
 20
934.3306222531
 30
0.0
 40
7.830000000000382
100
AcDbArc
 50
270.0
 51
0.0
  0
LINE
  5
4F2
330
1F
100
AcDbEntity
  8
0
  6
Continuous
 62
     7
370
    25
100
AcDbLine
 10
1641.4255839493
 20
988.2506222531
 30
0.0
 11
1641.4255839493
 21
298.2506222531
 31
0.0
  0
LINE
  5
4F3
330
1F
100
AcDbEntity
  8
0
  6
Continuous
 62
     7
370
    25
100
AcDbLine
 10
1641.4255839493
 20
988.2506222531
 30
0.0
 11
2239.4255839493
 21
988.2506222531
 31
0.0
  0
LINE
  5
4F4
330
1F
100
AcDbEntity
  8
0
  6
Continuous
 62
     7
370
    25
100
AcDbLine
 10
2239.4255839493
 20
988.2506222531
 30
0.0
 11
2239.4255839493
 21
298.2506222531
 31
0.0
  0
LINE
  5
4F5
330
1F
100
AcDbEntity
  8
0
  6
Continuous
 62
     7
370
    25
100
AcDbLine
 10
1641.4255839493
 20
298.2506222531
 30
0.0
 11
2239.4255839493
 21
298.2506222531
 31
0.0
  0
ARC
  5
4F6
330
1F
100
AcDbEntity
  8
0
  6
Continuous
 62
     7
370
    25
100
AcDbCircle
 10
2183.4255839493
 20
961.7506222531
 30
0.0
 40
5.0
100
AcDbArc
 50
90.0
 51
180.0
  0
LINE
  5
4F7
330
1F
100
AcDbEntity
  8
0
  6
Continuous
 62
     7
370
    25
100
AcDbLine
 10
2178.4255839493
 20
961.7506222531
 30
0.0
 11
2178.4255839493
 21
929.7506222531
 31
0.0
  0
ARC
  5
4F8
330
1F
100
AcDbEntity
  8
0
  6
Continuous
 62
     7
370
    25
100
AcDbCircle
 10
2183.4255839493
 20
929.7506222531
 30
0.0
 40
5.000000000000114
100
AcDbArc
 50
180.0
 51
270.0
  0
LINE
  5
4F9
330
1F
100
AcDbEntity
  8
0
  6
Continuous
 62
     7
370
    25
100
AcDbLine
 10
2183.4255839493
 20
924.7506222531
 30
0.0
 11
2215.4255839493
 21
924.7506222531
 31
0.0
  0
ARC
  5
4FA
330
1F
100
AcDbEntity
  8
0
  6
Continuous
 62
     7
370
    25
100
AcDbCircle
 10
2215.4255839493
 20
929.7506222531
 30
0.0
 40
5.000000000000114
100
AcDbArc
 50
270.0
 51
0.0
  0
LINE
  5
4FB
330
1F
100
AcDbEntity
  8
0
  6
Continuous
 62
     7
370
    25
100
AcDbLine
 10
2220.4255839493
 20
929.7506222531
 30
0.0
 11
2220.4255839493
 21
961.7506222531
 31
0.0
  0
ARC
  5
4FC
330
1F
100
AcDbEntity
  8
0
  6
Continuous
 62
     7
370
    25
100
AcDbCircle
 10
2215.4255839493
 20
961.7506222531
 30
0.0
 40
5.0
100
AcDbArc
 50
0.0
 51
90.0
  0
LINE
  5
4FD
330
1F
100
AcDbEntity
  8
0
  6
Continuous
 62
     7
370
    25
100
AcDbLine
 10
2215.4255839493
 20
966.7506222531
 30
0.0
 11
2183.4255839493
 21
966.7506222531
 31
0.0
  0
ARC
  5
4FE
330
1F
100
AcDbEntity
  8
0
  6
Continuous
 62
     7
370
    25
100
AcDbCircle
 10
1665.4255839494
 20
361.7506222531
 30
0.0
 40
5.0
100
AcDbArc
 50
90.0
 51
180.0
  0
LINE
  5
4FF
330
1F
100
AcDbEntity
  8
0
  6
Continuous
 62
     7
370
    25
100
AcDbLine
 10
1660.4255839494
 20
361.7506222531
 30
0.0
 11
1660.4255839494
 21
329.7506222531
 31
0.0
  0
ARC
  5
500
330
1F
100
AcDbEntity
  8
0
  6
Continuous
 62
     7
370
    25
100
AcDbCircle
 10
1665.4255839494
 20
329.7506222531
 30
0.0
 40
5.0
100
AcDbArc
 50
180.0
 51
270.0
  0
LINE
  5
501
330
1F
100
AcDbEntity
  8
0
  6
Continuous
 62
     7
370
    25
100
AcDbLine
 10
1665.4255839494
 20
324.7506222531
 30
0.0
 11
1697.4255839494
 21
324.7506222531
 31
0.0
  0
ARC
  5
502
330
1F
100
AcDbEntity
  8
0
  6
Continuous
 62
     7
370
    25
100
AcDbCircle
 10
1697.4255839494
 20
329.7506222531
 30
0.0
 40
5.0
100
AcDbArc
 50
270.0
 51
0.0
  0
LINE
  5
503
330
1F
100
AcDbEntity
  8
0
  6
Continuous
 62
     7
370
    25
100
AcDbLine
 10
1702.4255839494
 20
329.7506222531
 30
0.0
 11
1702.4255839494
 21
361.7506222531
 31
0.0
  0
ARC
  5
504
330
1F
100
AcDbEntity
  8
0
  6
Continuous
 62
     7
370
    25
100
AcDbCircle
 10
1697.4255839494
 20
361.7506222531
 30
0.0
 40
5.000000000000114
100
AcDbArc
 50
0.0
 51
90.0
  0
LINE
  5
505
330
1F
100
AcDbEntity
  8
0
  6
Continuous
 62
     7
370
    25
100
AcDbLine
 10
1697.4255839494
 20
366.7506222531
 30
0.0
 11
1665.4255839494
 21
366.7506222531
 31
0.0
  0
ARC
  5
506
330
1F
100
AcDbEntity
  8
0
  6
Continuous
 62
     7
370
    25
100
AcDbCircle
 10
2183.4255839494
 20
361.7506222531
 30
0.0
 40
5.0
100
AcDbArc
 50
90.0
 51
180.0
  0
LINE
  5
507
330
1F
100
AcDbEntity
  8
0
  6
Continuous
 62
     7
370
    25
100
AcDbLine
 10
2178.4255839494
 20
361.7506222531
 30
0.0
 11
2178.4255839494
 21
329.7506222531
 31
0.0
  0
ARC
  5
508
330
1F
100
AcDbEntity
  8
0
  6
Continuous
 62
     7
370
    25
100
AcDbCircle
 10
2183.4255839494
 20
329.7506222531
 30
0.0
 40
5.0
100
AcDbArc
 50
180.0
 51
270.0
  0
LINE
  5
509
330
1F
100
AcDbEntity
  8
0
  6
Continuous
 62
     7
370
    25
100
AcDbLine
 10
2183.4255839494
 20
324.7506222531
 30
0.0
 11
2215.4255839494
 21
324.7506222531
 31
0.0
  0
ARC
  5
50A
330
1F
100
AcDbEntity
  8
0
  6
Continuous
 62
     7
370
    25
100
AcDbCircle
 10
2215.4255839494
 20
329.7506222531
 30
0.0
 40
5.0
100
AcDbArc
 50
270.0
 51
0.0
  0
LINE
  5
50B
330
1F
100
AcDbEntity
  8
0
  6
Continuous
 62
     7
370
    25
100
AcDbLine
 10
2220.4255839494
 20
329.7506222531
 30
0.0
 11
2220.4255839494
 21
361.7506222531
 31
0.0
  0
ARC
  5
50C
330
1F
100
AcDbEntity
  8
0
  6
Continuous
 62
     7
370
    25
100
AcDbCircle
 10
2215.4255839494
 20
361.7506222531
 30
0.0
 40
5.000000000000114
100
AcDbArc
 50
0.0
 51
90.0
  0
LINE
  5
50D
330
1F
100
AcDbEntity
  8
0
  6
Continuous
 62
     7
370
    25
100
AcDbLine
 10
2215.4255839494
 20
366.7506222531
 30
0.0
 11
2183.4255839494
 21
366.7506222531
 31
0.0
  0
ARC
  5
50E
330
1F
100
AcDbEntity
  8
0
  6
Continuous
 62
     7
370
    25
100
AcDbCircle
 10
1665.4255839493
 20
961.7506222531
 30
0.0
 40
5.0
100
AcDbArc
 50
90.0
 51
180.0
  0
LINE
  5
50F
330
1F
100
AcDbEntity
  8
0
  6
Continuous
 62
     7
370
    25
100
AcDbLine
 10
1660.4255839493
 20
961.7506222531
 30
0.0
 11
1660.4255839493
 21
929.7506222531
 31
0.0
  0
ARC
  5
510
330
1F
100
AcDbEntity
  8
0
  6
Continuous
 62
     7
370
    25
100
AcDbCircle
 10
1665.4255839493
 20
929.7506222531
 30
0.0
 40
5.000000000000114
100
AcDbArc
 50
180.0
 51
270.0
  0
LINE
  5
511
330
1F
100
AcDbEntity
  8
0
  6
Continuous
 62
     7
370
    25
100
AcDbLine
 10
1665.4255839493
 20
924.7506222531
 30
0.0
 11
1697.4255839493
 21
924.7506222531
 31
0.0
  0
ARC
  5
512
330
1F
100
AcDbEntity
  8
0
  6
Continuous
 62
     7
370
    25
100
AcDbCircle
 10
1697.4255839493
 20
929.7506222531
 30
0.0
 40
5.000000000000114
100
AcDbArc
 50
270.0
 51
0.0
  0
LINE
  5
513
330
1F
100
AcDbEntity
  8
0
  6
Continuous
 62
     7
370
    25
100
AcDbLine
 10
1702.4255839493
 20
929.7506222531
 30
0.0
 11
1702.4255839493
 21
961.7506222531
 31
0.0
  0
ARC
  5
514
330
1F
100
AcDbEntity
  8
0
  6
Continuous
 62
     7
370
    25
100
AcDbCircle
 10
1697.4255839493
 20
961.7506222531
 30
0.0
 40
5.0
100
AcDbArc
 50
0.0
 51
90.0
  0
LINE
  5
515
330
1F
100
AcDbEntity
  8
0
  6
Continuous
 62
     7
370
    25
100
AcDbLine
 10
1697.4255839493
 20
966.7506222531
 30
0.0
 11
1665.4255839493
 21
966.7506222531
 31
0.0
  0
ARC
  5
516
330
1F
100
AcDbEntity
  8
0
  6
Continuous
 62
     7
370
    25
100
AcDbCircle
 10
1760.4255839493
 20
848.2506222531
 30
0.0
 40
30.00000000000023
100
AcDbArc
 50
90.0
 51
180.0
  0
LINE
  5
517
330
1F
100
AcDbEntity
  8
0
  6
Continuous
 62
     7
370
    25
100
AcDbLine
 10
1730.4255839493
 20
848.2506222531
 30
0.0
 11
1730.4255839493
 21
412.2506222531
 31
0.0
  0
ARC
  5
518
330
1F
100
AcDbEntity
  8
0
  6
Continuous
 62
     7
370
    25
100
AcDbCircle
 10
1760.4255839493
 20
412.2506222531
 30
0.0
 40
30.0
100
AcDbArc
 50
180.0
 51
270.0
  0
LINE
  5
519
330
1F
100
AcDbEntity
  8
0
  6
Continuous
 62
     7
370
    25
100
AcDbLine
 10
1760.4255839493
 20
382.2506222531
 30
0.0
 11
2120.4255839493
 21
382.2506222531
 31
0.0
  0
ARC
  5
51A
330
1F
100
AcDbEntity
  8
0
  6
Continuous
 62
     7
370
    25
100
AcDbCircle
 10
2120.4255839493
 20
412.2506222531
 30
0.0
 40
30.00000000000045
100
AcDbArc
 50
270.0
 51
0.0
  0
LINE
  5
51B
330
1F
100
AcDbEntity
  8
0
  6
Continuous
 62
     7
370
    25
100
AcDbLine
 10
2150.4255839493
 20
412.2506222531
 30
0.0
 11
2150.4255839493
 21
848.2506222531
 31
0.0
  0
ARC
  5
51C
330
1F
100
AcDbEntity
  8
0
  6
Continuous
 62
     7
370
    25
100
AcDbCircle
 10
2120.4255839493
 20
848.2506222531
 30
0.0
 40
30.00000000000045
100
AcDbArc
 50
0.0
 51
90.0
  0
LINE
  5
51D
330
1F
100
AcDbEntity
  8
0
  6
Continuous
 62
     7
370
    25
100
AcDbLine
 10
2120.4255839493
 20
878.2506222531
 30
0.0
 11
1760.4255839493
 21
878.2506222531
 31
0.0
  0
CIRCLE
  5
51E
330
1F
100
AcDbEntity
  8
0
  6
Continuous
 62
     7
370
    25
100
AcDbCircle
 10
1681.8255839493
 20
888.2506222531
 30
0.0
 40
10.0
  0
CIRCLE
  5
51F
330
1F
100
AcDbEntity
  8
0
  6
Continuous
 62
     7
370
    25
100
AcDbCircle
 10
2199.0255839493
 20
398.2506222531
 30
0.0
 40
10.0
  0
CIRCLE
  5
520
330
1F
100
AcDbEntity
  8
0
  6
Continuous
 62
     7
370
    25
100
AcDbCircle
 10
1681.8255839493
 20
398.2506222531
 30
0.0
 40
10.0
  0
CIRCLE
  5
521
330
1F
100
AcDbEntity
  8
0
  6
Continuous
 62
     7
370
    25
100
AcDbCircle
 10
2199.0255839493
 20
888.2506222531
 30
0.0
 40
10.0
  0
LINE
  5
522
330
1F
100
AcDbEntity
  8
0
  6
Continuous
 62
     7
370
    25
100
AcDbLine
 10
2120.4255839493
 20
876.2506222531
 30
0.0
 11
1760.4255839493
 21
876.2506222531
 31
0.0
  0
ARC
  5
523
330
1F
100
AcDbEntity
  8
0
  6
Continuous
 62
     7
370
    25
100
AcDbCircle
 10
2120.4255839493
 20
848.2506222531
 30
0.0
 40
28.0
100
AcDbArc
 50
0.0
 51
90.0
  0
LINE
  5
524
330
1F
100
AcDbEntity
  8
0
  6
Continuous
 62
     7
370
    25
100
AcDbLine
 10
2148.4255839493
 20
412.2506222531
 30
0.0
 11
2148.4255839493
 21
848.2506222531
 31
0.0
  0
ARC
  5
525
330
1F
100
AcDbEntity
  8
0
  6
Continuous
 62
     7
370
    25
100
AcDbCircle
 10
2120.4255839493
 20
412.2506222531
 30
0.0
 40
28.0
100
AcDbArc
 50
270.0
 51
0.0
  0
LINE
  5
526
330
1F
100
AcDbEntity
  8
0
  6
Continuous
 62
     7
370
    25
100
AcDbLine
 10
1760.4255839493
 20
384.2506222531
 30
0.0
 11
2120.4255839493
 21
384.2506222531
 31
0.0
  0
ARC
  5
527
330
1F
100
AcDbEntity
  8
0
  6
Continuous
 62
     7
370
    25
100
AcDbCircle
 10
1760.4255839493
 20
412.2506222531
 30
0.0
 40
28.0
100
AcDbArc
 50
180.0
 51
270.0
  0
LINE
  5
528
330
1F
100
AcDbEntity
  8
0
  6
Continuous
 62
     7
370
    25
100
AcDbLine
 10
1732.4255839493
 20
848.2506222531
 30
0.0
 11
1732.4255839493
 21
412.2506222531
 31
0.0
  0
ARC
  5
529
330
1F
100
AcDbEntity
  8
0
  6
Continuous
 62
     7
370
    25
100
AcDbCircle
 10
1760.4255839493
 20
848.2506222531
 30
0.0
 40
28.0
100
AcDbArc
 50
90.0
 51
180.0
  0
CIRCLE
  5
52A
330
1F
100
AcDbEntity
  8
0
  6
Continuous
 62
     7
370
    25
100
AcDbCircle
 10
1772.4255839493
 20
868.2506222531
 30
0.0
 40
5.200000000000045
  0
CIRCLE
  5
52B
330
1F
100
AcDbEntity
  8
0
  6
Continuous
 62
     7
370
    25
100
AcDbCircle
 10
1740.4255839493
 20
561.5839555865
 30
0.0
 40
5.200000000000045
  0
CIRCLE
  5
52C
330
1F
100
AcDbEntity
  8
0
  6
Continuous
 62
     7
370
    25
100
AcDbCircle
 10
1740.4255839493
 20
424.2506222531
 30
0.0
 40
5.199999999999989
  0
CIRCLE
  5
52D
330
1F
100
AcDbEntity
  8
0
  6
Continuous
 62
     7
370
    25
100
AcDbCircle
 10
1772.4255839493
 20
392.2506222531
 30
0.0
 40
5.199999999999932
  0
CIRCLE
  5
52E
330
1F
100
AcDbEntity
  8
0
  6
Continuous
 62
     7
370
    25
100
AcDbCircle
 10
1940.4255839493
 20
392.2506222531
 30
0.0
 40
5.199999999999932
  0
CIRCLE
  5
52F
330
1F
100
AcDbEntity
  8
0
  6
Continuous
 62
     7
370
    25
100
AcDbCircle
 10
2140.4255839493
 20
424.2506222531
 30
0.0
 40
5.199999999999875
  0
CIRCLE
  5
530
330
1F
100
AcDbEntity
  8
0
  6
Continuous
 62
     7
370
    25
100
AcDbCircle
 10
1740.4255839493
 20
836.2506222531
 30
0.0
 40
5.200000000000045
  0
CIRCLE
  5
531
330
1F
100
AcDbEntity
  8
0
  6
Continuous
 62
     7
370
    25
100
AcDbCircle
 10
1740.4255839493
 20
698.9172889198
 30
0.0
 40
5.200000000000045
  0
CIRCLE
  5
532
330
1F
100
AcDbEntity
  8
0
  6
Continuous
 62
     7
370
    25
100
AcDbCircle
 10
2140.4255839493
 20
698.9172889198
 30
0.0
 40
5.200000000000045
  0
CIRCLE
  5
533
330
1F
100
AcDbEntity
  8
0
  6
Continuous
 62
     7
370
    25
100
AcDbCircle
 10
2140.4255839493
 20
836.2506222531
 30
0.0
 40
5.199999999999932
  0
CIRCLE
  5
534
330
1F
100
AcDbEntity
  8
0
  6
Continuous
 62
     7
370
    25
100
AcDbCircle
 10
1940.4255839493
 20
868.2506222531
 30
0.0
 40
5.200000000000045
  0
CIRCLE
  5
535
330
1F
100
AcDbEntity
  8
0
  6
Continuous
 62
     7
370
    25
100
AcDbCircle
 10
2108.4255839493
 20
868.2506222531
 30
0.0
 40
5.200000000000045
  0
CIRCLE
  5
536
330
1F
100
AcDbEntity
  8
0
  6
Continuous
 62
     7
370
    25
100
AcDbCircle
 10
2140.4255839493
 20
561.5839555865
 30
0.0
 40
5.200000000000045
  0
CIRCLE
  5
537
330
1F
100
AcDbEntity
  8
0
  6
Continuous
 62
     7
370
    25
100
AcDbCircle
 10
2108.4255839493
 20
392.2506222531
 30
0.0
 40
5.199999999999932
  0
CIRCLE
  5
538
330
1F
100
AcDbEntity
  8
0
  6
Continuous
 62
     7
370
    25
100
AcDbCircle
 10
2108.4255839493
 20
392.2506222531
 30
0.0
 40
4.199999999999989
  0
CIRCLE
  5
539
330
1F
100
AcDbEntity
  8
0
  6
Continuous
 62
     7
370
    25
100
AcDbCircle
 10
1681.8255839493
 20
398.2506222531
 30
0.0
 40
5.500000000000057
  0
CIRCLE
  5
53A
330
1F
100
AcDbEntity
  8
0
  6
Continuous
 62
     7
370
    25
100
AcDbCircle
 10
1772.4255839493
 20
392.2506222531
 30
0.0
 40
4.199999999999989
  0
CIRCLE
  5
53B
330
1F
100
AcDbEntity
  8
0
  6
Continuous
 62
     7
370
    25
100
AcDbCircle
 10
2199.0255839493
 20
398.2506222531
 30
0.0
 40
5.500000000000057
  0
CIRCLE
  5
53C
330
1F
100
AcDbEntity
  8
0
  6
Continuous
 62
     7
370
    25
100
AcDbCircle
 10
1940.4255839493
 20
392.2506222531
 30
0.0
 40
4.199999999999989
  0
CIRCLE
  5
53D
330
1F
100
AcDbEntity
  8
0
  6
Continuous
 62
     7
370
    25
100
AcDbCircle
 10
2140.4255839493
 20
424.2506222531
 30
0.0
 40
4.199999999999761
  0
CIRCLE
  5
53E
330
1F
100
AcDbEntity
  8
0
  6
Continuous
 62
     7
370
    25
100
AcDbCircle
 10
1740.4255839493
 20
424.2506222531
 30
0.0
 40
4.199999999999818
  0
CIRCLE
  5
53F
330
1F
100
AcDbEntity
  8
0
  6
Continuous
 62
     7
370
    25
100
AcDbCircle
 10
1740.4255839493
 20
561.5839555865
 30
0.0
 40
4.199999999999818
  0
CIRCLE
  5
540
330
1F
100
AcDbEntity
  8
0
  6
Continuous
 62
     7
370
    25
100
AcDbCircle
 10
2140.4255839493
 20
561.5839555865
 30
0.0
 40
4.199999999999932
  0
CIRCLE
  5
541
330
1F
100
AcDbEntity
  8
0
  6
Continuous
 62
     7
370
    25
100
AcDbCircle
 10
2140.4255839493
 20
698.9172889198
 30
0.0
 40
4.200000000000159
  0
CIRCLE
  5
542
330
1F
100
AcDbEntity
  8
0
  6
Continuous
 62
     7
370
    25
100
AcDbCircle
 10
1740.4255839493
 20
698.9172889198
 30
0.0
 40
4.200000000000045
  0
CIRCLE
  5
543
330
1F
100
AcDbEntity
  8
0
  6
Continuous
 62
     7
370
    25
100
AcDbCircle
 10
1740.4255839493
 20
836.2506222531
 30
0.0
 40
4.199999999999932
  0
CIRCLE
  5
544
330
1F
100
AcDbEntity
  8
0
  6
Continuous
 62
     7
370
    25
100
AcDbCircle
 10
2140.4255839493
 20
836.2506222531
 30
0.0
 40
4.199999999999818
  0
CIRCLE
  5
545
330
1F
100
AcDbEntity
  8
0
  6
Continuous
 62
     7
370
    25
100
AcDbCircle
 10
1940.4255839493
 20
868.2506222531
 30
0.0
 40
4.200000000000159
  0
CIRCLE
  5
546
330
1F
100
AcDbEntity
  8
0
  6
Continuous
 62
     7
370
    25
100
AcDbCircle
 10
2108.4255839493
 20
868.2506222531
 30
0.0
 40
4.200000000000159
  0
CIRCLE
  5
547
330
1F
100
AcDbEntity
  8
0
  6
Continuous
 62
     7
370
    25
100
AcDbCircle
 10
1772.4255839493
 20
868.2506222531
 30
0.0
 40
4.200000000000159
  0
CIRCLE
  5
548
330
1F
100
AcDbEntity
  8
0
  6
Continuous
 62
     7
370
    25
100
AcDbCircle
 10
1681.8255839493
 20
888.2506222531
 30
0.0
 40
5.5
  0
CIRCLE
  5
549
330
1F
100
AcDbEntity
  8
0
  6
Continuous
 62
     7
370
    25
100
AcDbCircle
 10
2199.0255839493
 20
888.2506222531
 30
0.0
 40
5.5
  0
LINE
  5
54A
330
1F
100
AcDbEntity
  8
SLD-0
100
AcDbLine
 10
1681.8255839493
 20
888.2506222531
 30
0.0
 11
2199.0255839493
 21
888.2506222531
 31
0.0
  0
LINE
  5
54B
330
1F
100
AcDbEntity
  8
SLD-0
100
AcDbLine
 10
2199.0255839493
 20
888.2506222531
 30
0.0
 11
2199.0255839493
 21
398.2506222531
 31
0.0
  0
LINE
  5
54C
330
1F
100
AcDbEntity
  8
SLD-0
100
AcDbLine
 10
2199.0255839493
 20
398.2506222531
 30
0.0
 11
1681.8255839493
 21
398.2506222531
 31
0.0
  0
LINE
  5
54D
330
1F
100
AcDbEntity
  8
SLD-0
100
AcDbLine
 10
1681.8255839493
 20
398.2506222531
 30
0.0
 11
1681.8255839493
 21
888.2506222531
 31
0.0
  0
DIMENSION
  5
54E
330
1F
100
AcDbEntity
  8
SLD-0
100
AcDbDimension
  2
_D_27
 10
2481.4255839493
 20
398.2506222531
 30
0.0
 11
2481.4255839493
 21
643.2506222531
 31
0.0
 70
   160
  1
<>
 71
     2
 42
-1.0
  3
SLDDIMSTYLE2
100
AcDbAlignedDimension
 13
2210.5255839493
 23
888.2506222531
 33
0.0
 14
2210.5255839493
 24
398.2506222531
 34
0.0
 50
90.0
100
AcDbRotatedDimension
  0
DIMENSION
  5
562
330
1F
100
AcDbEntity
  8
SLD-0
100
AcDbDimension
  2
_D_28
 10
2199.0255839493
 20
1075.7121075789
 30
0.0
 11
1940.4255839493
 21
1075.7121075789
 31
0.0
 70
   160
  1
<>
 71
     2
 42
-1.0
  3
SLDDIMSTYLE7
100
AcDbAlignedDimension
 13
1681.8255839493
 23
899.7506222531
 33
0.0
 14
2199.0255839493
 24
899.7506222531
 34
0.0
100
AcDbRotatedDimension
  0
DIMENSION
  5
576
330
1F
100
AcDbEntity
  8
SLD-0
100
AcDbDimension
  2
_D_29
 10
2239.4255839493
 20
1075.7121075789
 30
0.0
 11
2349.4255839493
 21
1075.7121075789
 31
0.0
 70
   160
  1
<>
 71
     2
 42
-1.0
  3
SLDDIMSTYLE4
100
AcDbAlignedDimension
 13
2199.0255839493
 23
899.7506222531
 33
0.0
 14
2239.4255839493
 24
988.2506222531
 34
0.0
100
AcDbRotatedDimension
  0
DIMENSION
  5
58A
330
1F
100
AcDbEntity
  8
SLD-0
100
AcDbDimension
  2
_D_30
 10
2481.4255839493
 20
888.2506222531
 30
0.0
 11
2481.4255839493
 21
1075.7121075789
 31
0.0
 70
   160
  1
<>
 71
     2
 42
-1.0
  3
SLDDIMSTYLE2
100
AcDbAlignedDimension
 13
2239.4255839493
 23
988.2506222531
 33
0.0
 14
2210.5255839493
 24
888.2506222531
 34
0.0
 50
90.0
100
AcDbRotatedDimension
  0
DIMENSION
  5
59F
330
1F
100
AcDbEntity
  8
SLD-0
100
AcDbDimension
  2
_D_31
 10
1356.5664791455
 20
298.2506222531
 30
0.0
 11
1356.5664791455
 21
643.2506222531
 31
0.0
 70
   160
  1
<>
 71
     2
 42
-1.0
  3
SLDDIMSTYLE2
100
AcDbAlignedDimension
 13
1641.4255839493
 23
988.2506222531
 33
0.0
 14
1641.4255839493
 24
298.2506222531
 34
0.0
 50
90.0
100
AcDbRotatedDimension
  0
INSERT
  5
5BB
102
{ACAD_REACTORS
330
5BC
102
}
330
1F
100
AcDbEntity
  8
SLD-0
100
AcDbBlockReference
  2
SW_NOTE_0_6
 10
1559.5984943538
 20
488.582183187
 30
0.0
  0
LEADER
  5
5BC
330
1F
100
AcDbEntity
  8
SLD-0
100
AcDbLeader
  3
SLDDIMSTYLE5
 73
     2
 76
     3
 10
1673.7068803208
 20
404.0889997154
 30
0.0
 10
1581.5984943538
 20
488.582183187
 30
0.0
 10
1559.5984943538
 20
488.582183187
 30
0.0
340
5BB
  0
MTEXT
  5
5BD
330
1F
100
AcDbEntity
  8
SLD-0
100
AcDbMText
 10
1441.8415608139
 20
500.3548999587
 30
0.0
 40
26.19375
 41
0.0
 71
     1
 72
     1
  1
4X
  7
SLDTEXTSTYLE0
 73
     1
 44
1.0
  0
INSERT
  5
5C9
330
1F
100
AcDbEntity
  8
SLD-0
100
AcDbBlockReference
  2
SW_CENTERMARKSYMBOL_12
 10
2199.0255839493
 20
888.2506222531
 30
0.0
  0
INSERT
  5
5D5
330
1F
100
AcDbEntity
  8
SLD-0
100
AcDbBlockReference
  2
SW_CENTERMARKSYMBOL_13
 10
2199.0255839493
 20
398.2506222531
 30
0.0
  0
INSERT
  5
5E1
330
1F
100
AcDbEntity
  8
SLD-0
100
AcDbBlockReference
  2
SW_CENTERMARKSYMBOL_14
 10
1681.8255839493
 20
398.2506222531
 30
0.0
  0
INSERT
  5
5ED
330
1F
100
AcDbEntity
  8
SLD-0
100
AcDbBlockReference
  2
SW_CENTERMARKSYMBOL_15
 10
1681.8255839493
 20
888.2506222531
 30
0.0
  0
OLE2FRAME
  5
5EE
330
1F
100
AcDbEntity
  8
0
100
AcDbOle2Frame
 70
     2
  3
Picture (Enhanced Metafile)
 10
73.726045895
 20
171.2349990108
 30
0.0
 11
483.0625862216
 21
84.3661512244
 31
0.0
 71
     3
 72
     0
 73
     1
 90
     5248
310
805506973389776E52400D3BA51C856765400000000000000000E7ED685A0031
310
7E400D3BA51C856765400000000000000000E7ED685A00317E40EF908B056F17
310
5540000000000000000006973389776E5240EF908B056F175540000000000000
310
0000000000000100000000010000010000000100000000000100000000140000
310
D0CF11E0A1B11AE1000000000000000000000000000000003E000300FEFF0900
310
0600000000000000000000000100000001000000000000000010000002000000
310
01000000FEFFFFFF0000000000000000FFFFFFFFFFFFFFFFFFFFFFFFFFFFFFFF
310
FFFFFFFFFFFFFFFFFFFFFFFFFFFFFFFFFFFFFFFFFFFFFFFFFFFFFFFFFFFFFFFF
310
FFFFFFFFFFFFFFFFFFFFFFFFFFFFFFFFFFFFFFFFFFFFFFFFFFFFFFFFFFFFFFFF
310
FFFFFFFFFFFFFFFFFFFFFFFFFFFFFFFFFFFFFFFFFFFFFFFFFFFFFFFFFFFFFFFF
310
FFFFFFFFFFFFFFFFFFFFFFFFFFFFFFFFFFFFFFFFFFFFFFFFFFFFFFFFFFFFFFFF
310
FFFFFFFFFFFFFFFFFFFFFFFFFFFFFFFFFFFFFFFFFFFFFFFFFFFFFFFFFFFFFFFF
310
FFFFFFFFFFFFFFFFFFFFFFFFFFFFFFFFFFFFFFFFFFFFFFFFFFFFFFFFFFFFFFFF
310
FFFFFFFFFFFFFFFFFFFFFFFFFFFFFFFFFFFFFFFFFFFFFFFFFFFFFFFFFFFFFFFF
310
FFFFFFFFFFFFFFFFFFFFFFFFFFFFFFFFFFFFFFFFFFFFFFFFFFFFFFFFFFFFFFFF
310
FFFFFFFFFFFFFFFFFFFFFFFFFFFFFFFFFFFFFFFFFFFFFFFFFFFFFFFFFFFFFFFF
310
FFFFFFFFFFFFFFFFFFFFFFFFFFFFFFFFFFFFFFFFFFFFFFFFFFFFFFFFFFFFFFFF
310
FFFFFFFFFFFFFFFFFFFFFFFFFFFFFFFFFFFFFFFFFFFFFFFFFFFFFFFFFFFFFFFF
310
FFFFFFFFFFFFFFFFFFFFFFFFFFFFFFFFFFFFFFFFFFFFFFFFFFFFFFFFFFFFFFFF
310
FFFFFFFFFFFFFFFFFFFFFFFFFFFFFFFFFFFFFFFFFFFFFFFFFFFFFFFFFFFFFFFF
310
FDFFFFFFFEFFFFFFFEFFFFFF0400000005000000060000000700000008000000
310
FEFFFFFFFFFFFFFFFFFFFFFFFFFFFFFFFFFFFFFFFFFFFFFFFFFFFFFFFFFFFFFF
310
FFFFFFFFFFFFFFFFFFFFFFFFFFFFFFFFFFFFFFFFFFFFFFFFFFFFFFFFFFFFFFFF
310
FFFFFFFFFFFFFFFFFFFFFFFFFFFFFFFFFFFFFFFFFFFFFFFFFFFFFFFFFFFFFFFF
310
FFFFFFFFFFFFFFFFFFFFFFFFFFFFFFFFFFFFFFFFFFFFFFFFFFFFFFFFFFFFFFFF
310
FFFFFFFFFFFFFFFFFFFFFFFFFFFFFFFFFFFFFFFFFFFFFFFFFFFFFFFFFFFFFFFF
310
FFFFFFFFFFFFFFFFFFFFFFFFFFFFFFFFFFFFFFFFFFFFFFFFFFFFFFFFFFFFFFFF
310
FFFFFFFFFFFFFFFFFFFFFFFFFFFFFFFFFFFFFFFFFFFFFFFFFFFFFFFFFFFFFFFF
310
FFFFFFFFFFFFFFFFFFFFFFFFFFFFFFFFFFFFFFFFFFFFFFFFFFFFFFFFFFFFFFFF
310
FFFFFFFFFFFFFFFFFFFFFFFFFFFFFFFFFFFFFFFFFFFFFFFFFFFFFFFFFFFFFFFF
310
FFFFFFFFFFFFFFFFFFFFFFFFFFFFFFFFFFFFFFFFFFFFFFFFFFFFFFFFFFFFFFFF
310
FFFFFFFFFFFFFFFFFFFFFFFFFFFFFFFFFFFFFFFFFFFFFFFFFFFFFFFFFFFFFFFF
310
FFFFFFFFFFFFFFFFFFFFFFFFFFFFFFFFFFFFFFFFFFFFFFFFFFFFFFFFFFFFFFFF
310
FFFFFFFFFFFFFFFFFFFFFFFFFFFFFFFFFFFFFFFFFFFFFFFFFFFFFFFFFFFFFFFF
310
FFFFFFFFFFFFFFFFFFFFFFFFFFFFFFFFFFFFFFFFFFFFFFFFFFFFFFFFFFFFFFFF
310
FFFFFFFFFFFFFFFFFFFFFFFFFFFFFFFFFFFFFFFFFFFFFFFFFFFFFFFFFFFFFFFF
310
52006F006F007400200045006E00740072007900000000000000000000000000
310
0000000000000000000000000000000000000000000000000000000000000000
310
16000500FFFFFFFFFFFFFFFF020000001903000000000000C000000000000046
310
000000000000000000000000F05644C1BFB2DA0103000000000C000000000000
310
01004F006C006500000000000000000000000000000000000000000000000000
310
0000000000000000000000000000000000000000000000000000000000000000
310
0A000200FFFFFFFFFFFFFFFFFFFFFFFF00000000000000000000000000000000
310
0000000000000000000000000000000000000000000000001400000000000000
310
010043006F006D0070004F0062006A0000000000000000000000000000000000
310
0000000000000000000000000000000000000000000000000000000000000000
310
120002010100000003000000FFFFFFFF00000000000000000000000000000000
310
0000000000000000000000000000000000000000010000005800000000000000
310
43004F004E00540045004E005400530000000000000000000000000000000000
310
0000000000000000000000000000000000000000000000000000000000000000
310
12000200FFFFFFFFFFFFFFFFFFFFFFFF00000000000000000000000000000000
310
000000000000000000000000000000000000000003000000040B000000000000
310
FEFFFFFF02000000FEFFFFFF0400000005000000060000000700000008000000
310
090000000A0000000B0000000C0000000D0000000E0000000F00000010000000
310
1100000012000000130000001400000015000000160000001700000018000000
310
190000001A0000001B0000001C0000001D0000001E0000001F00000020000000
310
2100000022000000230000002400000025000000260000002700000028000000
310
290000002A0000002B0000002C0000002D0000002E0000002F000000FEFFFFFF
310
FFFFFFFFFFFFFFFFFFFFFFFFFFFFFFFFFFFFFFFFFFFFFFFFFFFFFFFFFFFFFFFF
310
FFFFFFFFFFFFFFFFFFFFFFFFFFFFFFFFFFFFFFFFFFFFFFFFFFFFFFFFFFFFFFFF
310
FFFFFFFFFFFFFFFFFFFFFFFFFFFFFFFFFFFFFFFFFFFFFFFFFFFFFFFFFFFFFFFF
310
FFFFFFFFFFFFFFFFFFFFFFFFFFFFFFFFFFFFFFFFFFFFFFFFFFFFFFFFFFFFFFFF
310
FFFFFFFFFFFFFFFFFFFFFFFFFFFFFFFFFFFFFFFFFFFFFFFFFFFFFFFFFFFFFFFF
310
FFFFFFFFFFFFFFFFFFFFFFFFFFFFFFFFFFFFFFFFFFFFFFFFFFFFFFFFFFFFFFFF
310
FFFFFFFFFFFFFFFFFFFFFFFFFFFFFFFFFFFFFFFFFFFFFFFFFFFFFFFFFFFFFFFF
310
FFFFFFFFFFFFFFFFFFFFFFFFFFFFFFFFFFFFFFFFFFFFFFFFFFFFFFFFFFFFFFFF
310
FFFFFFFFFFFFFFFFFFFFFFFFFFFFFFFFFFFFFFFFFFFFFFFFFFFFFFFFFFFFFFFF
310
FFFFFFFFFFFFFFFFFFFFFFFFFFFFFFFFFFFFFFFFFFFFFFFFFFFFFFFFFFFFFFFF
310
0100000200000000000000000000000000000000000000000000000000000000
310
0000000000000000000000000000000000000000000000000000000000000000
310
0100FEFF030A0000FFFFFFFF1903000000000000C0000000000000461C000000
310
506963747572652028456E68616E636564204D65746166696C652900FFFFFFFF
310
0E00000000000000F439B2710000000000000000000000000000000000000000
310
0000000000000000000000000000000000000000000000000000000000000000
310
74000000010000006C000000FD0A000094000000870B0000B200000062570100
310
111200003B680100BB15000020454D46000001008C0A00003800000003000000
310
0D0000005800000000000000000400000003000040010000F000000041006400
310
6F00620065002000530079007300740069260000000000000100000074000000
310
FD0A000094000000870B0000B200000062570100111200003B680100BB150000
310
20454D46000001008C0A000038000000030000000D0000005800000000000000
310
000400000003000040010000F0000000410064006F0062006500200053007900
310
7300740065006D0073000000110000000C00000008000000120000000C000000
310
010000000A0000001000000000000000000000000C0000001000000000000000
310
000000000900000010000000D7040000110100000B000000100000009D010000
310
5B000000130000000C0000000200000027000000180000000100000000000000
310
0000000000000000250000000C000000010000005F0000003400000002000000
310
2C000000000000002C0000000000000005000000000000000000000000000000
310
0000000000000000250000000C000000020000003B000000080000001B000000
310
100000003D210000F20100005800000048010000FC0A000093000000190B0000
310
B30000004B0000004921F9014921F9014921F9014921DA014921DA014921DA01
310
4921D5014621D0014221CD012821BE012821BE012821BE012321BB011D21BB01
310
1821BE01FE20CD01FE20CD01FE20CD01FA20D001F720D501F720DA01F720F801
310
F720F801F720F801F720FE01FA200302FE200602182115021821150218211502
310
1D21170223211702282115024321050243210502432105023721FE013721FE01
310
3721FE013521FD013521FD013521FD0122210902222109022221090221210902
310
1F2109021E2109020621FA010621FA010621FA010521FA010421F9010421F701
310
0421DB010421DB010421DB010421DA010521D9010621D8011E21CA011E21CA01
310
1E21CA011F21CA012121CA012221CA013A21D8013A21D8013A21D8013B21D901
310
3C21DA013C21DB013C21F2013C21F2013C21F2013D000000080000003C000000
310
080000003E000000180000009F8601009F8601006179FEFF6179FEFF13000000
310
0C000000020000003B000000080000001B000000100000002F210000E4010000
310
58000000C4000000050B00009D000000100B0000A90000002A0000002F21EF01
310
2F21EF012F21EF012F21F1012E21F2012C21F3012321F9012321F9012321F901
310
2221FA012121FA012021FA011F21FA011E21FA011D21F9011421F4011421F401
310
1421F4011221F3011121F1011121EF011121E4011121E4011121E4011121E201
310
1221E0011321DF011D21DA011D21DA011D21DA011E21D9011F21D9012021D901
310
2121D9012221D9012321DA012C21DF012C21DF012C21DF012E21E0012F21E201
310
2F21E4013D000000080000003C000000080000003E000000180000009F860100
310
9F8601006179FEFF6179FEFF130000000C000000020000005B00000038000000
310
3D0B0000A3000000430B0000A6000000010000000500000005000000B821F001
310
C821F001C821EB01B821EB01B821F001130000000C000000020000003B000000
310
080000001B0000001000000004220000E70100005800000084010000450B0000
310
9B000000590B0000AA0000005A0000000122E601FD21E501F621E501E421E501
310
E421E501E421E501D921E501D921E301D921E001D921DD01DA21DB01DC21DA01
310
DE21DA01E221D901E921D901EF21D901EF21D901EF21D9010022D9010022DB01
310
0022E0010022E1010022E1010022E1010722E1010722E1010722E1010722DF01
310
0722DF010722DF010722DB010622D8010322D6010022D401FB21D401F321D401
310
E521D401E521D401E521D401D921D401D121D601D121DF01D121E501D321E801
310
D721E901DB21EB01E221EB01EC21EB01F821EB01F821EB01F821EB010022EB01
310
0122ED010122F1010122F5010022F701F621F701E221F701E221F701E221F701
310
DA21F701D921F501D921F201D921EF01D921EF01D921EF01D121EF01D121EF01
310
D121EF01D121F201D121F201D121F201D121FC01DB21FD01E421FD01F521FD01
310
F521FD01F521FD01F921FD01FE21FD010222FB010622FA010922F6010922F201
310
0922EF010922EF010922EF010922EC010722E9010422E7013C00000008000000
310
3E000000180000009F8601009F8601006179FEFF6179FEFF130000000C000000
310
020000005B0000004C000000590B00009B0000006F0B0000AA00000001000000
310
0A0000000A0000002C22E6011722D4010C22D4012822EC012822FC013022FC01
310
3022EC014C22D4014122D4012C22E601130000000C000000020000003B000000
310
080000001B0000001000000082220000E701000058000000780100006F0B0000
310
9B000000830B0000AA000000570000007F22E6017B22E5017422E5016122E501
310
6122E5016122E5015722E5015722E3015722E0015722DB015822D9016622D901
310
6D22D9016D22D9016D22D9017E22D9017E22DB017E22E0017E22E1017E22E101
310
7E22E1018522E1018522E1018522E1018522DF018522DF018522DF018522DB01
310
8422D8018122D6017E22D4017922D4017122D4016322D4016322D4016322D401
310
5722D4014F22D6014F22DF014F22E5015122E8015522E9015922EB015F22EB01
310
6A22EB017622EB017622EB017622EB017E22EB017F22ED017F22F1017F22F501
310
7D22F7017422F7016022F7016022F7016022F7015822F7015722F5015722F201
310
5722EF015722EF015722EF014F22EF014F22EF014F22EF014F22F2014F22F201
310
4F22F2014F22FC015822FD016122FD017322FD017322FD017322FD017722FD01
310
7C22FD018022FB018422FA018622F6018622F2018622EF018622EF018622EF01
310
8622EC018522E9018222E7013C000000080000003E000000180000009F860100
310
9F8601006179FEFF6179FEFF130000000C000000020000005B00000038000000
310
300B0000A6000000340B0000AC00000001000000050000000500000093210202
310
9A2102029A21F3019321F30193210202130000000C000000020000003B000000
310
080000001B000000100000009B210000D40100005800000018010000240B0000
310
9B0000003A0B0000AA0000003F0000008021D4018021D4018021D4017421D401
310
6F21D8016F21E3016F21EE016F21EE016F21EE016F21F8017421FD018021FD01
310
8F21FD018F21FD018F21FD018F21F7018F21F7018F21F7018121F7018121F701
310
8121F7017921F7017621F5017621F0017621E1017621E1017621E1017621DC01
310
7921D9018121D9019A21D9019A21D9019A21D901A121D901A421DC01A421E101
310
A421F001A421F001A421F001A421F401A321F6019E21F7019E21F7019E21F701
310
9E21F7019E21FD019E21FD019E21FD019F21FD019F21FD019F21FD01A421FC01
310
A721FB01A921F801AB21F601AC21F201AC21EE01AC21E301AC21E301AC21E301
310
AC21D801A721D4019B21D4013C000000080000003E000000180000009F860100
310
9F8601006179FEFF6179FEFF130000000C000000020000005B0000006C000000
310
840B00009B000000870B00009F0000000100000012000000120000009222D401
310
9122D8019022D4018E22D4018E22DA018F22DA018F22D6018F22D5019022D601
310
9122DA019122DA019222D6019322D5019322D6019322DA019422DA019422D401
310
9222D401130000000C000000020000005B00000048000000830B00009B000000
310
850B00009F0000000100000009000000090000008A22D5018B22D5018B22DA01
310
8C22DA018C22D5018E22D5018E22D4018A22D4018A22D501280000000C000000
310
01000000280000000C000000020000000E000000140000000000000010000000
310
1400000000000000000000000000000000000000000000000000000000000000
310
0000000000000000000000000000000000000000000000000000000000000000
  1
OLE
  0
ENDSEC
  0
SECTION
  2
OBJECTS
  0
DICTIONARY
  5
C
330
0
100
AcDbDictionary
281
     1
  3
ACAD_GROUP
350
D
  3
ACAD_LAYOUT
350
1A
  3
ACAD_MLINESTYLE
350
17
  3
ACAD_PLOTSETTINGS
350
19
  3
ACAD_PLOTSTYLENAME
350
E
  3
ACAD_SCALELIST
350
47
  3
DWGPROPS
350
5EF
  0
DICTIONARY
  5
D
102
{ACAD_REACTORS
330
C
102
}
330
C
100
AcDbDictionary
281
     1
  0
DICTIONARY
  5
1A
102
{ACAD_REACTORS
330
C
102
}
330
C
100
AcDbDictionary
281
     1
  3
Layout1
350
1E
  3
Layout2
350
26
  3
Model
350
22
  0
DICTIONARY
  5
17
102
{ACAD_REACTORS
330
C
102
}
330
C
100
AcDbDictionary
281
     1
  3
Standard
350
18
  0
DICTIONARY
  5
19
102
{ACAD_REACTORS
330
C
102
}
330
C
100
AcDbDictionary
281
     1
  0
ACDBDICTIONARYWDFLT
  5
E
102
{ACAD_REACTORS
330
C
102
}
330
C
100
AcDbDictionary
281
     1
  3
Normal
350
F
100
AcDbDictionaryWithDefault
340
F
  0
DICTIONARY
  5
47
102
{ACAD_REACTORS
330
C
102
}
330
C
100
AcDbDictionary
281
     1
  3
A0
350
48
  3
A1
350
49
  3
A2
350
4A
  3
A3
350
4B
  3
A4
350
4C
  3
A5
350
4D
  3
A6
350
4E
  3
A7
350
4F
  3
A8
350
50
  3
A9
350
51
  3
B0
350
52
  3
B1
350
53
  3
B2
350
54
  3
B3
350
55
  3
B4
350
56
  3
B5
350
57
  3
B6
350
58
  0
XRECORD
  5
5EF
102
{ACAD_REACTORS
330
C
102
}
330
C
100
AcDbXrecord
280
     1
  1
DWGPROPS COOKIE
  2

  3

  4

  6

  7

  8
Kevin.Castro
  9

300
=
301
=
302
=
303
=
304
=
305
=
306
=
307
=
308
=
309
=
 40
0.0
 41
2460461.772693947
 42
2460461.772699051
  1

 90
        0
  0
LAYOUT
  5
1E
102
{ACAD_REACTORS
330
1A
102
}
330
1A
100
AcDbPlotSettings
  1

  2
none_device
  4

  6

 40
0.0
 41
0.0
 42
0.0
 43
0.0
 44
0.0
 45
0.0
 46
0.0
 47
0.0
 48
0.0
 49
0.0
140
0.0
141
0.0
142
1.0
143
1.0
 70
   688
 72
     1
 73
     0
 74
     5
  7

 75
    16
147
1.0
148
0.0
149
0.0
100
AcDbLayout
  1
Layout1
 70
     1
 71
     1
 10
0.0
 20
0.0
 11
420.0
 21
297.0
 12
0.0
 22
0.0
 32
0.0
 14
1.0000000000E+20
 24
1.0000000000E+20
 34
1.0000000000E+20
 15
-1.0000000000E+20
 25
-1.0000000000E+20
 35
-1.0000000000E+20
146
0.0
 13
0.0
 23
0.0
 33
0.0
 16
1.0
 26
0.0
 36
0.0
 17
0.0
 27
1.0
 37
0.0
 76
     0
330
1B
  0
LAYOUT
  5
26
102
{ACAD_REACTORS
330
1A
102
}
330
1A
100
AcDbPlotSettings
  1

  2
none_device
  4

  6

 40
0.0
 41
0.0
 42
0.0
 43
0.0
 44
0.0
 45
0.0
 46
0.0
 47
0.0
 48
0.0
 49
0.0
140
0.0
141
0.0
142
1.0
143
1.0
 70
   688
 72
     1
 73
     0
 74
     5
  7

 75
    16
147
1.0
148
0.0
149
0.0
100
AcDbLayout
  1
Layout2
 70
     1
 71
     2
 10
0.0
 20
0.0
 11
0.0
 21
0.0
 12
0.0
 22
0.0
 32
0.0
 14
0.0
 24
0.0
 34
0.0
 15
0.0
 25
0.0
 35
0.0
146
0.0
 13
0.0
 23
0.0
 33
0.0
 16
1.0
 26
0.0
 36
0.0
 17
0.0
 27
1.0
 37
0.0
 76
     0
330
23
  0
LAYOUT
  5
22
102
{ACAD_REACTORS
330
1A
102
}
330
1A
100
AcDbPlotSettings
  1

  2
none_device
  4
Letter_(8.50_x_11.00_Inches)
  6

 40
6.35
 41
6.35
 42
6.35000508
 43
6.35000508
 44
215.9
 45
279.4
 46
0.0
 47
0.0
 48
0.0
 49
0.0
140
0.0
141
0.0
142
1.0
143
1.0
 70
  1712
 72
     1
 73
     0
 74
     0
  7

 75
     0
147
1.0
148
0.0
149
0.0
100
AcDbLayout
  1
Model
 70
     1
 71
     0
 10
0.0
 20
0.0
 11
4749.8
 21
3073.4
 12
0.0
 22
0.0
 32
0.0
 14
0.0
 24
0.0
 34
0.0
 15
4749.8
 25
3073.4
 35
0.0
146
0.0
 13
0.0
 23
0.0
 33
0.0
 16
1.0
 26
0.0
 36
0.0
 17
0.0
 27
1.0
 37
0.0
 76
     0
330
1F
331
29
  0
MLINESTYLE
  5
18
102
{ACAD_REACTORS
330
17
102
}
330
17
100
AcDbMlineStyle
  2
Standard
 70
     0
  3

 62
   256
 51
90.0
 52
90.0
 71
     2
 49
0.5
 62
   256
  6
BYLAYER
 49
-0.5
 62
   256
  6
BYLAYER
  0
ACDBPLACEHOLDER
  5
F
102
{ACAD_REACTORS
330
E
102
}
330
E
  0
SCALE
  5
48
102
{ACAD_REACTORS
330
47
102
}
330
47
100
AcDbScale
 70
     0
300
1:1
140
1.0
141
1.0
290
     1
  0
SCALE
  5
49
102
{ACAD_REACTORS
330
47
102
}
330
47
100
AcDbScale
 70
     0
300
1:2
140
1.0
141
2.0
290
     0
  0
SCALE
  5
4A
102
{ACAD_REACTORS
330
47
102
}
330
47
100
AcDbScale
 70
     0
300
1:4
140
1.0
141
4.0
290
     0
  0
SCALE
  5
4B
102
{ACAD_REACTORS
330
47
102
}
330
47
100
AcDbScale
 70
     0
300
1:5
140
1.0
141
5.0
290
     0
  0
SCALE
  5
4C
102
{ACAD_REACTORS
330
47
102
}
330
47
100
AcDbScale
 70
     0
300
1:8
140
1.0
141
8.0
290
     0
  0
SCALE
  5
4D
102
{ACAD_REACTORS
330
47
102
}
330
47
100
AcDbScale
 70
     0
300
1:10
140
1.0
141
10.0
290
     0
  0
SCALE
  5
4E
102
{ACAD_REACTORS
330
47
102
}
330
47
100
AcDbScale
 70
     0
300
1:16
140
1.0
141
16.0
290
     0
  0
SCALE
  5
4F
102
{ACAD_REACTORS
330
47
102
}
330
47
100
AcDbScale
 70
     0
300
1:20
140
1.0
141
20.0
290
     0
  0
SCALE
  5
50
102
{ACAD_REACTORS
330
47
102
}
330
47
100
AcDbScale
 70
     0
300
1:30
140
1.0
141
30.0
290
     0
  0
SCALE
  5
51
102
{ACAD_REACTORS
330
47
102
}
330
47
100
AcDbScale
 70
     0
300
1:40
140
1.0
141
40.0
290
     0
  0
SCALE
  5
52
102
{ACAD_REACTORS
330
47
102
}
330
47
100
AcDbScale
 70
     0
300
1:50
140
1.0
141
50.0
290
     0
  0
SCALE
  5
53
102
{ACAD_REACTORS
330
47
102
}
330
47
100
AcDbScale
 70
     0
300
1:100
140
1.0
141
100.0
290
     0
  0
SCALE
  5
54
102
{ACAD_REACTORS
330
47
102
}
330
47
100
AcDbScale
 70
     0
300
2:1
140
2.0
141
1.0
290
     0
  0
SCALE
  5
55
102
{ACAD_REACTORS
330
47
102
}
330
47
100
AcDbScale
 70
     0
300
4:1
140
4.0
141
1.0
290
     0
  0
SCALE
  5
56
102
{ACAD_REACTORS
330
47
102
}
330
47
100
AcDbScale
 70
     0
300
8:1
140
8.0
141
1.0
290
     0
  0
SCALE
  5
57
102
{ACAD_REACTORS
330
47
102
}
330
47
100
AcDbScale
 70
     0
300
10:1
140
10.0
141
1.0
290
     0
  0
SCALE
  5
58
102
{ACAD_REACTORS
330
47
102
}
330
47
100
AcDbScale
 70
     0
300
100:1
140
100.0
141
1.0
290
     0
  0
ENDSEC
  0
EOF
