  0
SECTION
  2
HEADER
  9
$ACADVER
  1
AC1015
  9
$ACADMAINTVER
 70
     6
  9
$DWGCODEPAGE
  3
ANSI_1252
  9
$INSBASE
 10
0.0
 20
0.0
 30
0.0
  9
$EXTMIN
 10
0.0
 20
0.0
 30
0.0
  9
$EXTMAX
 10
3454.4
 20
2235.2
 30
0.0
  9
$LIMMIN
 10
0.0
 20
0.0
  9
$LIMMAX
 10
3454.4
 20
2235.2
  9
$ORTHOMODE
 70
     0
  9
$REGENMODE
 70
     1
  9
$FILLMODE
 70
     1
  9
$QTEXTMODE
 70
     0
  9
$MIRRTEXT
 70
     1
  9
$LTSCALE
 40
8.0
  9
$ATTMODE
 70
     1
  9
$TEXTSIZE
 40
25.4
  9
$TRACEWID
 40
1.0
  9
$TEXTSTYLE
  7
STANDARD
  9
$CLAYER
  8
0
  9
$CELTYPE
  6
ByLayer
  9
$CECOLOR
 62
   256
  9
$CELTSCALE
 40
1.0
  9
$DISPSILH
 70
     0
  9
$DIMSCALE
 40
1.0
  9
$DIMASZ
 40
16.0
  9
$DIMEXO
 40
6.096
  9
$DIMDLI
 40
3.75
  9
$DIMRND
 40
0.0
  9
$DIMDLE
 40
0.0
  9
$DIMEXE
 40
6.096
  9
$DIMTP
 40
0.0
  9
$DIMTM
 40
0.0
  9
$DIMTXT
 40
25.4
  9
$DIMCEN
 40
2.5
  9
$DIMTSZ
 40
0.0
  9
$DIMTOL
 70
     0
  9
$DIMLIM
 70
     0
  9
$DIMTIH
 70
     1
  9
$DIMTOH
 70
     1
  9
$DIMSE1
 70
     0
  9
$DIMSE2
 70
     0
  9
$DIMTAD
 70
     0
  9
$DIMZIN
 70
     1
  9
$DIMBLK
  1

  9
$DIMASO
 70
     1
  9
$DIMSHO
 70
     1
  9
$DIMPOST
  1

  9
$DIMAPOST
  1

  9
$DIMALT
 70
     0
  9
$DIMALTD
 70
     3
  9
$DIMALTF
 40
0.0393700787
  9
$DIMLFAC
 40
1.0
  9
$DIMTOFL
 70
     1
  9
$DIMTVP
 40
0.0
  9
$DIMTIX
 70
     0
  9
$DIMSOXD
 70
     0
  9
$DIMSAH
 70
     0
  9
$DIMBLK1
  1

  9
$DIMBLK2
  1

  9
$DIMSTYLE
  2
ISO-25
  9
$DIMCLRD
 70
     0
  9
$DIMCLRE
 70
     0
  9
$DIMCLRT
 70
     0
  9
$DIMTFAC
 40
1.0
  9
$DIMGAP
 40
12.192
  9
$DIMJUST
 70
     0
  9
$DIMSD1
 70
     0
  9
$DIMSD2
 70
     0
  9
$DIMTOLJ
 70
     0
  9
$DIMTZIN
 70
     1
  9
$DIMALTZ
 70
     0
  9
$DIMALTTZ
 70
     0
  9
$DIMUPT
 70
     0
  9
$DIMDEC
 70
     2
  9
$DIMTDEC
 70
     2
  9
$DIMALTU
 70
     2
  9
$DIMALTTD
 70
     3
  9
$DIMTXSTY
  7
STANDARD
  9
$DIMAUNIT
 70
     0
  9
$DIMADEC
 70
     0
  9
$DIMALTRND
 40
0.0
  9
$DIMAZIN
 70
     0
  9
$DIMDSEP
 70
    44
  9
$DIMATFIT
 70
     3
  9
$DIMFRAC
 70
     0
  9
$DIMLDRBLK
  1

  9
$DIMLUNIT
 70
     2
  9
$DIMLWD
 70
    -2
  9
$DIMLWE
 70
    -2
  9
$DIMTMOVE
 70
     0
  9
$LUNITS
 70
     2
  9
$LUPREC
 70
     6
  9
$SKETCHINC
 40
1.0
  9
$FILLETRAD
 40
0.0
  9
$AUNITS
 70
     0
  9
$AUPREC
 70
     0
  9
$MENU
  1
.
  9
$ELEVATION
 40
0.0
  9
$PELEVATION
 40
0.0
  9
$THICKNESS
 40
0.0
  9
$LIMCHECK
 70
     0
  9
$CHAMFERA
 40
0.0
  9
$CHAMFERB
 40
0.0
  9
$CHAMFERC
 40
0.0
  9
$CHAMFERD
 40
0.0
  9
$SKPOLY
 70
     0
  9
$TDCREATE
 40
2460441.675545799
  9
$TDUCREATE
 40
2460441.967212465
  9
$TDUPDATE
 40
2460441.675550405
  9
$TDUUPDATE
 40
2460441.967217072
  9
$TDINDWG
 40
0.0000000116
  9
$TDUSRTIMER
 40
0.0000000116
  9
$USRTIMER
 70
     1
  9
$ANGBASE
 50
0.0
  9
$ANGDIR
 70
     0
  9
$PDMODE
 70
     0
  9
$PDSIZE
 40
-1.0
  9
$PLINEWID
 40
0.0
  9
$SPLFRAME
 70
     0
  9
$SPLINETYPE
 70
     6
  9
$SPLINESEGS
 70
     8
  9
$HANDSEED
  5
5AB
  9
$SURFTAB1
 70
     6
  9
$SURFTAB2
 70
     6
  9
$SURFTYPE
 70
     6
  9
$SURFU
 70
     6
  9
$SURFV
 70
     6
  9
$UCSBASE
  2

  9
$UCSNAME
  2

  9
$UCSORG
 10
0.0
 20
0.0
 30
0.0
  9
$UCSXDIR
 10
1.0
 20
0.0
 30
0.0
  9
$UCSYDIR
 10
0.0
 20
1.0
 30
0.0
  9
$UCSORTHOREF
  2

  9
$UCSORTHOVIEW
 70
     0
  9
$UCSORGTOP
 10
0.0
 20
0.0
 30
0.0
  9
$UCSORGBOTTOM
 10
0.0
 20
0.0
 30
0.0
  9
$UCSORGLEFT
 10
0.0
 20
0.0
 30
0.0
  9
$UCSORGRIGHT
 10
0.0
 20
0.0
 30
0.0
  9
$UCSORGFRONT
 10
0.0
 20
0.0
 30
0.0
  9
$UCSORGBACK
 10
0.0
 20
0.0
 30
0.0
  9
$PUCSBASE
  2

  9
$PUCSNAME
  2

  9
$PUCSORG
 10
0.0
 20
0.0
 30
0.0
  9
$PUCSXDIR
 10
1.0
 20
0.0
 30
0.0
  9
$PUCSYDIR
 10
0.0
 20
1.0
 30
0.0
  9
$PUCSORTHOREF
  2

  9
$PUCSORTHOVIEW
 70
     0
  9
$PUCSORGTOP
 10
0.0
 20
0.0
 30
0.0
  9
$PUCSORGBOTTOM
 10
0.0
 20
0.0
 30
0.0
  9
$PUCSORGLEFT
 10
0.0
 20
0.0
 30
0.0
  9
$PUCSORGRIGHT
 10
0.0
 20
0.0
 30
0.0
  9
$PUCSORGFRONT
 10
0.0
 20
0.0
 30
0.0
  9
$PUCSORGBACK
 10
0.0
 20
0.0
 30
0.0
  9
$USERI1
 70
     0
  9
$USERI2
 70
     0
  9
$USERI3
 70
     0
  9
$USERI4
 70
     0
  9
$USERI5
 70
     0
  9
$USERR1
 40
0.0
  9
$USERR2
 40
0.0
  9
$USERR3
 40
0.0
  9
$USERR4
 40
0.0
  9
$USERR5
 40
0.0
  9
$WORLDVIEW
 70
     1
  9
$SHADEDGE
 70
     3
  9
$SHADEDIF
 70
    70
  9
$TILEMODE
 70
     1
  9
$MAXACTVP
 70
    64
  9
$PINSBASE
 10
0.0
 20
0.0
 30
0.0
  9
$PLIMCHECK
 70
     0
  9
$PEXTMIN
 10
1.0000000000E+20
 20
1.0000000000E+20
 30
1.0000000000E+20
  9
$PEXTMAX
 10
-1.0000000000E+20
 20
-1.0000000000E+20
 30
-1.0000000000E+20
  9
$PLIMMIN
 10
0.0
 20
0.0
  9
$PLIMMAX
 10
420.0
 20
297.0
  9
$UNITMODE
 70
     0
  9
$VISRETAIN
 70
     1
  9
$PLINEGEN
 70
     0
  9
$PSLTSCALE
 70
     1
  9
$TREEDEPTH
 70
  3020
  9
$CMLSTYLE
  2
Standard
  9
$CMLJUST
 70
     0
  9
$CMLSCALE
 40
20.0
  9
$PROXYGRAPHICS
 70
     1
  9
$MEASUREMENT
 70
     1
  9
$CELWEIGHT
370
    -1
  9
$ENDCAPS
280
     0
  9
$JOINSTYLE
280
     0
  9
$LWDISPLAY
290
     1
  9
$INSUNITS
 70
     4
  9
$HYPERLINKBASE
  1

  9
$STYLESHEET
  1

  9
$XEDIT
290
     1
  9
$CEPSNTYPE
380
     0
  9
$PSTYLEMODE
290
     1
  9
$FINGERPRINTGUID
  2
{e4b0ccb9-efb2-4336-a1ef-6be69ae23b34}
  9
$VERSIONGUID
  2
{FAEB1C32-E019-11D5-929B-00C0DF256EC4}
  9
$EXTNAMES
290
     1
  9
$PSVPSCALE
 40
0.0
  9
$OLESTARTUP
290
     0
  0
ENDSEC
  0
SECTION
  2
CLASSES
  0
CLASS
  1
ACDBDICTIONARYWDFLT
  2
AcDbDictionaryWithDefault
  3
ObjectDBX Classes
 90
        0
280
     0
281
     0
  0
CLASS
  1
VISUALSTYLE
  2
AcDbVisualStyle
  3
ObjectDBX Classes
 90
     4095
280
     0
281
     0
  0
CLASS
  1
MATERIAL
  2
AcDbMaterial
  3
ObjectDBX Classes
 90
     1153
280
     0
281
     0
  0
CLASS
  1
SCALE
  2
AcDbScale
  3
ObjectDBX Classes
 90
     1153
280
     0
281
     0
  0
CLASS
  1
TABLESTYLE
  2
AcDbTableStyle
  3
ObjectDBX Classes
 90
     4095
280
     0
281
     0
  0
CLASS
  1
MLEADERSTYLE
  2
AcDbMLeaderStyle
  3
ACDB_MLEADERSTYLE_CLASS
 90
     4095
280
     0
281
     0
  0
CLASS
  1
SUN
  2
AcDbSun
  3
SCENEOE
 90
     1153
280
     0
281
     0
  0
CLASS
  1
ACDBPLACEHOLDER
  2
AcDbPlaceHolder
  3
ObjectDBX Classes
 90
        0
280
     0
281
     0
  0
CLASS
  1
LAYOUT
  2
AcDbLayout
  3
ObjectDBX Classes
 90
        0
280
     0
281
     0
  0
ENDSEC
  0
SECTION
  2
TABLES
  0
TABLE
  2
VPORT
  5
8
330
0
100
AcDbSymbolTable
 70
     1
  0
VPORT
  5
29
330
8
100
AcDbSymbolTableRecord
100
AcDbViewportTableRecord
  2
*Active
 70
     0
 10
0.0
 20
0.0
 11
1.0
 21
1.0
 12
1727.2
 22
1117.6
 13
0.0
 23
0.0
 14
10.0
 24
10.0
 15
10.0
 25
10.0
 16
0.0
 26
0.0
 36
1.0
 17
0.0
 27
0.0
 37
0.0
 40
2235.2
 41
1.5454545455
 42
50.0
 43
0.0
 44
0.0
 50
0.0
 51
0.0
 71
     0
 72
  2000
 73
     1
 74
     3
 75
     0
 76
     0
 77
     0
 78
     0
281
     0
 65
     1
110
0.0
120
0.0
130
0.0
111
1.0
121
0.0
131
0.0
112
0.0
122
1.0
132
0.0
 79
     0
146
0.0
  0
ENDTAB
  0
TABLE
  2
LTYPE
  5
5
330
0
100
AcDbSymbolTable
 70
     6
  0
LTYPE
  5
14
330
5
100
AcDbSymbolTableRecord
100
AcDbLinetypeTableRecord
  2
ByBlock
 70
     0
  3

 72
    65
 73
     0
 40
0.0
  0
LTYPE
  5
15
330
5
100
AcDbSymbolTableRecord
100
AcDbLinetypeTableRecord
  2
ByLayer
 70
     0
  3

 72
    65
 73
     0
 40
0.0
  0
LTYPE
  5
16
330
5
100
AcDbSymbolTableRecord
100
AcDbLinetypeTableRecord
  2
Continuous
 70
     0
  3
Solid line
 72
    65
 73
     0
 40
0.0
  0
LTYPE
  5
5E
330
5
100
AcDbSymbolTableRecord
100
AcDbLinetypeTableRecord
  2
HIDDEN
 70
     0
  3
Hidden __ __ __ __ __ __ __ __ __ __ __ __ __ __
 72
    65
 73
     2
 40
1.905
 49
1.27
 74
     0
 49
-0.635
 74
     0
  0
LTYPE
  5
5F
330
5
100
AcDbSymbolTableRecord
100
AcDbLinetypeTableRecord
  2
PHANTOM
 70
     0
  3
Phantom ______  __  __  ______  __  __  ______
 72
    65
 73
     6
 40
12.7
 49
6.35
 74
     0
 49
-1.27
 74
     0
 49
1.27
 74
     0
 49
-1.27
 74
     0
 49
1.27
 74
     0
 49
-1.27
 74
     0
  0
LTYPE
  5
60
330
5
100
AcDbSymbolTableRecord
100
AcDbLinetypeTableRecord
  2
CENTER
 70
     0
  3
Center ____ _ ____ _ ____ _ ____ _ ____ _ ____
 72
    65
 73
     4
 40
10.16
 49
6.35
 74
     0
 49
-1.27
 74
     0
 49
1.27
 74
     0
 49
-1.27
 74
     0
  0
LTYPE
  5
61
330
5
100
AcDbSymbolTableRecord
100
AcDbLinetypeTableRecord
  2
CENTERX2
 70
     0
  3
Center (2x) ________  __  ________  __  _____
 72
    65
 73
     4
 40
20.32
 49
12.7
 74
     0
 49
-2.54
 74
     0
 49
2.54
 74
     0
 49
-2.54
 74
     0
  0
LTYPE
  5
62
330
5
100
AcDbSymbolTableRecord
100
AcDbLinetypeTableRecord
  2
DOT2
 70
     0
  3
Dot (.5x) ........................................
 72
    65
 73
     2
 40
0.635
 49
0.0
 74
     0
 49
-0.635
 74
     0
  0
ENDTAB
  0
TABLE
  2
LAYER
  5
2
330
0
100
AcDbSymbolTable
 70
     6
  0
LAYER
  5
10
330
2
100
AcDbSymbolTableRecord
100
AcDbLayerTableRecord
  2
0
 70
     0
 62
     7
  6
Continuous
370
    -3
390
F
  0
LAYER
  5
63
330
2
100
AcDbSymbolTableRecord
100
AcDbLayerTableRecord
  2
SLD-0
 70
     0
 62
   179
  6
Continuous
370
    -3
390
F
  0
LAYER
  5
64
330
2
100
AcDbSymbolTableRecord
100
AcDbLayerTableRecord
  2
WIRE_BOND
 70
     0
 62
     6
  6
Continuous
370
   100
390
F
  0
LAYER
  5
65
330
2
100
AcDbSymbolTableRecord
100
AcDbLayerTableRecord
  2
HIGHLIGHT-BLUE
 70
     0
 62
     5
  6
Continuous
370
    70
390
F
  0
LAYER
  5
66
330
2
100
AcDbSymbolTableRecord
100
AcDbLayerTableRecord
  2
MANUAL_DIM
 70
     0
 62
   114
  6
Continuous
370
    -3
390
F
  0
LAYER
  5
67
330
2
100
AcDbSymbolTableRecord
100
AcDbLayerTableRecord
  2
TORQUE_9-10
 70
     0
 62
   155
  6
Continuous
370
    -3
390
F
  0
ENDTAB
  0
TABLE
  2
STYLE
  5
3
330
0
100
AcDbSymbolTable
 70
     5
  0
STYLE
  5
11
330
3
100
AcDbSymbolTableRecord
100
AcDbTextStyleTableRecord
  2
STANDARD
 70
     0
 40
0.0
 41
1.0
 50
0.0
 71
     0
 42
25.4
  3
GOTHIC.TTF
  4

1001
ACAD
1000
CENTURY GOTHIC
1071
       34
  0
STYLE
  5
7A
330
3
100
AcDbSymbolTableRecord
100
AcDbTextStyleTableRecord
  2
SLDTEXTSTYLE0
 70
     0
 40
0.0
 41
0.913
 50
0.0
 71
     0
 42
25.4
  3
GOTHIC.TTF
  4

1001
ACAD
1000
Century Gothic
1071
      290
  0
STYLE
  5
B1
330
3
100
AcDbSymbolTableRecord
100
AcDbTextStyleTableRecord
  2
SLDTEXTSTYLE1
 70
     0
 40
0.0
 41
0.87
 50
0.0
 71
     0
 42
25.4
  3
ARIALN.TTF
  4

1001
ACAD
1000
Arial Narrow
1071
      290
  0
STYLE
  5
BC
330
3
100
AcDbSymbolTableRecord
100
AcDbTextStyleTableRecord
  2
SLDTEXTSTYLE2
 70
     0
 40
0.0
 41
0.8969072165
 50
0.0
 71
     0
 42
25.4
  3
ARIALN.TTF
  4

1001
ACAD
1000
Arial Narrow
1071
      290
  0
STYLE
  5
C1
330
3
100
AcDbSymbolTableRecord
100
AcDbTextStyleTableRecord
  2
SLDTEXTSTYLE3
 70
     0
 40
0.0
 41
0.8969072165
 50
0.0
 71
     0
 42
25.4
  3
ARIALN.TTF
  4
bigfont
1001
ACAD
1000
Arial Narrow
1071
      290
  0
ENDTAB
  0
TABLE
  2
VIEW
  5
6
330
0
100
AcDbSymbolTable
 70
     0
  0
ENDTAB
  0
TABLE
  2
UCS
  5
7
330
0
100
AcDbSymbolTable
 70
     0
  0
ENDTAB
  0
TABLE
  2
APPID
  5
9
330
0
100
AcDbSymbolTable
 70
     1
  0
APPID
  5
12
330
9
100
AcDbSymbolTableRecord
100
AcDbRegAppTableRecord
  2
ACAD
 70
     0
  0
ENDTAB
  0
TABLE
  2
DIMSTYLE
  5
A
330
0
100
AcDbSymbolTable
 70
     7
100
AcDbDimStyleTable
  0
DIMSTYLE
105
27
330
A
100
AcDbSymbolTableRecord
100
AcDbDimStyleTableRecord
  2
ISO-25
 70
     0
 41
2.5
 42
0.625
 43
3.75
 44
1.25
 73
     0
 74
     0
 77
     1
 78
     8
140
2.5
141
2.5
143
0.0393700787
147
0.625
171
     3
172
     1
178
     0
271
     2
272
     2
274
     3
278
    44
283
     0
284
     8
340
11
  0
DIMSTYLE
105
121
102
{ACAD_REACTORS
330
120
330
1C1
330
1D5
330
23F
330
253
330
290
330
45D
330
471
102
}
330
A
100
AcDbSymbolTableRecord
100
AcDbDimStyleTableRecord
  2
SLDDIMSTYLE0
 70
     0
 41
16.0
 44
0.0
 45
0.000000001
 78
    12
 79
     3
140
19.05
143
0.0393700787
147
4.7625
148
0.000000001
170
     1
173
     1
178
     0
271
     1
272
     2
276
     2
284
    12
340
7A
  0
DIMSTYLE
105
136
102
{ACAD_REACTORS
330
135
330
185
330
199
330
1AD
330
268
330
27C
330
30D
330
321
330
369
330
37D
330
391
330
485
330
49A
102
}
330
A
100
AcDbSymbolTableRecord
100
AcDbDimStyleTableRecord
  2
SLDDIMSTYLE1
 70
     0
 41
16.0
 44
0.0
 45
0.000000001
 78
     4
 79
     1
140
19.05
143
0.0393700787
147
4.7625
148
0.000000001
170
     1
173
     1
178
     0
271
     1
272
     2
276
     2
284
    12
340
7A
  0
DIMSTYLE
105
171
102
{ACAD_REACTORS
330
170
102
}
330
A
100
AcDbSymbolTableRecord
100
AcDbDimStyleTableRecord
  2
SLDDIMSTYLE2
 70
     0
 41
16.0
 44
0.0
 45
0.000000001
 78
     4
 79
     1
140
19.05
143
0.0393700787
147
4.7625
148
0.000000001
170
     1
173
     1
178
     0
271
     2
272
     2
276
     2
284
    12
340
7A
  0
DIMSTYLE
105
1F3
330
A
100
AcDbSymbolTableRecord
100
AcDbDimStyleTableRecord
  2
SLDDIMSTYLE3
 70
     0
 41
16.0
 44
0.0
 45
0.000000001
146
16.0
147
0.0
173
     1
178
     0
271
     0
272
     0
276
     2
340
11
  0
DIMSTYLE
105
336
102
{ACAD_REACTORS
330
335
330
3A6
102
}
330
A
100
AcDbSymbolTableRecord
100
AcDbDimStyleTableRecord
  2
SLDDIMSTYLE4
 70
     0
 41
16.0
 44
0.0
 45
0.000000001
 78
    12
 79
     3
140
19.05
143
0.0393700787
147
4.7625
148
0.000000001
170
     1
172
     1
173
     1
178
     0
271
     1
272
     2
276
     2
284
    12
289
     0
340
7A
  0
DIMSTYLE
105
34C
102
{ACAD_REACTORS
330
34B
102
}
330
A
100
AcDbSymbolTableRecord
100
AcDbDimStyleTableRecord
  2
SLDDIMSTYLE5
 70
     0
 41
16.0
 44
0.0
 45
0.000000001
 78
     4
 79
     1
140
19.05
143
0.0393700787
147
4.7625
148
0.000000001
170
     1
172
     1
173
     1
178
     0
271
     1
272
     2
276
     2
284
    12
289
     0
340
7A
  0
ENDTAB
  0
TABLE
  2
BLOCK_RECORD
  5
1
330
0
100
AcDbSymbolTable
 70
    62
  0
BLOCK_RECORD
  5
1F
330
1
100
AcDbSymbolTableRecord
100
AcDbBlockTableRecord
  2
*Model_Space
340
22
  0
BLOCK_RECORD
  5
1B
330
1
100
AcDbSymbolTableRecord
100
AcDbBlockTableRecord
  2
*Paper_Space
340
1E
  0
BLOCK_RECORD
  5
23
330
1
100
AcDbSymbolTableRecord
100
AcDbBlockTableRecord
  2
*Paper_Space0
340
26
  0
BLOCK_RECORD
  5
73
330
1
100
AcDbSymbolTableRecord
100
AcDbBlockTableRecord
  2
SW_NOTE_0
340
0
102
{BLKREFS
331
9C
102
}
  0
BLOCK_RECORD
  5
81
330
1
100
AcDbSymbolTableRecord
100
AcDbBlockTableRecord
  2
SW_SYMBOL_MOD_COM
340
0
102
{BLKREFS
331
8D
331
150
331
2A5
102
}
  0
BLOCK_RECORD
  5
91
330
1
100
AcDbSymbolTableRecord
100
AcDbBlockTableRecord
  2
SW_SYMBOL_GTOL_CONC
340
0
102
{BLKREFS
331
96
102
}
  0
BLOCK_RECORD
  5
122
330
1
100
AcDbSymbolTableRecord
100
AcDbBlockTableRecord
  2
_D
340
0
  0
BLOCK_RECORD
  5
137
330
1
100
AcDbSymbolTableRecord
100
AcDbBlockTableRecord
  2
_D_1
340
0
  0
BLOCK_RECORD
  5
14A
330
1
100
AcDbSymbolTableRecord
100
AcDbBlockTableRecord
  2
SW_SYMBOL_MOD_CL
340
0
102
{BLKREFS
331
14F
102
}
  0
BLOCK_RECORD
  5
172
330
1
100
AcDbSymbolTableRecord
100
AcDbBlockTableRecord
  2
_D_2
340
0
  0
BLOCK_RECORD
  5
186
330
1
100
AcDbSymbolTableRecord
100
AcDbBlockTableRecord
  2
_D_3
340
0
  0
BLOCK_RECORD
  5
19A
330
1
100
AcDbSymbolTableRecord
100
AcDbBlockTableRecord
  2
_D_4
340
0
  0
BLOCK_RECORD
  5
1AE
330
1
100
AcDbSymbolTableRecord
100
AcDbBlockTableRecord
  2
_D_5
340
0
  0
BLOCK_RECORD
  5
1C2
330
1
100
AcDbSymbolTableRecord
100
AcDbBlockTableRecord
  2
_D_6
340
0
  0
BLOCK_RECORD
  5
1D6
330
1
100
AcDbSymbolTableRecord
100
AcDbBlockTableRecord
  2
_D_7
340
0
  0
BLOCK_RECORD
  5
1EA
330
1
100
AcDbSymbolTableRecord
100
AcDbBlockTableRecord
  2
SW_NOTE_0_1
340
0
102
{BLKREFS
331
1F2
102
}
  0
BLOCK_RECORD
  5
1F6
330
1
100
AcDbSymbolTableRecord
100
AcDbBlockTableRecord
  2
SW_CENTERMARKSYMBOL_0
340
0
102
{BLKREFS
331
201
102
}
  0
BLOCK_RECORD
  5
202
330
1
100
AcDbSymbolTableRecord
100
AcDbBlockTableRecord
  2
SW_CENTERMARKSYMBOL_1
340
0
102
{BLKREFS
331
20D
102
}
  0
BLOCK_RECORD
  5
20E
330
1
100
AcDbSymbolTableRecord
100
AcDbBlockTableRecord
  2
SW_CENTERMARKSYMBOL_2
340
0
102
{BLKREFS
331
219
102
}
  0
BLOCK_RECORD
  5
21A
330
1
100
AcDbSymbolTableRecord
100
AcDbBlockTableRecord
  2
SW_CENTERMARKSYMBOL_3
340
0
102
{BLKREFS
331
225
102
}
  0
BLOCK_RECORD
  5
240
330
1
100
AcDbSymbolTableRecord
100
AcDbBlockTableRecord
  2
_D_8
340
0
  0
BLOCK_RECORD
  5
254
330
1
100
AcDbSymbolTableRecord
100
AcDbBlockTableRecord
  2
_D_9
340
0
  0
BLOCK_RECORD
  5
269
330
1
100
AcDbSymbolTableRecord
100
AcDbBlockTableRecord
  2
_D_10
340
0
  0
BLOCK_RECORD
  5
27D
330
1
100
AcDbSymbolTableRecord
100
AcDbBlockTableRecord
  2
_D_11
340
0
  0
BLOCK_RECORD
  5
291
330
1
100
AcDbSymbolTableRecord
100
AcDbBlockTableRecord
  2
_D_12
340
0
  0
BLOCK_RECORD
  5
2A6
330
1
100
AcDbSymbolTableRecord
100
AcDbBlockTableRecord
  2
SW_NOTE_0_2
340
0
102
{BLKREFS
331
2AE
102
}
  0
BLOCK_RECORD
  5
2B1
330
1
100
AcDbSymbolTableRecord
100
AcDbBlockTableRecord
  2
SW_CENTERMARKSYMBOL_4
340
0
102
{BLKREFS
331
2BC
102
}
  0
BLOCK_RECORD
  5
2BD
330
1
100
AcDbSymbolTableRecord
100
AcDbBlockTableRecord
  2
SW_CENTERMARKSYMBOL_5
340
0
102
{BLKREFS
331
2C8
102
}
  0
BLOCK_RECORD
  5
30E
330
1
100
AcDbSymbolTableRecord
100
AcDbBlockTableRecord
  2
_D_13
340
0
  0
BLOCK_RECORD
  5
322
330
1
100
AcDbSymbolTableRecord
100
AcDbBlockTableRecord
  2
_D_14
340
0
  0
BLOCK_RECORD
  5
337
330
1
100
AcDbSymbolTableRecord
100
AcDbBlockTableRecord
  2
_D_15
340
0
  0
BLOCK_RECORD
  5
34D
330
1
100
AcDbSymbolTableRecord
100
AcDbBlockTableRecord
  2
_D_16
340
0
  0
BLOCK_RECORD
  5
36A
330
1
100
AcDbSymbolTableRecord
100
AcDbBlockTableRecord
  2
_D_17
340
0
  0
BLOCK_RECORD
  5
37E
330
1
100
AcDbSymbolTableRecord
100
AcDbBlockTableRecord
  2
_D_18
340
0
  0
BLOCK_RECORD
  5
392
330
1
100
AcDbSymbolTableRecord
100
AcDbBlockTableRecord
  2
_D_19
340
0
  0
BLOCK_RECORD
  5
3A7
330
1
100
AcDbSymbolTableRecord
100
AcDbBlockTableRecord
  2
_D_20
340
0
  0
BLOCK_RECORD
  5
3BA
330
1
100
AcDbSymbolTableRecord
100
AcDbBlockTableRecord
  2
SW_NOTE_0_3
340
0
102
{BLKREFS
331
3C2
102
}
  0
BLOCK_RECORD
  5
3C5
330
1
100
AcDbSymbolTableRecord
100
AcDbBlockTableRecord
  2
SW_CENTERMARKSYMBOL_6
340
0
102
{BLKREFS
331
3D0
102
}
  0
BLOCK_RECORD
  5
3D1
330
1
100
AcDbSymbolTableRecord
100
AcDbBlockTableRecord
  2
SW_CENTERMARKSYMBOL_7
340
0
102
{BLKREFS
331
3DC
102
}
  0
BLOCK_RECORD
  5
45E
330
1
100
AcDbSymbolTableRecord
100
AcDbBlockTableRecord
  2
_D_21
340
0
  0
BLOCK_RECORD
  5
472
330
1
100
AcDbSymbolTableRecord
100
AcDbBlockTableRecord
  2
_D_22
340
0
  0
BLOCK_RECORD
  5
486
330
1
100
AcDbSymbolTableRecord
100
AcDbBlockTableRecord
  2
_D_23
340
0
  0
BLOCK_RECORD
  5
49B
330
1
100
AcDbSymbolTableRecord
100
AcDbBlockTableRecord
  2
_D_24
340
0
  0
BLOCK_RECORD
  5
4AE
330
1
100
AcDbSymbolTableRecord
100
AcDbBlockTableRecord
  2
SW_NOTE_0_4
340
0
102
{BLKREFS
331
4B6
102
}
  0
BLOCK_RECORD
  5
4B9
330
1
100
AcDbSymbolTableRecord
100
AcDbBlockTableRecord
  2
SW_CENTERMARKSYMBOL_8
340
0
102
{BLKREFS
331
4C4
102
}
  0
BLOCK_RECORD
  5
4C5
330
1
100
AcDbSymbolTableRecord
100
AcDbBlockTableRecord
  2
SW_CENTERMARKSYMBOL_9
340
0
102
{BLKREFS
331
4D0
102
}
  0
BLOCK_RECORD
  5
4D1
330
1
100
AcDbSymbolTableRecord
100
AcDbBlockTableRecord
  2
SW_CENTERMARKSYMBOL_10
340
0
102
{BLKREFS
331
4DC
102
}
  0
BLOCK_RECORD
  5
4DD
330
1
100
AcDbSymbolTableRecord
100
AcDbBlockTableRecord
  2
SW_CENTERMARKSYMBOL_11
340
0
102
{BLKREFS
331
4E8
102
}
  0
BLOCK_RECORD
  5
4E9
330
1
100
AcDbSymbolTableRecord
100
AcDbBlockTableRecord
  2
SW_CENTERMARKSYMBOL_12
340
0
102
{BLKREFS
331
4F4
102
}
  0
BLOCK_RECORD
  5
4F5
330
1
100
AcDbSymbolTableRecord
100
AcDbBlockTableRecord
  2
SW_CENTERMARKSYMBOL_13
340
0
102
{BLKREFS
331
500
102
}
  0
BLOCK_RECORD
  5
501
330
1
100
AcDbSymbolTableRecord
100
AcDbBlockTableRecord
  2
SW_CENTERMARKSYMBOL_14
340
0
102
{BLKREFS
331
50C
102
}
  0
BLOCK_RECORD
  5
50D
330
1
100
AcDbSymbolTableRecord
100
AcDbBlockTableRecord
  2
SW_CENTERMARKSYMBOL_15
340
0
102
{BLKREFS
331
518
102
}
  0
BLOCK_RECORD
  5
519
330
1
100
AcDbSymbolTableRecord
100
AcDbBlockTableRecord
  2
SW_CENTERMARKSYMBOL_16
340
0
102
{BLKREFS
331
524
102
}
  0
BLOCK_RECORD
  5
525
330
1
100
AcDbSymbolTableRecord
100
AcDbBlockTableRecord
  2
SW_CENTERMARKSYMBOL_17
340
0
102
{BLKREFS
331
530
102
}
  0
BLOCK_RECORD
  5
531
330
1
100
AcDbSymbolTableRecord
100
AcDbBlockTableRecord
  2
SW_CENTERMARKSYMBOL_18
340
0
102
{BLKREFS
331
53C
102
}
  0
BLOCK_RECORD
  5
53D
330
1
100
AcDbSymbolTableRecord
100
AcDbBlockTableRecord
  2
SW_CENTERMARKSYMBOL_19
340
0
102
{BLKREFS
331
548
102
}
  0
BLOCK_RECORD
  5
549
330
1
100
AcDbSymbolTableRecord
100
AcDbBlockTableRecord
  2
SW_CENTERMARKSYMBOL_20
340
0
102
{BLKREFS
331
554
102
}
  0
BLOCK_RECORD
  5
555
330
1
100
AcDbSymbolTableRecord
100
AcDbBlockTableRecord
  2
SW_CENTERMARKSYMBOL_21
340
0
102
{BLKREFS
331
560
102
}
  0
BLOCK_RECORD
  5
561
330
1
100
AcDbSymbolTableRecord
100
AcDbBlockTableRecord
  2
SW_CENTERMARKSYMBOL_22
340
0
102
{BLKREFS
331
56C
102
}
  0
BLOCK_RECORD
  5
56D
330
1
100
AcDbSymbolTableRecord
100
AcDbBlockTableRecord
  2
SW_CENTERMARKSYMBOL_23
340
0
102
{BLKREFS
331
578
102
}
  0
BLOCK_RECORD
  5
579
330
1
100
AcDbSymbolTableRecord
100
AcDbBlockTableRecord
  2
SW_CENTERMARKSYMBOL_24
340
0
102
{BLKREFS
331
584
102
}
  0
BLOCK_RECORD
  5
585
330
1
100
AcDbSymbolTableRecord
100
AcDbBlockTableRecord
  2
SW_CENTERMARKSYMBOL_25
340
0
102
{BLKREFS
331
590
102
}
  0
BLOCK_RECORD
  5
591
330
1
100
AcDbSymbolTableRecord
100
AcDbBlockTableRecord
  2
SW_CENTERMARKSYMBOL_26
340
0
102
{BLKREFS
331
59C
102
}
  0
BLOCK_RECORD
  5
59D
330
1
100
AcDbSymbolTableRecord
100
AcDbBlockTableRecord
  2
SW_CENTERMARKSYMBOL_27
340
0
102
{BLKREFS
331
5A8
102
}
  0
ENDTAB
  0
ENDSEC
  0
SECTION
  2
BLOCKS
  0
BLOCK
  5
20
330
1F
100
AcDbEntity
  8
0
100
AcDbBlockBegin
  2
*Model_Space
 70
     0
 10
0.0
 20
0.0
 30
0.0
  3
*Model_Space
  1

  0
ENDBLK
  5
21
330
1F
100
AcDbEntity
  8
0
100
AcDbBlockEnd
  0
BLOCK
  5
1C
330
1B
100
AcDbEntity
 67
     1
  8
0
100
AcDbBlockBegin
  2
*Paper_Space
 70
     0
 10
0.0
 20
0.0
 30
0.0
  3
*Paper_Space
  1

  0
ENDBLK
  5
1D
330
1B
100
AcDbEntity
 67
     1
  8
0
100
AcDbBlockEnd
  0
BLOCK
  5
24
330
23
100
AcDbEntity
  8
0
100
AcDbBlockBegin
  2
*Paper_Space0
 70
     0
 10
0.0
 20
0.0
 30
0.0
  3
*Paper_Space0
  1

  0
ENDBLK
  5
25
330
23
100
AcDbEntity
  8
0
100
AcDbBlockEnd
  0
BLOCK
  5
74
330
73
100
AcDbEntity
  8
0
100
AcDbBlockBegin
  2
SW_NOTE_0
 70
     0
 10
0.0
 20
0.0
 30
0.0
  3
SW_NOTE_0
  1

  0
LINE
  5
76
330
73
100
AcDbEntity
  8
0
  6
Continuous
 62
     0
370
     0
100
AcDbLine
 10
-8.4137502126
 20
-134.9662477151
 30
0.0
 11
-8.4137502126
 21
-104.062913917
 31
0.0
  0
LINE
  5
77
330
73
100
AcDbEntity
  8
0
  6
Continuous
 62
     0
370
     0
100
AcDbLine
 10
-8.4137502126
 20
-104.062913917
 30
0.0
 11
22.4895835854
 21
-104.062913917
 31
0.0
  0
LINE
  5
78
330
73
100
AcDbEntity
  8
0
  6
Continuous
 62
     0
370
     0
100
AcDbLine
 10
22.4895835854
 20
-104.062913917
 30
0.0
 11
22.4895835854
 21
-134.9662477151
 31
0.0
  0
LINE
  5
79
330
73
100
AcDbEntity
  8
0
  6
Continuous
 62
     0
370
     0
100
AcDbLine
 10
22.4895835854
 20
-134.9662477151
 30
0.0
 11
-8.4137502126
 21
-134.9662477151
 31
0.0
  0
MTEXT
  5
7B
330
73
100
AcDbEntity
  8
0
  6
Continuous
 62
     0
370
     0
100
AcDbMText
 10
0.0
 20
24.3333984375
 30
0.0
 40
19.05
 41
0.0
 71
     1
 72
     1
  1
NOTES: UNLESS OTHERWISE SPECIFIED
  7
SLDTEXTSTYLE0
 73
     1
 44
1.0
  0
MTEXT
  5
7C
330
73
100
AcDbEntity
  8
0
  6
Continuous
 62
     0
370
     0
100
AcDbMText
 10
79.9999982119
 20
-9.0666007042
 30
0.0
 40
19.05
 41
0.0
 71
     1
 72
     1
  1
NET WEIGHT APPROX. 19.8 KG [43.6 LBS].
  7
SLDTEXTSTYLE0
 73
     1
 44
1.0
  0
MTEXT
  5
7D
330
73
100
AcDbEntity
  8
0
  6
Continuous
 62
     0
370
     0
100
AcDbMText
 10
0.0
 20
-9.0666007042
 30
0.0
 40
19.05
 41
0.0
 71
     1
 72
     1
  1
1.
  7
SLDTEXTSTYLE0
 73
     1
 44
1.0
  0
MTEXT
  5
7E
330
73
100
AcDbEntity
  8
0
  6
Continuous
 62
     0
370
     0
100
AcDbMText
 10
79.9999982119
 20
-42.4665998459
 30
0.0
 40
19.05
 41
0.0
 71
     1
 72
     1
  1
PARTS ARE SYMMETRICAL ABOUT CENTER LINES UNLESS OTHERWISE NOTED.
  7
SLDTEXTSTYLE0
 73
     1
 44
1.0
  0
MTEXT
  5
7F
330
73
100
AcDbEntity
  8
0
  6
Continuous
 62
     0
370
     0
100
AcDbMText
 10
0.0
 20
-42.4665998459
 30
0.0
 40
19.05
 41
0.0
 71
     1
 72
     1
  1
2.
  7
SLDTEXTSTYLE0
 73
     1
 44
1.0
  0
MTEXT
  5
80
330
73
100
AcDbEntity
  8
0
  6
Continuous
 62
     0
370
     0
100
AcDbMText
 10
79.9999982119
 20
-75.8665989876
 30
0.0
 40
19.05
 41
0.0
 71
     1
 72
     1
  1
SYMBOL 
  7
SLDTEXTSTYLE0
 73
     1
 44
1.0
  0
INSERT
  5
8D
330
73
100
AcDbEntity
  8
0
  6
Continuous
 62
     0
370
     0
100
AcDbBlockReference
  2
SW_SYMBOL_MOD_COM
 10
197.3887681961
 20
-96.898860809
 30
0.0
 41
0.0023657471
 42
0.0023657471
 43
0.0023657471
  0
MTEXT
  5
8E
330
73
100
AcDbEntity
  8
0
  6
Continuous
 62
     0
370
     0
100
AcDbMText
 10
235.05602777
 20
-75.8665989876
 30
0.0
 40
19.05
 41
0.0
 71
     1
 72
     1
  1
INDICATES CENTER OF GRAVITY.
  7
SLDTEXTSTYLE0
 73
     1
 44
1.0
  0
MTEXT
  5
8F
330
73
100
AcDbEntity
  8
0
  6
Continuous
 62
     0
370
     0
100
AcDbMText
 10
0.0
 20
-75.8665989876
 30
0.0
 40
19.05
 41
0.0
 71
     1
 72
     1
  1
3.
  7
SLDTEXTSTYLE0
 73
     1
 44
1.0
  0
MTEXT
  5
90
330
73
100
AcDbEntity
  8
0
  6
Continuous
 62
     0
370
     0
100
AcDbMText
 10
79.9999982119
 20
-107.8811831564
 30
0.0
 40
19.05
 41
0.0
 71
     1
 72
     1
  1
SYMBOL 
  7
SLDTEXTSTYLE0
 73
     1
 44
1.0
  0
INSERT
  5
96
330
73
100
AcDbEntity
  8
0
  6
Continuous
 62
     0
370
     0
100
AcDbBlockReference
  2
SW_SYMBOL_GTOL_CONC
 10
186.4683330059
 20
-128.5837265119
 30
0.0
 41
0.0020277832
 42
0.0020277832
 43
0.0020277832
  0
MTEXT
  5
97
330
73
100
AcDbEntity
  8
0
  6
Continuous
 62
     0
370
     0
100
AcDbMText
 10
218.7545597553
 20
-107.8811831564
 30
0.0
 40
19.05
 41
0.0
 71
     1
 72
     1
  1
INDICATES SUSPENSION POINT.
  7
SLDTEXTSTYLE0
 73
     1
 44
1.0
  0
MTEXT
  5
98
330
73
100
AcDbEntity
  8
0
  6
Continuous
 62
     0
370
     0
100
AcDbMText
 10
0.0
 20
-107.8811831564
 30
0.0
 40
19.05
 41
0.0
 71
     1
 72
     1
  1
4
  7
SLDTEXTSTYLE0
 73
     1
 44
1.0
  0
MTEXT
  5
99
330
73
100
AcDbEntity
  8
0
  6
Continuous
 62
     0
370
     0
100
AcDbMText
 10
80.0
 20
-147.8957649112
 30
0.0
 40
19.05
 41
0.0
 71
     1
 72
     1
  1
12 TOTAL: M10-1.5 THD
  7
SLDTEXTSTYLE0
 73
     1
 44
1.0
  0
MTEXT
  5
9A
330
73
100
AcDbEntity
  8
0
  6
Continuous
 62
     0
370
     0
100
AcDbMText
 10
79.9999982119
 20
-181.2957640529
 30
0.0
 40
19.05
 41
0.0
 71
     1
 72
     1
  1
GRILLE NOT SHOWN FOR CLARITY.
  7
SLDTEXTSTYLE0
 73
     1
 44
1.0
  0
MTEXT
  5
9B
330
73
100
AcDbEntity
  8
0
  6
Continuous
 62
     0
370
     0
100
AcDbMText
 10
0.0
 20
-181.2957640529
 30
0.0
 40
19.05
 41
0.0
 71
     1
 72
     1
  1
5.
  7
SLDTEXTSTYLE0
 73
     1
 44
1.0
  0
ENDBLK
  5
75
330
73
100
AcDbEntity
  8
0
100
AcDbBlockEnd
  0
BLOCK
  5
82
330
81
100
AcDbEntity
  8
0
100
AcDbBlockBegin
  2
SW_SYMBOL_MOD_COM
 70
     0
 10
0.0
 20
0.0
 30
0.0
  3
SW_SYMBOL_MOD_COM
  1

  0
CIRCLE
  5
84
330
81
100
AcDbEntity
  8
0
  6
Continuous
 62
     0
370
     0
100
AcDbCircle
 10
4000.0
 20
4000.0
 30
0.0
 40
4000.0
  0
LINE
  5
85
330
81
100
AcDbEntity
  8
0
  6
Continuous
 62
     0
370
     0
100
AcDbLine
 10
10000.0
 20
4000.0
 30
0.0
 11
12000.0
 21
4000.0
 31
0.0
  0
LINE
  5
86
330
81
100
AcDbEntity
  8
0
  6
Continuous
 62
     0
370
     0
100
AcDbLine
 10
4000.0
 20
12000.0
 30
0.0
 11
4000.0
 21
10000.0
 31
0.0
  0
LINE
  5
87
330
81
100
AcDbEntity
  8
0
  6
Continuous
 62
     0
370
     0
100
AcDbLine
 10
-4000.0
 20
4000.0
 30
0.0
 11
-2000.0
 21
4000.0
 31
0.0
  0
LINE
  5
88
330
81
100
AcDbEntity
  8
0
  6
Continuous
 62
     0
370
     0
100
AcDbLine
 10
4000.0
 20
-4000.0
 30
0.0
 11
4000.0
 21
-2000.0
 31
0.0
  0
SOLID
  5
89
330
81
100
AcDbEntity
  8
0
  6
Continuous
 62
     0
370
     0
100
AcDbTrace
 10
4000.0
 20
4000.0
 30
0.0
 11
0.0
 21
4000.0
 31
0.0
 12
4000.0
 22
8000.0
 32
0.0
 13
4000.0
 23
8000.0
 33
0.0
  0
SOLID
  5
8A
330
81
100
AcDbEntity
  8
0
  6
Continuous
 62
     0
370
     0
100
AcDbTrace
 10
4000.0
 20
4000.0
 30
0.0
 11
8000.0
 21
4000.0
 31
0.0
 12
4000.0
 22
0.0
 32
0.0
 13
4000.0
 23
0.0
 33
0.0
  0
HATCH
  5
8B
330
81
100
AcDbEntity
  8
0
  6
Continuous
 62
     0
100
AcDbHatch
 10
0.0
 20
0.0
 30
0.0
210
0.0
220
0.0
230
1.0
  2
SOLID
 70
     1
 71
     0
 91
        1
 92
        0
 93
        2
 72
     2
 10
4000.0
 20
4000.0
 40
4000.0
 50
90.0000000000002
 51
180.0000000000013
 73
     1
 72
     1
 10
0.0
 20
3999.999999999972
 11
3999.999999999987
 21
8000.0
 97
        0
 75
     0
 76
     1
 98
        1
 10
0.0
 20
0.0
  0
HATCH
  5
8C
330
81
100
AcDbEntity
  8
0
  6
Continuous
 62
     0
100
AcDbHatch
 10
0.0
 20
0.0
 30
0.0
210
0.0
220
0.0
230
1.0
  2
SOLID
 70
     1
 71
     0
 91
        1
 92
        0
 93
        2
 72
     2
 10
4000.0
 20
4000.0
 40
4000.0
 50
270.0000000000014
 51
360.0000000000016
 73
     1
 72
     1
 10
8000.0
 20
4000.000000000056
 11
4000.000000000042
 21
0.0
 97
        0
 75
     0
 76
     1
 98
        1
 10
0.0
 20
0.0
  0
ENDBLK
  5
83
330
81
100
AcDbEntity
  8
0
100
AcDbBlockEnd
  0
BLOCK
  5
92
330
91
100
AcDbEntity
  8
0
100
AcDbBlockBegin
  2
SW_SYMBOL_GTOL_CONC
 70
     0
 10
0.0
 20
0.0
 30
0.0
  3
SW_SYMBOL_GTOL_CONC
  1

  0
CIRCLE
  5
94
330
91
100
AcDbEntity
  8
0
  6
Continuous
 62
     0
370
     0
100
AcDbCircle
 10
6000.0
 20
4000.0
 30
0.0
 40
6000.0
  0
CIRCLE
  5
95
330
91
100
AcDbEntity
  8
0
  6
Continuous
 62
     0
370
     0
100
AcDbCircle
 10
6000.0
 20
4000.0
 30
0.0
 40
4000.0
  0
ENDBLK
  5
93
330
91
100
AcDbEntity
  8
0
100
AcDbBlockEnd
  0
BLOCK
  5
123
330
122
100
AcDbEntity
  8
0
100
AcDbBlockBegin
  2
_D
 70
     0
 10
0.0
 20
0.0
 30
0.0
  3
_D
  1

  0
SOLID
  5
125
330
122
100
AcDbEntity
  8
SLD-0
100
AcDbTrace
 10
1150.960117891
 20
939.0365045607
 30
0.0
 11
1166.960117891
 21
937.0365045607
 31
0.0
 12
1166.960117891
 22
941.0365045607
 32
0.0
 13
1166.960117891
 23
941.0365045607
 33
0.0
  0
SOLID
  5
126
330
122
100
AcDbEntity
  8
SLD-0
100
AcDbTrace
 10
1375.380117891
 20
939.0365045607
 30
0.0
 11
1359.380117891
 21
941.0365045607
 31
0.0
 12
1359.380117891
 22
937.0365045607
 32
0.0
 13
1359.380117891
 23
937.0365045607
 33
0.0
  0
LINE
  5
127
330
122
100
AcDbEntity
  8
SLD-0
100
AcDbLine
 10
1238.546228415
 20
939.036508286
 30
0.0
 11
1232.7518532114
 21
939.036508286
 31
0.0
  0
LINE
  5
128
330
122
100
AcDbEntity
  8
SLD-0
100
AcDbLine
 10
1232.7518532114
 20
939.036508286
 30
0.0
 11
1232.7518532114
 21
908.7681744337
 31
0.0
  0
LINE
  5
129
330
122
100
AcDbEntity
  8
SLD-0
100
AcDbLine
 10
1232.7518532114
 20
908.7681744337
 30
0.0
 11
1238.546228415
 21
908.7681744337
 31
0.0
  0
LINE
  5
12A
330
122
100
AcDbEntity
  8
SLD-0
100
AcDbLine
 10
1287.7940073671
 20
939.036508286
 30
0.0
 11
1293.5883825706
 21
939.036508286
 31
0.0
  0
LINE
  5
12B
330
122
100
AcDbEntity
  8
SLD-0
100
AcDbLine
 10
1293.5883825706
 20
939.036508286
 30
0.0
 11
1293.5883825706
 21
908.7681744337
 31
0.0
  0
LINE
  5
12C
330
122
100
AcDbEntity
  8
SLD-0
100
AcDbLine
 10
1293.5883825706
 20
908.7681744337
 30
0.0
 11
1287.7940073671
 21
908.7681744337
 31
0.0
  0
LINE
  5
12D
330
122
100
AcDbEntity
  8
SLD-0
100
AcDbLine
 10
1150.960117891
 20
1013.920158454
 30
0.0
 11
1150.960117891
 21
932.9405045607
 31
0.0
  0
LINE
  5
12E
330
122
100
AcDbEntity
  8
SLD-0
100
AcDbLine
 10
1375.380117891
 20
1123.3440718898
 30
0.0
 11
1375.380117891
 21
932.9405045607
 31
0.0
  0
LINE
  5
12F
330
122
100
AcDbEntity
  8
SLD-0
100
AcDbLine
 10
1150.960117891
 20
939.0365045607
 30
0.0
 11
1216.0747253801
 21
939.0365045607
 31
0.0
  0
LINE
  5
130
330
122
100
AcDbEntity
  8
SLD-0
100
AcDbLine
 10
1375.380117891
 20
939.0365045607
 30
0.0
 11
1310.2655104019
 21
939.0365045607
 31
0.0
  0
MTEXT
  5
131
330
122
100
AcDbEntity
  8
SLD-0
100
AcDbMText
 10
1219.9372001054
 20
967.2328213528
 30
0.0
 40
19.05
 41
0.0
 71
     1
 72
     1
  1
 
  7
SLDTEXTSTYLE0
 73
     1
 44
1.0
  0
MTEXT
  5
132
330
122
100
AcDbEntity
  8
SLD-0
100
AcDbMText
 10
1231.5083112629
 20
967.2328232154
 30
0.0
 40
19.05
 41
0.0
 71
     1
 72
     1
  1
224.4
  7
SLDTEXTSTYLE0
 73
     1
 44
1.0
  0
MTEXT
  5
133
330
122
100
AcDbEntity
  8
SLD-0
100
AcDbMText
 10
1238.546228415
 20
933.1015738025
 30
0.0
 40
19.05
 41
0.0
 71
     1
 72
     1
  1
8.84
  7
SLDTEXTSTYLE0
 73
     1
 44
1.0
  0
MTEXT
  5
134
330
122
100
AcDbEntity
  8
SLD-0
100
AcDbMText
 10
1299.3827559115
 20
967.2328213528
 30
0.0
 40
19.05
 41
0.0
 71
     1
 72
     1
  1
 
  7
SLDTEXTSTYLE0
 73
     1
 44
1.0
  0
ENDBLK
  5
124
330
122
100
AcDbEntity
  8
0
100
AcDbBlockEnd
  0
BLOCK
  5
138
330
137
100
AcDbEntity
  8
0
100
AcDbBlockBegin
  2
_D_1
 70
     0
 10
0.0
 20
0.0
 30
0.0
  3
_D_1
  1

  0
SOLID
  5
13A
330
137
100
AcDbEntity
  8
SLD-0
100
AcDbTrace
 10
1150.960117891
 20
1418.016158454
 30
0.0
 11
1166.960117891
 21
1416.016158454
 31
0.0
 12
1166.960117891
 22
1420.016158454
 32
0.0
 13
1166.960117891
 23
1420.016158454
 33
0.0
  0
SOLID
  5
13B
330
137
100
AcDbEntity
  8
SLD-0
100
AcDbTrace
 10
1575.960117891
 20
1418.016158454
 30
0.0
 11
1559.960117891
 21
1420.016158454
 31
0.0
 12
1559.960117891
 22
1416.016158454
 32
0.0
 13
1559.960117891
 23
1416.016158454
 33
0.0
  0
LINE
  5
13C
330
137
100
AcDbEntity
  8
SLD-0
100
AcDbLine
 10
1331.7983131256
 20
1418.0161621793
 30
0.0
 11
1326.003937922
 21
1418.0161621793
 31
0.0
  0
LINE
  5
13D
330
137
100
AcDbEntity
  8
SLD-0
100
AcDbLine
 10
1326.003937922
 20
1418.0161621793
 30
0.0
 11
1326.003937922
 21
1387.747828327
 31
0.0
  0
LINE
  5
13E
330
137
100
AcDbEntity
  8
SLD-0
100
AcDbLine
 10
1326.003937922
 20
1387.747828327
 30
0.0
 11
1331.7983131256
 21
1387.747828327
 31
0.0
  0
LINE
  5
13F
330
137
100
AcDbEntity
  8
SLD-0
100
AcDbLine
 10
1395.1219226565
 20
1418.0161621793
 30
0.0
 11
1400.91629786
 21
1418.0161621793
 31
0.0
  0
LINE
  5
140
330
137
100
AcDbEntity
  8
SLD-0
100
AcDbLine
 10
1400.91629786
 20
1418.0161621793
 30
0.0
 11
1400.91629786
 21
1387.747828327
 31
0.0
  0
LINE
  5
141
330
137
100
AcDbEntity
  8
SLD-0
100
AcDbLine
 10
1400.91629786
 20
1387.747828327
 30
0.0
 11
1395.1219226565
 21
1387.747828327
 31
0.0
  0
LINE
  5
142
330
137
100
AcDbEntity
  8
SLD-0
100
AcDbLine
 10
1150.960117891
 20
1296.112158454
 30
0.0
 11
1150.960117891
 21
1424.112158454
 31
0.0
  0
LINE
  5
143
330
137
100
AcDbEntity
  8
SLD-0
100
AcDbLine
 10
1575.960117891
 20
1296.112158454
 30
0.0
 11
1575.960117891
 21
1424.112158454
 31
0.0
  0
LINE
  5
144
330
137
100
AcDbEntity
  8
SLD-0
100
AcDbLine
 10
1150.960117891
 20
1418.016158454
 30
0.0
 11
1309.3268100907
 21
1418.016158454
 31
0.0
  0
LINE
  5
145
330
137
100
AcDbEntity
  8
SLD-0
100
AcDbLine
 10
1575.960117891
 20
1418.016158454
 30
0.0
 11
1417.5934256913
 21
1418.016158454
 31
0.0
  0
MTEXT
  5
146
330
137
100
AcDbEntity
  8
SLD-0
100
AcDbMText
 10
1313.189284816
 20
1446.2124752461
 30
0.0
 40
19.05
 41
0.0
 71
     1
 72
     1
  1
 
  7
SLDTEXTSTYLE0
 73
     1
 44
1.0
  0
MTEXT
  5
147
330
137
100
AcDbEntity
  8
SLD-0
100
AcDbMText
 10
1331.7983112629
 20
1446.2124771087
 30
0.0
 40
19.05
 41
0.0
 71
     1
 72
     1
  1
425.0
  7
SLDTEXTSTYLE0
 73
     1
 44
1.0
  0
MTEXT
  5
148
330
137
100
AcDbEntity
  8
SLD-0
100
AcDbMText
 10
1331.7983131256
 20
1412.0812276958
 30
0.0
 40
19.05
 41
0.0
 71
     1
 72
     1
  1
16.73
  7
SLDTEXTSTYLE0
 73
     1
 44
1.0
  0
MTEXT
  5
149
330
137
100
AcDbEntity
  8
SLD-0
100
AcDbMText
 10
1406.7106712009
 20
1446.2124752461
 30
0.0
 40
19.05
 41
0.0
 71
     1
 72
     1
  1
 
  7
SLDTEXTSTYLE0
 73
     1
 44
1.0
  0
ENDBLK
  5
139
330
137
100
AcDbEntity
  8
0
100
AcDbBlockEnd
  0
BLOCK
  5
14B
330
14A
100
AcDbEntity
  8
0
100
AcDbBlockBegin
  2
SW_SYMBOL_MOD_CL
 70
     0
 10
0.0
 20
0.0
 30
0.0
  3
SW_SYMBOL_MOD_CL
  1

  0
MTEXT
  5
14D
330
14A
100
AcDbEntity
  8
SLD-0
 62
     0
100
AcDbMText
 10
3200.0
 20
4800.0
 30
0.0
 40
6262.996941896
 41
0.0
 71
     5
 72
     1
  1
C
  7
SLDTEXTSTYLE0
 73
     1
 44
1.0
  0
MTEXT
  5
14E
330
14A
100
AcDbEntity
  8
SLD-0
 62
     0
100
AcDbMText
 10
4800.0
 20
2400.0
 30
0.0
 40
6262.996941896
 41
0.0
 71
     5
 72
     1
  1
L
  7
SLDTEXTSTYLE0
 73
     1
 44
1.0
  0
ENDBLK
  5
14C
330
14A
100
AcDbEntity
  8
0
100
AcDbBlockEnd
  0
BLOCK
  5
173
330
172
100
AcDbEntity
  8
0
100
AcDbBlockBegin
  2
_D_2
 70
     0
 10
0.0
 20
0.0
 30
0.0
  3
_D_2
  1

  0
SOLID
  5
175
330
172
100
AcDbEntity
  8
SLD-0
100
AcDbTrace
 10
1883.4533678496
 20
1290.016158454
 30
0.0
 11
1881.4533678496
 21
1274.016158454
 31
0.0
 12
1885.4533678496
 22
1274.016158454
 32
0.0
 13
1885.4533678496
 23
1274.016158454
 33
0.0
  0
SOLID
  5
176
330
172
100
AcDbEntity
  8
SLD-0
100
AcDbTrace
 10
1883.4533678496
 20
1020.016158454
 30
0.0
 11
1885.4533678496
 21
1036.016158454
 31
0.0
 12
1881.4533678496
 22
1036.016158454
 32
0.0
 13
1881.4533678496
 23
1036.016158454
 33
0.0
  0
LINE
  5
177
330
172
100
AcDbEntity
  8
SLD-0
100
AcDbLine
 10
1851.7915630841
 20
1155.0161621793
 30
0.0
 11
1845.9971878806
 21
1155.0161621793
 31
0.0
  0
LINE
  5
178
330
172
100
AcDbEntity
  8
SLD-0
100
AcDbLine
 10
1845.9971878806
 20
1155.0161621793
 30
0.0
 11
1845.9971878806
 21
1124.747828327
 31
0.0
  0
LINE
  5
179
330
172
100
AcDbEntity
  8
SLD-0
100
AcDbLine
 10
1845.9971878806
 20
1124.747828327
 30
0.0
 11
1851.7915630841
 21
1124.747828327
 31
0.0
  0
LINE
  5
17A
330
172
100
AcDbEntity
  8
SLD-0
100
AcDbLine
 10
1915.1151726151
 20
1155.0161621793
 30
0.0
 11
1920.9095478186
 21
1155.0161621793
 31
0.0
  0
LINE
  5
17B
330
172
100
AcDbEntity
  8
SLD-0
100
AcDbLine
 10
1920.9095478186
 20
1155.0161621793
 30
0.0
 11
1920.9095478186
 21
1124.747828327
 31
0.0
  0
LINE
  5
17C
330
172
100
AcDbEntity
  8
SLD-0
100
AcDbLine
 10
1920.9095478186
 20
1124.747828327
 30
0.0
 11
1915.1151726151
 21
1124.747828327
 31
0.0
  0
LINE
  5
17D
330
172
100
AcDbEntity
  8
SLD-0
100
AcDbLine
 10
1957.3573678496
 20
1290.016158454
 30
0.0
 11
1877.3573678496
 21
1290.016158454
 31
0.0
  0
LINE
  5
17E
330
172
100
AcDbEntity
  8
SLD-0
100
AcDbLine
 10
1957.3573678496
 20
1020.016158454
 30
0.0
 11
1877.3573678496
 21
1020.016158454
 31
0.0
  0
LINE
  5
17F
330
172
100
AcDbEntity
  8
SLD-0
100
AcDbLine
 10
1883.4533678496
 20
1290.016158454
 30
0.0
 11
1883.4533678496
 21
1189.1474097295
 31
0.0
  0
LINE
  5
180
330
172
100
AcDbEntity
  8
SLD-0
100
AcDbLine
 10
1883.4533678496
 20
1020.016158454
 30
0.0
 11
1883.4533678496
 21
1120.8849071785
 31
0.0
  0
MTEXT
  5
181
330
172
100
AcDbEntity
  8
SLD-0
100
AcDbMText
 10
1833.1825347745
 20
1183.2124752461
 30
0.0
 40
19.05
 41
0.0
 71
     1
 72
     1
  1
 
  7
SLDTEXTSTYLE0
 73
     1
 44
1.0
  0
MTEXT
  5
182
330
172
100
AcDbEntity
  8
SLD-0
100
AcDbMText
 10
1844.7536459321
 20
1183.2124771087
 30
0.0
 40
19.05
 41
0.0
 71
     1
 72
     1
  1
270.00
  7
SLDTEXTSTYLE0
 73
     1
 44
1.0
  0
MTEXT
  5
183
330
172
100
AcDbEntity
  8
SLD-0
100
AcDbMText
 10
1851.7915630841
 20
1149.0812276958
 30
0.0
 40
19.05
 41
0.0
 71
     1
 72
     1
  1
10.63
  7
SLDTEXTSTYLE0
 73
     1
 44
1.0
  0
MTEXT
  5
184
330
172
100
AcDbEntity
  8
SLD-0
100
AcDbMText
 10
1926.7039211595
 20
1183.2124752461
 30
0.0
 40
19.05
 41
0.0
 71
     1
 72
     1
  1
 
  7
SLDTEXTSTYLE0
 73
     1
 44
1.0
  0
ENDBLK
  5
174
330
172
100
AcDbEntity
  8
0
100
AcDbBlockEnd
  0
BLOCK
  5
187
330
186
100
AcDbEntity
  8
0
100
AcDbBlockBegin
  2
_D_3
 70
     0
 10
0.0
 20
0.0
 30
0.0
  3
_D_3
  1

  0
SOLID
  5
189
330
186
100
AcDbEntity
  8
SLD-0
100
AcDbTrace
 10
1765.2497822272
 20
1290.016158454
 30
0.0
 11
1763.2497822272
 21
1274.016158454
 31
0.0
 12
1767.2497822272
 22
1274.016158454
 32
0.0
 13
1767.2497822272
 23
1274.016158454
 33
0.0
  0
SOLID
  5
18A
330
186
100
AcDbEntity
  8
SLD-0
100
AcDbTrace
 10
1765.2497822272
 20
1010.016158454
 30
0.0
 11
1767.2497822272
 21
1026.016158454
 31
0.0
 12
1763.2497822272
 22
1026.016158454
 32
0.0
 13
1763.2497822272
 23
1026.016158454
 33
0.0
  0
LINE
  5
18B
330
186
100
AcDbEntity
  8
SLD-0
100
AcDbLine
 10
1733.5879774618
 20
1150.0161621793
 30
0.0
 11
1727.7936022582
 21
1150.0161621793
 31
0.0
  0
LINE
  5
18C
330
186
100
AcDbEntity
  8
SLD-0
100
AcDbLine
 10
1727.7936022582
 20
1150.0161621793
 30
0.0
 11
1727.7936022582
 21
1119.747828327
 31
0.0
  0
LINE
  5
18D
330
186
100
AcDbEntity
  8
SLD-0
100
AcDbLine
 10
1727.7936022582
 20
1119.747828327
 30
0.0
 11
1733.5879774618
 21
1119.747828327
 31
0.0
  0
LINE
  5
18E
330
186
100
AcDbEntity
  8
SLD-0
100
AcDbLine
 10
1796.9115869927
 20
1150.0161621793
 30
0.0
 11
1802.7059621963
 21
1150.0161621793
 31
0.0
  0
LINE
  5
18F
330
186
100
AcDbEntity
  8
SLD-0
100
AcDbLine
 10
1802.7059621963
 20
1150.0161621793
 30
0.0
 11
1802.7059621963
 21
1119.747828327
 31
0.0
  0
LINE
  5
190
330
186
100
AcDbEntity
  8
SLD-0
100
AcDbLine
 10
1802.7059621963
 20
1119.747828327
 30
0.0
 11
1796.9115869927
 21
1119.747828327
 31
0.0
  0
LINE
  5
191
330
186
100
AcDbEntity
  8
SLD-0
100
AcDbLine
 10
1957.3573678496
 20
1290.016158454
 30
0.0
 11
1759.1537822272
 21
1290.016158454
 31
0.0
  0
LINE
  5
192
330
186
100
AcDbEntity
  8
SLD-0
100
AcDbLine
 10
1966.6073678496
 20
1010.016158454
 30
0.0
 11
1759.1537822272
 21
1010.016158454
 31
0.0
  0
LINE
  5
193
330
186
100
AcDbEntity
  8
SLD-0
100
AcDbLine
 10
1765.2497822272
 20
1290.016158454
 30
0.0
 11
1765.2497822272
 21
1184.1474097295
 31
0.0
  0
LINE
  5
194
330
186
100
AcDbEntity
  8
SLD-0
100
AcDbLine
 10
1765.2497822272
 20
1010.016158454
 30
0.0
 11
1765.2497822272
 21
1115.8849071785
 31
0.0
  0
MTEXT
  5
195
330
186
100
AcDbEntity
  8
SLD-0
100
AcDbMText
 10
1714.9789491522
 20
1178.2124752461
 30
0.0
 40
19.05
 41
0.0
 71
     1
 72
     1
  1
 
  7
SLDTEXTSTYLE0
 73
     1
 44
1.0
  0
MTEXT
  5
196
330
186
100
AcDbEntity
  8
SLD-0
100
AcDbMText
 10
1733.5879755991
 20
1178.2124771087
 30
0.0
 40
19.05
 41
0.0
 71
     1
 72
     1
  1
280.0
  7
SLDTEXTSTYLE0
 73
     1
 44
1.0
  0
MTEXT
  5
197
330
186
100
AcDbEntity
  8
SLD-0
100
AcDbMText
 10
1733.5879774618
 20
1144.0812276958
 30
0.0
 40
19.05
 41
0.0
 71
     1
 72
     1
  1
11.02
  7
SLDTEXTSTYLE0
 73
     1
 44
1.0
  0
MTEXT
  5
198
330
186
100
AcDbEntity
  8
SLD-0
100
AcDbMText
 10
1808.5003355372
 20
1178.2124752461
 30
0.0
 40
19.05
 41
0.0
 71
     1
 72
     1
  1
 
  7
SLDTEXTSTYLE0
 73
     1
 44
1.0
  0
ENDBLK
  5
188
330
186
100
AcDbEntity
  8
0
100
AcDbBlockEnd
  0
BLOCK
  5
19B
330
19A
100
AcDbEntity
  8
0
100
AcDbBlockBegin
  2
_D_4
 70
     0
 10
0.0
 20
0.0
 30
0.0
  3
_D_4
  1

  0
SOLID
  5
19D
330
19A
100
AcDbEntity
  8
SLD-0
100
AcDbTrace
 10
1963.4533678496
 20
946.6134142438
 30
0.0
 11
1979.4533678496
 21
944.6134142438
 31
0.0
 12
1979.4533678496
 22
948.6134142438
 32
0.0
 13
1979.4533678496
 23
948.6134142438
 33
0.0
  0
SOLID
  5
19E
330
19A
100
AcDbEntity
  8
SLD-0
100
AcDbTrace
 10
2045.4533678496
 20
946.6134142438
 30
0.0
 11
2029.4533678496
 21
948.6134142438
 31
0.0
 12
2029.4533678496
 22
944.6134142438
 32
0.0
 13
2029.4533678496
 23
944.6134142438
 33
0.0
  0
LINE
  5
19F
330
19A
100
AcDbEntity
  8
SLD-0
100
AcDbLine
 10
1858.8294783735
 20
946.613417969
 30
0.0
 11
1853.03510317
 21
946.613417969
 31
0.0
  0
LINE
  5
1A0
330
19A
100
AcDbEntity
  8
SLD-0
100
AcDbLine
 10
1853.03510317
 20
946.613417969
 30
0.0
 11
1853.03510317
 21
916.3450841168
 31
0.0
  0
LINE
  5
1A1
330
19A
100
AcDbEntity
  8
SLD-0
100
AcDbLine
 10
1853.03510317
 20
916.3450841168
 30
0.0
 11
1858.8294783735
 21
916.3450841168
 31
0.0
  0
LINE
  5
1A2
330
19A
100
AcDbEntity
  8
SLD-0
100
AcDbLine
 10
1908.0772573257
 20
946.613417969
 30
0.0
 11
1913.8716325292
 21
946.613417969
 31
0.0
  0
LINE
  5
1A3
330
19A
100
AcDbEntity
  8
SLD-0
100
AcDbLine
 10
1913.8716325292
 20
946.613417969
 30
0.0
 11
1913.8716325292
 21
916.3450841168
 31
0.0
  0
LINE
  5
1A4
330
19A
100
AcDbEntity
  8
SLD-0
100
AcDbLine
 10
1913.8716325292
 20
916.3450841168
 30
0.0
 11
1908.0772573257
 21
916.3450841168
 31
0.0
  0
LINE
  5
1A5
330
19A
100
AcDbEntity
  8
SLD-0
100
AcDbLine
 10
1963.4533678496
 20
1013.920158454
 30
0.0
 11
1963.4533678496
 21
940.5174142438
 31
0.0
  0
LINE
  5
1A6
330
19A
100
AcDbEntity
  8
SLD-0
100
AcDbLine
 10
2045.4533678496
 20
1042.320158454
 30
0.0
 11
2045.4533678496
 21
940.5174142438
 31
0.0
  0
LINE
  5
1A7
330
19A
100
AcDbEntity
  8
SLD-0
100
AcDbLine
 10
1963.4533678496
 20
946.6134142438
 30
0.0
 11
1930.5487603605
 21
946.6134142438
 31
0.0
  0
LINE
  5
1A8
330
19A
100
AcDbEntity
  8
SLD-0
100
AcDbLine
 10
2045.4533678496
 20
946.6134142438
 30
0.0
 11
1963.4533678496
 21
946.6134142438
 31
0.0
  0
MTEXT
  5
1A9
330
19A
100
AcDbEntity
  8
SLD-0
100
AcDbMText
 10
1840.2204500639
 20
974.8097310358
 30
0.0
 40
19.05
 41
0.0
 71
     1
 72
     1
  1
 
  7
SLDTEXTSTYLE0
 73
     1
 44
1.0
  0
MTEXT
  5
1AA
330
19A
100
AcDbEntity
  8
SLD-0
100
AcDbMText
 10
1858.8294765109
 20
974.8097328985
 30
0.0
 40
19.05
 41
0.0
 71
     1
 72
     1
  1
82.0
  7
SLDTEXTSTYLE0
 73
     1
 44
1.0
  0
MTEXT
  5
1AB
330
19A
100
AcDbEntity
  8
SLD-0
100
AcDbMText
 10
1858.8294783735
 20
940.6784834856
 30
0.0
 40
19.05
 41
0.0
 71
     1
 72
     1
  1
3.23
  7
SLDTEXTSTYLE0
 73
     1
 44
1.0
  0
MTEXT
  5
1AC
330
19A
100
AcDbEntity
  8
SLD-0
100
AcDbMText
 10
1919.6660058701
 20
974.8097310358
 30
0.0
 40
19.05
 41
0.0
 71
     1
 72
     1
  1
 
  7
SLDTEXTSTYLE0
 73
     1
 44
1.0
  0
ENDBLK
  5
19C
330
19A
100
AcDbEntity
  8
0
100
AcDbBlockEnd
  0
BLOCK
  5
1AF
330
1AE
100
AcDbEntity
  8
0
100
AcDbBlockBegin
  2
_D_5
 70
     0
 10
0.0
 20
0.0
 30
0.0
  3
_D_5
  1

  0
SOLID
  5
1B1
330
1AE
100
AcDbEntity
  8
SLD-0
100
AcDbTrace
 10
2045.4533678496
 20
946.6134142438
 30
0.0
 11
2061.4533678496
 21
944.6134142438
 31
0.0
 12
2061.4533678496
 22
948.6134142438
 32
0.0
 13
2061.4533678496
 23
948.6134142438
 33
0.0
  0
SOLID
  5
1B2
330
1AE
100
AcDbEntity
  8
SLD-0
100
AcDbTrace
 10
2408.4533678496
 20
946.6134142438
 30
0.0
 11
2392.4533678496
 21
948.6134142438
 31
0.0
 12
2392.4533678496
 22
944.6134142438
 32
0.0
 13
2392.4533678496
 23
944.6134142438
 33
0.0
  0
LINE
  5
1B3
330
1AE
100
AcDbEntity
  8
SLD-0
100
AcDbLine
 10
2195.2915630841
 20
946.613417969
 30
0.0
 11
2189.4971878806
 21
946.613417969
 31
0.0
  0
LINE
  5
1B4
330
1AE
100
AcDbEntity
  8
SLD-0
100
AcDbLine
 10
2189.4971878806
 20
946.613417969
 30
0.0
 11
2189.4971878806
 21
916.3450841168
 31
0.0
  0
LINE
  5
1B5
330
1AE
100
AcDbEntity
  8
SLD-0
100
AcDbLine
 10
2189.4971878806
 20
916.3450841168
 30
0.0
 11
2195.2915630841
 21
916.3450841168
 31
0.0
  0
LINE
  5
1B6
330
1AE
100
AcDbEntity
  8
SLD-0
100
AcDbLine
 10
2258.6151726151
 20
946.613417969
 30
0.0
 11
2264.4095478186
 21
946.613417969
 31
0.0
  0
LINE
  5
1B7
330
1AE
100
AcDbEntity
  8
SLD-0
100
AcDbLine
 10
2264.4095478186
 20
946.613417969
 30
0.0
 11
2264.4095478186
 21
916.3450841168
 31
0.0
  0
LINE
  5
1B8
330
1AE
100
AcDbEntity
  8
SLD-0
100
AcDbLine
 10
2264.4095478186
 20
916.3450841168
 30
0.0
 11
2258.6151726151
 21
916.3450841168
 31
0.0
  0
LINE
  5
1B9
330
1AE
100
AcDbEntity
  8
SLD-0
100
AcDbLine
 10
2045.4533678496
 20
1042.320158454
 30
0.0
 11
2045.4533678496
 21
940.5174142438
 31
0.0
  0
LINE
  5
1BA
330
1AE
100
AcDbEntity
  8
SLD-0
100
AcDbLine
 10
2408.4533678496
 20
1042.320158454
 30
0.0
 11
2408.4533678496
 21
940.5174142438
 31
0.0
  0
LINE
  5
1BB
330
1AE
100
AcDbEntity
  8
SLD-0
100
AcDbLine
 10
2045.4533678496
 20
946.6134142438
 30
0.0
 11
2172.8200600493
 21
946.6134142438
 31
0.0
  0
LINE
  5
1BC
330
1AE
100
AcDbEntity
  8
SLD-0
100
AcDbLine
 10
2408.4533678496
 20
946.6134142438
 30
0.0
 11
2281.0866756499
 21
946.6134142438
 31
0.0
  0
MTEXT
  5
1BD
330
1AE
100
AcDbEntity
  8
SLD-0
100
AcDbMText
 10
2176.6825347745
 20
974.8097310358
 30
0.0
 40
19.05
 41
0.0
 71
     1
 72
     1
  1
 
  7
SLDTEXTSTYLE0
 73
     1
 44
1.0
  0
MTEXT
  5
1BE
330
1AE
100
AcDbEntity
  8
SLD-0
100
AcDbMText
 10
2195.2915612215
 20
974.8097328985
 30
0.0
 40
19.05
 41
0.0
 71
     1
 72
     1
  1
363.0
  7
SLDTEXTSTYLE0
 73
     1
 44
1.0
  0
MTEXT
  5
1BF
330
1AE
100
AcDbEntity
  8
SLD-0
100
AcDbMText
 10
2195.2915630841
 20
940.6784834856
 30
0.0
 40
19.05
 41
0.0
 71
     1
 72
     1
  1
14.29
  7
SLDTEXTSTYLE0
 73
     1
 44
1.0
  0
MTEXT
  5
1C0
330
1AE
100
AcDbEntity
  8
SLD-0
100
AcDbMText
 10
2270.2039211595
 20
974.8097310358
 30
0.0
 40
19.05
 41
0.0
 71
     1
 72
     1
  1
 
  7
SLDTEXTSTYLE0
 73
     1
 44
1.0
  0
ENDBLK
  5
1B0
330
1AE
100
AcDbEntity
  8
0
100
AcDbBlockEnd
  0
BLOCK
  5
1C3
330
1C2
100
AcDbEntity
  8
0
100
AcDbBlockBegin
  2
_D_6
 70
     0
 10
0.0
 20
0.0
 30
0.0
  3
_D_6
  1

  0
SOLID
  5
1C5
330
1C2
100
AcDbEntity
  8
SLD-0
100
AcDbTrace
 10
2563.4533678496
 20
1249.616158454
 30
0.0
 11
2561.4533678496
 21
1233.616158454
 31
0.0
 12
2565.4533678496
 22
1233.616158454
 32
0.0
 13
2565.4533678496
 23
1233.616158454
 33
0.0
  0
SOLID
  5
1C6
330
1C2
100
AcDbEntity
  8
SLD-0
100
AcDbTrace
 10
2563.4533678496
 20
1060.416158454
 30
0.0
 11
2565.4533678496
 21
1076.416158454
 31
0.0
 12
2561.4533678496
 22
1076.416158454
 32
0.0
 13
2561.4533678496
 23
1076.416158454
 33
0.0
  0
LINE
  5
1C7
330
1C2
100
AcDbEntity
  8
SLD-0
100
AcDbLine
 10
2538.8294783735
 20
1155.0161621793
 30
0.0
 11
2533.03510317
 21
1155.0161621793
 31
0.0
  0
LINE
  5
1C8
330
1C2
100
AcDbEntity
  8
SLD-0
100
AcDbLine
 10
2533.03510317
 20
1155.0161621793
 30
0.0
 11
2533.03510317
 21
1124.747828327
 31
0.0
  0
LINE
  5
1C9
330
1C2
100
AcDbEntity
  8
SLD-0
100
AcDbLine
 10
2533.03510317
 20
1124.747828327
 30
0.0
 11
2538.8294783735
 21
1124.747828327
 31
0.0
  0
LINE
  5
1CA
330
1C2
100
AcDbEntity
  8
SLD-0
100
AcDbLine
 10
2588.0772573257
 20
1155.0161621793
 30
0.0
 11
2593.8716325292
 21
1155.0161621793
 31
0.0
  0
LINE
  5
1CB
330
1C2
100
AcDbEntity
  8
SLD-0
100
AcDbLine
 10
2593.8716325292
 20
1155.0161621793
 30
0.0
 11
2593.8716325292
 21
1124.747828327
 31
0.0
  0
LINE
  5
1CC
330
1C2
100
AcDbEntity
  8
SLD-0
100
AcDbLine
 10
2593.8716325292
 20
1124.747828327
 30
0.0
 11
2588.0772573257
 21
1124.747828327
 31
0.0
  0
LINE
  5
1CD
330
1C2
100
AcDbEntity
  8
SLD-0
100
AcDbLine
 10
2426.5493678496
 20
1249.616158454
 30
0.0
 11
2569.5493678496
 21
1249.616158454
 31
0.0
  0
LINE
  5
1CE
330
1C2
100
AcDbEntity
  8
SLD-0
100
AcDbLine
 10
2426.5493678496
 20
1060.416158454
 30
0.0
 11
2569.5493678496
 21
1060.416158454
 31
0.0
  0
LINE
  5
1CF
330
1C2
100
AcDbEntity
  8
SLD-0
100
AcDbLine
 10
2563.4533678496
 20
1249.616158454
 30
0.0
 11
2563.4533678496
 21
1189.1474097295
 31
0.0
  0
LINE
  5
1D0
330
1C2
100
AcDbEntity
  8
SLD-0
100
AcDbLine
 10
2563.4533678496
 20
1060.416158454
 30
0.0
 11
2563.4533678496
 21
1120.8849071785
 31
0.0
  0
MTEXT
  5
1D1
330
1C2
100
AcDbEntity
  8
SLD-0
100
AcDbMText
 10
2520.2204500639
 20
1183.2124752461
 30
0.0
 40
19.05
 41
0.0
 71
     1
 72
     1
  1
 
  7
SLDTEXTSTYLE0
 73
     1
 44
1.0
  0
MTEXT
  5
1D2
330
1C2
100
AcDbEntity
  8
SLD-0
100
AcDbMText
 10
2531.7915612215
 20
1183.2124771087
 30
0.0
 40
19.05
 41
0.0
 71
     1
 72
     1
  1
189.2
  7
SLDTEXTSTYLE0
 73
     1
 44
1.0
  0
MTEXT
  5
1D3
330
1C2
100
AcDbEntity
  8
SLD-0
100
AcDbMText
 10
2538.8294783735
 20
1149.0812276958
 30
0.0
 40
19.05
 41
0.0
 71
     1
 72
     1
  1
7.45
  7
SLDTEXTSTYLE0
 73
     1
 44
1.0
  0
MTEXT
  5
1D4
330
1C2
100
AcDbEntity
  8
SLD-0
100
AcDbMText
 10
2599.6660058701
 20
1183.2124752461
 30
0.0
 40
19.05
 41
0.0
 71
     1
 72
     1
  1
 
  7
SLDTEXTSTYLE0
 73
     1
 44
1.0
  0
ENDBLK
  5
1C4
330
1C2
100
AcDbEntity
  8
0
100
AcDbBlockEnd
  0
BLOCK
  5
1D7
330
1D6
100
AcDbEntity
  8
0
100
AcDbBlockBegin
  2
_D_7
 70
     0
 10
0.0
 20
0.0
 30
0.0
  3
_D_7
  1

  0
SOLID
  5
1D9
330
1D6
100
AcDbEntity
  8
SLD-0
100
AcDbTrace
 10
2563.4533678496
 20
1060.416158454
 30
0.0
 11
2561.4533678496
 21
1044.416158454
 31
0.0
 12
2565.4533678496
 22
1044.416158454
 32
0.0
 13
2565.4533678496
 23
1044.416158454
 33
0.0
  0
SOLID
  5
1DA
330
1D6
100
AcDbEntity
  8
SLD-0
100
AcDbTrace
 10
2563.4533678496
 20
1020.016158454
 30
0.0
 11
2565.4533678496
 21
1036.016158454
 31
0.0
 12
2561.4533678496
 22
1036.016158454
 32
0.0
 13
2561.4533678496
 23
1036.016158454
 33
0.0
  0
LINE
  5
1DB
330
1D6
100
AcDbEntity
  8
SLD-0
100
AcDbLine
 10
2609.649820335
 20
979.3042447889
 30
0.0
 11
2603.8554451315
 21
979.3042447889
 31
0.0
  0
LINE
  5
1DC
330
1D6
100
AcDbEntity
  8
SLD-0
100
AcDbLine
 10
2603.8554451315
 20
979.3042447889
 30
0.0
 11
2603.8554451315
 21
949.0359109366
 31
0.0
  0
LINE
  5
1DD
330
1D6
100
AcDbEntity
  8
SLD-0
100
AcDbLine
 10
2603.8554451315
 20
949.0359109366
 30
0.0
 11
2609.649820335
 21
949.0359109366
 31
0.0
  0
LINE
  5
1DE
330
1D6
100
AcDbEntity
  8
SLD-0
100
AcDbLine
 10
2658.8975992871
 20
979.3042447889
 30
0.0
 11
2664.6919744907
 21
979.3042447889
 31
0.0
  0
LINE
  5
1DF
330
1D6
100
AcDbEntity
  8
SLD-0
100
AcDbLine
 10
2664.6919744907
 20
979.3042447889
 30
0.0
 11
2664.6919744907
 21
949.0359109366
 31
0.0
  0
LINE
  5
1E0
330
1D6
100
AcDbEntity
  8
SLD-0
100
AcDbLine
 10
2664.6919744907
 20
949.0359109366
 30
0.0
 11
2658.8975992871
 21
949.0359109366
 31
0.0
  0
LINE
  5
1E1
330
1D6
100
AcDbEntity
  8
SLD-0
100
AcDbLine
 10
2426.5493678496
 20
1060.416158454
 30
0.0
 11
2569.5493678496
 21
1060.416158454
 31
0.0
  0
LINE
  5
1E2
330
1D6
100
AcDbEntity
  8
SLD-0
100
AcDbLine
 10
2489.5493678496
 20
1020.016158454
 30
0.0
 11
2569.5493678496
 21
1020.016158454
 31
0.0
  0
LINE
  5
1E3
330
1D6
100
AcDbEntity
  8
SLD-0
100
AcDbLine
 10
2579.4533678496
 20
979.3042410636
 30
0.0
 11
2563.4533678496
 21
979.3042410636
 31
0.0
  0
LINE
  5
1E4
330
1D6
100
AcDbEntity
  8
SLD-0
100
AcDbLine
 10
2563.4533678496
 20
979.3042410636
 30
0.0
 11
2563.4533678496
 21
1020.016158454
 31
0.0
  0
LINE
  5
1E5
330
1D6
100
AcDbEntity
  8
SLD-0
100
AcDbLine
 10
2563.4533678496
 20
1060.416158454
 30
0.0
 11
2563.4533678496
 21
1020.016158454
 31
0.0
  0
MTEXT
  5
1E6
330
1D6
100
AcDbEntity
  8
SLD-0
100
AcDbMText
 10
2591.0407920254
 20
1007.5005578557
 30
0.0
 40
19.05
 41
0.0
 71
     1
 72
     1
  1
 
  7
SLDTEXTSTYLE0
 73
     1
 44
1.0
  0
MTEXT
  5
1E7
330
1D6
100
AcDbEntity
  8
SLD-0
100
AcDbMText
 10
2609.6498184724
 20
1007.5005597183
 30
0.0
 40
19.05
 41
0.0
 71
     1
 72
     1
  1
40.4
  7
SLDTEXTSTYLE0
 73
     1
 44
1.0
  0
MTEXT
  5
1E8
330
1D6
100
AcDbEntity
  8
SLD-0
100
AcDbMText
 10
2609.649820335
 20
973.3693103055
 30
0.0
 40
19.05
 41
0.0
 71
     1
 72
     1
  1
1.59
  7
SLDTEXTSTYLE0
 73
     1
 44
1.0
  0
MTEXT
  5
1E9
330
1D6
100
AcDbEntity
  8
SLD-0
100
AcDbMText
 10
2670.4863478316
 20
1007.5005578557
 30
0.0
 40
19.05
 41
0.0
 71
     1
 72
     1
  1
 
  7
SLDTEXTSTYLE0
 73
     1
 44
1.0
  0
ENDBLK
  5
1D8
330
1D6
100
AcDbEntity
  8
0
100
AcDbBlockEnd
  0
BLOCK
  5
1EB
330
1EA
100
AcDbEntity
  8
0
100
AcDbBlockBegin
  2
SW_NOTE_0_1
 70
     0
 10
0.0
 20
0.0
 30
0.0
  3
SW_NOTE_0_1
  1

  0
LINE
  5
1ED
330
1EA
100
AcDbEntity
  8
SLD-0
 62
     0
100
AcDbLine
 10
0.0
 20
-25.2036141636
 30
0.0
 11
0.0
 21
23.6364346764
 31
0.0
  0
LINE
  5
1EE
330
1EA
100
AcDbEntity
  8
SLD-0
 62
     0
100
AcDbLine
 10
0.0
 20
23.6364346764
 30
0.0
 11
48.84004884
 21
23.6364346764
 31
0.0
  0
LINE
  5
1EF
330
1EA
100
AcDbEntity
  8
SLD-0
 62
     0
100
AcDbLine
 10
48.84004884
 20
23.6364346764
 30
0.0
 11
48.84004884
 21
-25.2036141636
 31
0.0
  0
LINE
  5
1F0
330
1EA
100
AcDbEntity
  8
SLD-0
 62
     0
100
AcDbLine
 10
48.84004884
 20
-25.2036141636
 30
0.0
 11
0.0
 21
-25.2036141636
 31
0.0
  0
MTEXT
  5
1F1
330
1EA
100
AcDbEntity
  8
SLD-0
 62
     0
100
AcDbMText
 10
24.2282014836
 20
8.7014075811
 30
0.0
 40
19.05
 41
0.0
 71
     2
 72
     1
  1
4
  7
SLDTEXTSTYLE0
 73
     1
 44
1.0
  0
ENDBLK
  5
1EC
330
1EA
100
AcDbEntity
  8
0
100
AcDbBlockEnd
  0
BLOCK
  5
1F7
330
1F6
100
AcDbEntity
  8
0
100
AcDbBlockBegin
  2
SW_CENTERMARKSYMBOL_0
 70
     0
 10
0.0
 20
0.0
 30
0.0
  3
SW_CENTERMARKSYMBOL_0
  1

  0
LINE
  5
1F9
330
1F6
100
AcDbEntity
  8
SLD-0
 62
     0
100
AcDbLine
 10
0.0
 20
0.0
 30
0.0
 11
0.0
 21
2.0
 31
0.0
  0
LINE
  5
1FA
330
1F6
100
AcDbEntity
  8
SLD-0
 62
     0
100
AcDbLine
 10
0.0
 20
0.0
 30
0.0
 11
-2.0
 21
0.0
 31
0.0
  0
LINE
  5
1FB
330
1F6
100
AcDbEntity
  8
SLD-0
 62
     0
100
AcDbLine
 10
0.0
 20
0.0
 30
0.0
 11
0.0
 21
-2.0
 31
0.0
  0
LINE
  5
1FC
330
1F6
100
AcDbEntity
  8
SLD-0
 62
     0
100
AcDbLine
 10
0.0
 20
0.0
 30
0.0
 11
2.0
 21
0.0
 31
0.0
  0
LINE
  5
1FD
330
1F6
100
AcDbEntity
  8
SLD-0
 62
     0
100
AcDbLine
 10
0.0
 20
4.0
 30
0.0
 11
0.0
 21
12.0
 31
0.0
  0
LINE
  5
1FE
330
1F6
100
AcDbEntity
  8
SLD-0
 62
     0
100
AcDbLine
 10
-4.0
 20
0.0
 30
0.0
 11
-12.0
 21
0.0
 31
0.0
  0
LINE
  5
1FF
330
1F6
100
AcDbEntity
  8
SLD-0
 62
     0
100
AcDbLine
 10
0.0
 20
-4.0
 30
0.0
 11
0.0
 21
-12.0
 31
0.0
  0
LINE
  5
200
330
1F6
100
AcDbEntity
  8
SLD-0
 62
     0
100
AcDbLine
 10
4.0
 20
0.0
 30
0.0
 11
12.0
 21
0.0
 31
0.0
  0
ENDBLK
  5
1F8
330
1F6
100
AcDbEntity
  8
0
100
AcDbBlockEnd
  0
BLOCK
  5
203
330
202
100
AcDbEntity
  8
0
100
AcDbBlockBegin
  2
SW_CENTERMARKSYMBOL_1
 70
     0
 10
0.0
 20
0.0
 30
0.0
  3
SW_CENTERMARKSYMBOL_1
  1

  0
LINE
  5
205
330
202
100
AcDbEntity
  8
SLD-0
 62
     0
100
AcDbLine
 10
0.0
 20
0.0
 30
0.0
 11
0.0
 21
2.0
 31
0.0
  0
LINE
  5
206
330
202
100
AcDbEntity
  8
SLD-0
 62
     0
100
AcDbLine
 10
0.0
 20
0.0
 30
0.0
 11
-2.0
 21
0.0
 31
0.0
  0
LINE
  5
207
330
202
100
AcDbEntity
  8
SLD-0
 62
     0
100
AcDbLine
 10
0.0
 20
0.0
 30
0.0
 11
0.0
 21
-2.0
 31
0.0
  0
LINE
  5
208
330
202
100
AcDbEntity
  8
SLD-0
 62
     0
100
AcDbLine
 10
0.0
 20
0.0
 30
0.0
 11
2.0
 21
0.0
 31
0.0
  0
LINE
  5
209
330
202
100
AcDbEntity
  8
SLD-0
 62
     0
100
AcDbLine
 10
0.0
 20
4.0
 30
0.0
 11
0.0
 21
12.0
 31
0.0
  0
LINE
  5
20A
330
202
100
AcDbEntity
  8
SLD-0
 62
     0
100
AcDbLine
 10
-4.0
 20
0.0
 30
0.0
 11
-12.0
 21
0.0
 31
0.0
  0
LINE
  5
20B
330
202
100
AcDbEntity
  8
SLD-0
 62
     0
100
AcDbLine
 10
0.0
 20
-4.0
 30
0.0
 11
0.0
 21
-12.0
 31
0.0
  0
LINE
  5
20C
330
202
100
AcDbEntity
  8
SLD-0
 62
     0
100
AcDbLine
 10
4.0
 20
0.0
 30
0.0
 11
12.0
 21
0.0
 31
0.0
  0
ENDBLK
  5
204
330
202
100
AcDbEntity
  8
0
100
AcDbBlockEnd
  0
BLOCK
  5
20F
330
20E
100
AcDbEntity
  8
0
100
AcDbBlockBegin
  2
SW_CENTERMARKSYMBOL_2
 70
     0
 10
0.0
 20
0.0
 30
0.0
  3
SW_CENTERMARKSYMBOL_2
  1

  0
LINE
  5
211
330
20E
100
AcDbEntity
  8
SLD-0
 62
     0
100
AcDbLine
 10
0.0
 20
0.0
 30
0.0
 11
0.0
 21
2.0
 31
0.0
  0
LINE
  5
212
330
20E
100
AcDbEntity
  8
SLD-0
 62
     0
100
AcDbLine
 10
0.0
 20
0.0
 30
0.0
 11
-2.0
 21
0.0
 31
0.0
  0
LINE
  5
213
330
20E
100
AcDbEntity
  8
SLD-0
 62
     0
100
AcDbLine
 10
0.0
 20
0.0
 30
0.0
 11
0.0
 21
-2.0
 31
0.0
  0
LINE
  5
214
330
20E
100
AcDbEntity
  8
SLD-0
 62
     0
100
AcDbLine
 10
0.0
 20
0.0
 30
0.0
 11
2.0
 21
0.0
 31
0.0
  0
LINE
  5
215
330
20E
100
AcDbEntity
  8
SLD-0
 62
     0
100
AcDbLine
 10
0.0
 20
4.0
 30
0.0
 11
0.0
 21
12.0
 31
0.0
  0
LINE
  5
216
330
20E
100
AcDbEntity
  8
SLD-0
 62
     0
100
AcDbLine
 10
-4.0
 20
0.0
 30
0.0
 11
-12.0
 21
0.0
 31
0.0
  0
LINE
  5
217
330
20E
100
AcDbEntity
  8
SLD-0
 62
     0
100
AcDbLine
 10
0.0
 20
-4.0
 30
0.0
 11
0.0
 21
-12.0
 31
0.0
  0
LINE
  5
218
330
20E
100
AcDbEntity
  8
SLD-0
 62
     0
100
AcDbLine
 10
4.0
 20
0.0
 30
0.0
 11
12.0
 21
0.0
 31
0.0
  0
ENDBLK
  5
210
330
20E
100
AcDbEntity
  8
0
100
AcDbBlockEnd
  0
BLOCK
  5
21B
330
21A
100
AcDbEntity
  8
0
100
AcDbBlockBegin
  2
SW_CENTERMARKSYMBOL_3
 70
     0
 10
0.0
 20
0.0
 30
0.0
  3
SW_CENTERMARKSYMBOL_3
  1

  0
LINE
  5
21D
330
21A
100
AcDbEntity
  8
SLD-0
 62
     0
100
AcDbLine
 10
0.0
 20
0.0
 30
0.0
 11
0.0
 21
2.0
 31
0.0
  0
LINE
  5
21E
330
21A
100
AcDbEntity
  8
SLD-0
 62
     0
100
AcDbLine
 10
0.0
 20
0.0
 30
0.0
 11
-2.0
 21
0.0
 31
0.0
  0
LINE
  5
21F
330
21A
100
AcDbEntity
  8
SLD-0
 62
     0
100
AcDbLine
 10
0.0
 20
0.0
 30
0.0
 11
0.0
 21
-2.0
 31
0.0
  0
LINE
  5
220
330
21A
100
AcDbEntity
  8
SLD-0
 62
     0
100
AcDbLine
 10
0.0
 20
0.0
 30
0.0
 11
2.0
 21
0.0
 31
0.0
  0
LINE
  5
221
330
21A
100
AcDbEntity
  8
SLD-0
 62
     0
100
AcDbLine
 10
0.0
 20
4.0
 30
0.0
 11
0.0
 21
12.0
 31
0.0
  0
LINE
  5
222
330
21A
100
AcDbEntity
  8
SLD-0
 62
     0
100
AcDbLine
 10
-4.0
 20
0.0
 30
0.0
 11
-12.0
 21
0.0
 31
0.0
  0
LINE
  5
223
330
21A
100
AcDbEntity
  8
SLD-0
 62
     0
100
AcDbLine
 10
0.0
 20
-4.0
 30
0.0
 11
0.0
 21
-12.0
 31
0.0
  0
LINE
  5
224
330
21A
100
AcDbEntity
  8
SLD-0
 62
     0
100
AcDbLine
 10
4.0
 20
0.0
 30
0.0
 11
12.0
 21
0.0
 31
0.0
  0
ENDBLK
  5
21C
330
21A
100
AcDbEntity
  8
0
100
AcDbBlockEnd
  0
BLOCK
  5
241
330
240
100
AcDbEntity
  8
0
100
AcDbBlockBegin
  2
_D_8
 70
     0
 10
0.0
 20
0.0
 30
0.0
  3
_D_8
  1

  0
SOLID
  5
243
330
240
100
AcDbEntity
  8
SLD-0
100
AcDbTrace
 10
838.4111627907
 20
1373.6103549152
 30
0.0
 11
822.4111627907
 21
1375.6103549152
 31
0.0
 12
822.4111627907
 22
1371.6103549152
 32
0.0
 13
822.4111627907
 23
1371.6103549152
 33
0.0
  0
SOLID
  5
244
330
240
100
AcDbEntity
  8
SLD-0
100
AcDbTrace
 10
595.1811627907
 20
1373.6103549152
 30
0.0
 11
611.1811627907
 21
1371.6103549152
 31
0.0
 12
611.1811627907
 22
1375.6103549152
 32
0.0
 13
611.1811627907
 23
1375.6103549152
 33
0.0
  0
LINE
  5
245
330
240
100
AcDbEntity
  8
SLD-0
100
AcDbLine
 10
692.1722733146
 20
1373.6103586405
 30
0.0
 11
686.3778981111
 21
1373.6103586405
 31
0.0
  0
LINE
  5
246
330
240
100
AcDbEntity
  8
SLD-0
100
AcDbLine
 10
686.3778981111
 20
1373.6103586405
 30
0.0
 11
686.3778981111
 21
1343.3420247882
 31
0.0
  0
LINE
  5
247
330
240
100
AcDbEntity
  8
SLD-0
100
AcDbLine
 10
686.3778981111
 20
1343.3420247882
 30
0.0
 11
692.1722733146
 21
1343.3420247882
 31
0.0
  0
LINE
  5
248
330
240
100
AcDbEntity
  8
SLD-0
100
AcDbLine
 10
741.4200522668
 20
1373.6103586405
 30
0.0
 11
747.2144274703
 21
1373.6103586405
 31
0.0
  0
LINE
  5
249
330
240
100
AcDbEntity
  8
SLD-0
100
AcDbLine
 10
747.2144274703
 20
1373.6103586405
 30
0.0
 11
747.2144274703
 21
1343.3420247882
 31
0.0
  0
LINE
  5
24A
330
240
100
AcDbEntity
  8
SLD-0
100
AcDbLine
 10
747.2144274703
 20
1343.3420247882
 30
0.0
 11
741.4200522668
 21
1343.3420247882
 31
0.0
  0
LINE
  5
24B
330
240
100
AcDbEntity
  8
SLD-0
100
AcDbLine
 10
838.4111627907
 20
1296.112158454
 30
0.0
 11
838.4111627907
 21
1379.7063549152
 31
0.0
  0
LINE
  5
24C
330
240
100
AcDbEntity
  8
SLD-0
100
AcDbLine
 10
595.1811627907
 20
1141.999101125
 30
0.0
 11
595.1811627907
 21
1379.7063549152
 31
0.0
  0
LINE
  5
24D
330
240
100
AcDbEntity
  8
SLD-0
100
AcDbLine
 10
838.4111627907
 20
1373.6103549152
 30
0.0
 11
763.8915553016
 21
1373.6103549152
 31
0.0
  0
LINE
  5
24E
330
240
100
AcDbEntity
  8
SLD-0
100
AcDbLine
 10
595.1811627907
 20
1373.6103549152
 30
0.0
 11
669.7007702798
 21
1373.6103549152
 31
0.0
  0
MTEXT
  5
24F
330
240
100
AcDbEntity
  8
SLD-0
100
AcDbMText
 10
673.5632450051
 20
1401.8066717072
 30
0.0
 40
19.05
 41
0.0
 71
     1
 72
     1
  1
 
  7
SLDTEXTSTYLE0
 73
     1
 44
1.0
  0
MTEXT
  5
250
330
240
100
AcDbEntity
  8
SLD-0
100
AcDbMText
 10
685.1343561626
 20
1401.8066735699
 30
0.0
 40
19.05
 41
0.0
 71
     1
 72
     1
  1
243.2
  7
SLDTEXTSTYLE0
 73
     1
 44
1.0
  0
MTEXT
  5
251
330
240
100
AcDbEntity
  8
SLD-0
100
AcDbMText
 10
692.1722733146
 20
1367.675424157
 30
0.0
 40
19.05
 41
0.0
 71
     1
 72
     1
  1
9.58
  7
SLDTEXTSTYLE0
 73
     1
 44
1.0
  0
MTEXT
  5
252
330
240
100
AcDbEntity
  8
SLD-0
100
AcDbMText
 10
753.0088008112
 20
1401.8066717072
 30
0.0
 40
19.05
 41
0.0
 71
     1
 72
     1
  1
 
  7
SLDTEXTSTYLE0
 73
     1
 44
1.0
  0
ENDBLK
  5
242
330
240
100
AcDbEntity
  8
0
100
AcDbBlockEnd
  0
BLOCK
  5
255
330
254
100
AcDbEntity
  8
0
100
AcDbBlockBegin
  2
_D_9
 70
     0
 10
0.0
 20
0.0
 30
0.0
  3
_D_9
  1

  0
SOLID
  5
257
330
254
100
AcDbEntity
  8
SLD-0
100
AcDbTrace
 10
245.3832334652
 20
1020.016158454
 30
0.0
 11
247.3832334652
 21
1036.016158454
 31
0.0
 12
243.3832334652
 22
1036.016158454
 32
0.0
 13
243.3832334652
 23
1036.016158454
 33
0.0
  0
SOLID
  5
258
330
254
100
AcDbEntity
  8
SLD-0
100
AcDbTrace
 10
245.3832334652
 20
1132.266158454
 30
0.0
 11
243.3832334652
 21
1116.266158454
 31
0.0
 12
247.3832334652
 22
1116.266158454
 32
0.0
 13
247.3832334652
 23
1116.266158454
 33
0.0
  0
LINE
  5
259
330
254
100
AcDbEntity
  8
SLD-0
100
AcDbLine
 10
149.9390020277
 20
1192.7699553447
 30
0.0
 11
144.1446268241
 21
1192.7699553447
 31
0.0
  0
LINE
  5
25A
330
254
100
AcDbEntity
  8
SLD-0
100
AcDbLine
 10
144.1446268241
 20
1192.7699553447
 30
0.0
 11
144.1446268241
 21
1162.5016214925
 31
0.0
  0
LINE
  5
25B
330
254
100
AcDbEntity
  8
SLD-0
100
AcDbLine
 10
144.1446268241
 20
1162.5016214925
 30
0.0
 11
149.9390020277
 21
1162.5016214925
 31
0.0
  0
LINE
  5
25C
330
254
100
AcDbEntity
  8
SLD-0
100
AcDbLine
 10
199.1867809798
 20
1192.7699553447
 30
0.0
 11
204.9811561834
 21
1192.7699553447
 31
0.0
  0
LINE
  5
25D
330
254
100
AcDbEntity
  8
SLD-0
100
AcDbLine
 10
204.9811561834
 20
1192.7699553447
 30
0.0
 11
204.9811561834
 21
1162.5016214925
 31
0.0
  0
LINE
  5
25E
330
254
100
AcDbEntity
  8
SLD-0
100
AcDbLine
 10
204.9811561834
 20
1162.5016214925
 30
0.0
 11
199.1867809798
 21
1162.5016214925
 31
0.0
  0
LINE
  5
25F
330
254
100
AcDbEntity
  8
SLD-0
100
AcDbLine
 10
312.3151627907
 20
1020.016158454
 30
0.0
 11
239.2872334652
 21
1020.016158454
 31
0.0
  0
LINE
  5
260
330
254
100
AcDbEntity
  8
SLD-0
100
AcDbLine
 10
585.4482201197
 20
1132.266158454
 30
0.0
 11
239.2872334652
 21
1132.266158454
 31
0.0
  0
LINE
  5
261
330
254
100
AcDbEntity
  8
SLD-0
100
AcDbLine
 10
229.3832334652
 20
1192.7699516195
 30
0.0
 11
245.3832334652
 21
1192.7699516195
 31
0.0
  0
LINE
  5
262
330
254
100
AcDbEntity
  8
SLD-0
100
AcDbLine
 10
245.3832334652
 20
1192.7699516195
 30
0.0
 11
245.3832334652
 21
1132.266158454
 31
0.0
  0
LINE
  5
263
330
254
100
AcDbEntity
  8
SLD-0
100
AcDbLine
 10
245.3832334652
 20
1020.016158454
 30
0.0
 11
245.3832334652
 21
1132.266158454
 31
0.0
  0
MTEXT
  5
264
330
254
100
AcDbEntity
  8
SLD-0
100
AcDbMText
 10
131.3299737181
 20
1220.9662684115
 30
0.0
 40
19.05
 41
0.0
 71
     1
 72
     1
  1
 
  7
SLDTEXTSTYLE0
 73
     1
 44
1.0
  0
MTEXT
  5
265
330
254
100
AcDbEntity
  8
SLD-0
100
AcDbMText
 10
142.9010848756
 20
1220.9662702742
 30
0.0
 40
19.05
 41
0.0
 71
     1
 72
     1
  1
112.3
  7
SLDTEXTSTYLE0
 73
     1
 44
1.0
  0
MTEXT
  5
266
330
254
100
AcDbEntity
  8
SLD-0
100
AcDbMText
 10
149.9390020277
 20
1186.8350208613
 30
0.0
 40
19.05
 41
0.0
 71
     1
 72
     1
  1
4.42
  7
SLDTEXTSTYLE0
 73
     1
 44
1.0
  0
MTEXT
  5
267
330
254
100
AcDbEntity
  8
SLD-0
100
AcDbMText
 10
210.7755295243
 20
1220.9662684115
 30
0.0
 40
19.05
 41
0.0
 71
     1
 72
     1
  1
 
  7
SLDTEXTSTYLE0
 73
     1
 44
1.0
  0
ENDBLK
  5
256
330
254
100
AcDbEntity
  8
0
100
AcDbBlockEnd
  0
BLOCK
  5
26A
330
269
100
AcDbEntity
  8
0
100
AcDbBlockBegin
  2
_D_10
 70
     0
 10
0.0
 20
0.0
 30
0.0
  3
_D_10
  1

  0
SOLID
  5
26C
330
269
100
AcDbEntity
  8
SLD-0
100
AcDbTrace
 10
393.4111627907
 20
941.6692582071
 30
0.0
 11
409.4111627907
 21
939.6692582071
 31
0.0
 12
409.4111627907
 22
943.6692582071
 32
0.0
 13
409.4111627907
 23
943.6692582071
 33
0.0
  0
SOLID
  5
26D
330
269
100
AcDbEntity
  8
SLD-0
100
AcDbTrace
 10
756.4111627907
 20
941.6692582071
 30
0.0
 11
740.4111627907
 21
943.6692582071
 31
0.0
 12
740.4111627907
 22
939.6692582071
 32
0.0
 13
740.4111627907
 23
939.6692582071
 33
0.0
  0
LINE
  5
26E
330
269
100
AcDbEntity
  8
SLD-0
100
AcDbLine
 10
543.2493580252
 20
941.6692619324
 30
0.0
 11
537.4549828217
 21
941.6692619324
 31
0.0
  0
LINE
  5
26F
330
269
100
AcDbEntity
  8
SLD-0
100
AcDbLine
 10
537.4549828217
 20
941.6692619324
 30
0.0
 11
537.4549828217
 21
911.4009280801
 31
0.0
  0
LINE
  5
270
330
269
100
AcDbEntity
  8
SLD-0
100
AcDbLine
 10
537.4549828217
 20
911.4009280801
 30
0.0
 11
543.2493580252
 21
911.4009280801
 31
0.0
  0
LINE
  5
271
330
269
100
AcDbEntity
  8
SLD-0
100
AcDbLine
 10
606.5729675562
 20
941.6692619324
 30
0.0
 11
612.3673427597
 21
941.6692619324
 31
0.0
  0
LINE
  5
272
330
269
100
AcDbEntity
  8
SLD-0
100
AcDbLine
 10
612.3673427597
 20
941.6692619324
 30
0.0
 11
612.3673427597
 21
911.4009280801
 31
0.0
  0
LINE
  5
273
330
269
100
AcDbEntity
  8
SLD-0
100
AcDbLine
 10
612.3673427597
 20
911.4009280801
 30
0.0
 11
606.5729675562
 21
911.4009280801
 31
0.0
  0
LINE
  5
274
330
269
100
AcDbEntity
  8
SLD-0
100
AcDbLine
 10
393.4111627907
 20
1042.320158454
 30
0.0
 11
393.4111627907
 21
935.5732582071
 31
0.0
  0
LINE
  5
275
330
269
100
AcDbEntity
  8
SLD-0
100
AcDbLine
 10
756.4111627907
 20
1042.320158454
 30
0.0
 11
756.4111627907
 21
935.5732582071
 31
0.0
  0
LINE
  5
276
330
269
100
AcDbEntity
  8
SLD-0
100
AcDbLine
 10
393.4111627907
 20
941.6692582071
 30
0.0
 11
520.7778549904
 21
941.6692582071
 31
0.0
  0
LINE
  5
277
330
269
100
AcDbEntity
  8
SLD-0
100
AcDbLine
 10
756.4111627907
 20
941.6692582071
 30
0.0
 11
629.044470591
 21
941.6692582071
 31
0.0
  0
MTEXT
  5
278
330
269
100
AcDbEntity
  8
SLD-0
100
AcDbMText
 10
524.6403297157
 20
969.8655749992
 30
0.0
 40
19.05
 41
0.0
 71
     1
 72
     1
  1
 
  7
SLDTEXTSTYLE0
 73
     1
 44
1.0
  0
MTEXT
  5
279
330
269
100
AcDbEntity
  8
SLD-0
100
AcDbMText
 10
543.2493561626
 20
969.8655768618
 30
0.0
 40
19.05
 41
0.0
 71
     1
 72
     1
  1
363.0
  7
SLDTEXTSTYLE0
 73
     1
 44
1.0
  0
MTEXT
  5
27A
330
269
100
AcDbEntity
  8
SLD-0
100
AcDbMText
 10
543.2493580252
 20
935.7343274489
 30
0.0
 40
19.05
 41
0.0
 71
     1
 72
     1
  1
14.29
  7
SLDTEXTSTYLE0
 73
     1
 44
1.0
  0
MTEXT
  5
27B
330
269
100
AcDbEntity
  8
SLD-0
100
AcDbMText
 10
618.1617161006
 20
969.8655749992
 30
0.0
 40
19.05
 41
0.0
 71
     1
 72
     1
  1
 
  7
SLDTEXTSTYLE0
 73
     1
 44
1.0
  0
ENDBLK
  5
26B
330
269
100
AcDbEntity
  8
0
100
AcDbBlockEnd
  0
BLOCK
  5
27E
330
27D
100
AcDbEntity
  8
0
100
AcDbBlockBegin
  2
_D_11
 70
     0
 10
0.0
 20
0.0
 30
0.0
  3
_D_11
  1

  0
SOLID
  5
280
330
27D
100
AcDbEntity
  8
SLD-0
100
AcDbTrace
 10
756.4111627907
 20
941.6692582071
 30
0.0
 11
772.4111627907
 21
939.6692582071
 31
0.0
 12
772.4111627907
 22
943.6692582071
 32
0.0
 13
772.4111627907
 23
943.6692582071
 33
0.0
  0
SOLID
  5
281
330
27D
100
AcDbEntity
  8
SLD-0
100
AcDbTrace
 10
838.4111627907
 20
941.6692582071
 30
0.0
 11
822.4111627907
 21
943.6692582071
 31
0.0
 12
822.4111627907
 22
939.6692582071
 32
0.0
 13
822.4111627907
 23
939.6692582071
 33
0.0
  0
LINE
  5
282
330
27D
100
AcDbEntity
  8
SLD-0
100
AcDbLine
 10
893.7872733146
 20
941.6692619324
 30
0.0
 11
887.9928981111
 21
941.6692619324
 31
0.0
  0
LINE
  5
283
330
27D
100
AcDbEntity
  8
SLD-0
100
AcDbLine
 10
887.9928981111
 20
941.6692619324
 30
0.0
 11
887.9928981111
 21
911.4009280801
 31
0.0
  0
LINE
  5
284
330
27D
100
AcDbEntity
  8
SLD-0
100
AcDbLine
 10
887.9928981111
 20
911.4009280801
 30
0.0
 11
893.7872733146
 21
911.4009280801
 31
0.0
  0
LINE
  5
285
330
27D
100
AcDbEntity
  8
SLD-0
100
AcDbLine
 10
943.0350522668
 20
941.6692619324
 30
0.0
 11
948.8294274703
 21
941.6692619324
 31
0.0
  0
LINE
  5
286
330
27D
100
AcDbEntity
  8
SLD-0
100
AcDbLine
 10
948.8294274703
 20
941.6692619324
 30
0.0
 11
948.8294274703
 21
911.4009280801
 31
0.0
  0
LINE
  5
287
330
27D
100
AcDbEntity
  8
SLD-0
100
AcDbLine
 10
948.8294274703
 20
911.4009280801
 30
0.0
 11
943.0350522668
 21
911.4009280801
 31
0.0
  0
LINE
  5
288
330
27D
100
AcDbEntity
  8
SLD-0
100
AcDbLine
 10
756.4111627907
 20
1042.320158454
 30
0.0
 11
756.4111627907
 21
935.5732582071
 31
0.0
  0
LINE
  5
289
330
27D
100
AcDbEntity
  8
SLD-0
100
AcDbLine
 10
838.4111627907
 20
1013.920158454
 30
0.0
 11
838.4111627907
 21
935.5732582071
 31
0.0
  0
LINE
  5
28A
330
27D
100
AcDbEntity
  8
SLD-0
100
AcDbLine
 10
756.4111627907
 20
941.6692582071
 30
0.0
 11
838.4111627907
 21
941.6692582071
 31
0.0
  0
LINE
  5
28B
330
27D
100
AcDbEntity
  8
SLD-0
100
AcDbLine
 10
838.4111627907
 20
941.6692582071
 30
0.0
 11
871.3157702798
 21
941.6692582071
 31
0.0
  0
MTEXT
  5
28C
330
27D
100
AcDbEntity
  8
SLD-0
100
AcDbMText
 10
875.1782450051
 20
969.8655749992
 30
0.0
 40
19.05
 41
0.0
 71
     1
 72
     1
  1
 
  7
SLDTEXTSTYLE0
 73
     1
 44
1.0
  0
MTEXT
  5
28D
330
27D
100
AcDbEntity
  8
SLD-0
100
AcDbMText
 10
893.787271452
 20
969.8655768618
 30
0.0
 40
19.05
 41
0.0
 71
     1
 72
     1
  1
82.0
  7
SLDTEXTSTYLE0
 73
     1
 44
1.0
  0
MTEXT
  5
28E
330
27D
100
AcDbEntity
  8
SLD-0
100
AcDbMText
 10
893.7872733146
 20
935.7343274489
 30
0.0
 40
19.05
 41
0.0
 71
     1
 72
     1
  1
3.23
  7
SLDTEXTSTYLE0
 73
     1
 44
1.0
  0
MTEXT
  5
28F
330
27D
100
AcDbEntity
  8
SLD-0
100
AcDbMText
 10
954.6238008112
 20
969.8655749992
 30
0.0
 40
19.05
 41
0.0
 71
     1
 72
     1
  1
 
  7
SLDTEXTSTYLE0
 73
     1
 44
1.0
  0
ENDBLK
  5
27F
330
27D
100
AcDbEntity
  8
0
100
AcDbBlockEnd
  0
BLOCK
  5
292
330
291
100
AcDbEntity
  8
0
100
AcDbBlockBegin
  2
_D_12
 70
     0
 10
0.0
 20
0.0
 30
0.0
  3
_D_12
  1

  0
SOLID
  5
294
330
291
100
AcDbEntity
  8
SLD-0
100
AcDbTrace
 10
903.1928302245
 20
1060.416158454
 30
0.0
 11
901.1928302245
 21
1044.416158454
 31
0.0
 12
905.1928302245
 22
1044.416158454
 32
0.0
 13
905.1928302245
 23
1044.416158454
 33
0.0
  0
SOLID
  5
295
330
291
100
AcDbEntity
  8
SLD-0
100
AcDbTrace
 10
903.1928302245
 20
1020.016158454
 30
0.0
 11
905.1928302245
 21
1036.016158454
 31
0.0
 12
901.1928302245
 22
1036.016158454
 32
0.0
 13
901.1928302245
 23
1036.016158454
 33
0.0
  0
LINE
  5
296
330
291
100
AcDbEntity
  8
SLD-0
100
AcDbLine
 10
949.3892827099
 20
1122.3601330119
 30
0.0
 11
943.5949075064
 21
1122.3601330119
 31
0.0
  0
LINE
  5
297
330
291
100
AcDbEntity
  8
SLD-0
100
AcDbLine
 10
943.5949075064
 20
1122.3601330119
 30
0.0
 11
943.5949075064
 21
1092.0917991596
 31
0.0
  0
LINE
  5
298
330
291
100
AcDbEntity
  8
SLD-0
100
AcDbLine
 10
943.5949075064
 20
1092.0917991596
 30
0.0
 11
949.3892827099
 21
1092.0917991596
 31
0.0
  0
LINE
  5
299
330
291
100
AcDbEntity
  8
SLD-0
100
AcDbLine
 10
998.637061662
 20
1122.3601330119
 30
0.0
 11
1004.4314368656
 21
1122.3601330119
 31
0.0
  0
LINE
  5
29A
330
291
100
AcDbEntity
  8
SLD-0
100
AcDbLine
 10
1004.4314368656
 20
1122.3601330119
 30
0.0
 11
1004.4314368656
 21
1092.0917991596
 31
0.0
  0
LINE
  5
29B
330
291
100
AcDbEntity
  8
SLD-0
100
AcDbLine
 10
1004.4314368656
 20
1092.0917991596
 30
0.0
 11
998.637061662
 21
1092.0917991596
 31
0.0
  0
LINE
  5
29C
330
291
100
AcDbEntity
  8
SLD-0
100
AcDbLine
 10
774.5071627907
 20
1060.416158454
 30
0.0
 11
909.2888302245
 21
1060.416158454
 31
0.0
  0
LINE
  5
29D
330
291
100
AcDbEntity
  8
SLD-0
100
AcDbLine
 10
844.5071627907
 20
1020.016158454
 30
0.0
 11
909.2888302245
 21
1020.016158454
 31
0.0
  0
LINE
  5
29E
330
291
100
AcDbEntity
  8
SLD-0
100
AcDbLine
 10
919.1928302245
 20
1122.3601292866
 30
0.0
 11
903.1928302245
 21
1122.3601292866
 31
0.0
  0
LINE
  5
29F
330
291
100
AcDbEntity
  8
SLD-0
100
AcDbLine
 10
903.1928302245
 20
1122.3601292866
 30
0.0
 11
903.1928302245
 21
1060.416158454
 31
0.0
  0
LINE
  5
2A0
330
291
100
AcDbEntity
  8
SLD-0
100
AcDbLine
 10
903.1928302245
 20
1060.416158454
 30
0.0
 11
903.1928302245
 21
1020.016158454
 31
0.0
  0
MTEXT
  5
2A1
330
291
100
AcDbEntity
  8
SLD-0
100
AcDbMText
 10
930.7802544003
 20
1150.5564460787
 30
0.0
 40
19.05
 41
0.0
 71
     1
 72
     1
  1
 
  7
SLDTEXTSTYLE0
 73
     1
 44
1.0
  0
MTEXT
  5
2A2
330
291
100
AcDbEntity
  8
SLD-0
100
AcDbMText
 10
949.3892808473
 20
1150.5564479414
 30
0.0
 40
19.05
 41
0.0
 71
     1
 72
     1
  1
40.4
  7
SLDTEXTSTYLE0
 73
     1
 44
1.0
  0
MTEXT
  5
2A3
330
291
100
AcDbEntity
  8
SLD-0
100
AcDbMText
 10
949.3892827099
 20
1116.4251985285
 30
0.0
 40
19.05
 41
0.0
 71
     1
 72
     1
  1
1.59
  7
SLDTEXTSTYLE0
 73
     1
 44
1.0
  0
MTEXT
  5
2A4
330
291
100
AcDbEntity
  8
SLD-0
100
AcDbMText
 10
1010.2258102065
 20
1150.5564460787
 30
0.0
 40
19.05
 41
0.0
 71
     1
 72
     1
  1
 
  7
SLDTEXTSTYLE0
 73
     1
 44
1.0
  0
ENDBLK
  5
293
330
291
100
AcDbEntity
  8
0
100
AcDbBlockEnd
  0
BLOCK
  5
2A7
330
2A6
100
AcDbEntity
  8
0
100
AcDbBlockBegin
  2
SW_NOTE_0_2
 70
     0
 10
0.0
 20
0.0
 30
0.0
  3
SW_NOTE_0_2
  1

  0
LINE
  5
2A9
330
2A6
100
AcDbEntity
  8
SLD-0
 62
     0
100
AcDbLine
 10
-48.84004884
 20
-24.2268131868
 30
0.0
 11
-48.84004884
 21
24.6132356532
 31
0.0
  0
LINE
  5
2AA
330
2A6
100
AcDbEntity
  8
SLD-0
 62
     0
100
AcDbLine
 10
-48.84004884
 20
24.6132356532
 30
0.0
 11
0.0
 21
24.6132356532
 31
0.0
  0
LINE
  5
2AB
330
2A6
100
AcDbEntity
  8
SLD-0
 62
     0
100
AcDbLine
 10
0.0
 20
24.6132356532
 30
0.0
 11
0.0
 21
-24.2268131868
 31
0.0
  0
LINE
  5
2AC
330
2A6
100
AcDbEntity
  8
SLD-0
 62
     0
100
AcDbLine
 10
0.0
 20
-24.2268131868
 30
0.0
 11
-48.84004884
 21
-24.2268131868
 31
0.0
  0
MTEXT
  5
2AD
330
2A6
100
AcDbEntity
  8
SLD-0
 62
     0
100
AcDbMText
 10
-24.6118473564
 20
9.678208558
 30
0.0
 40
19.05
 41
0.0
 71
     2
 72
     1
  1
4
  7
SLDTEXTSTYLE0
 73
     1
 44
1.0
  0
ENDBLK
  5
2A8
330
2A6
100
AcDbEntity
  8
0
100
AcDbBlockEnd
  0
BLOCK
  5
2B2
330
2B1
100
AcDbEntity
  8
0
100
AcDbBlockBegin
  2
SW_CENTERMARKSYMBOL_4
 70
     0
 10
0.0
 20
0.0
 30
0.0
  3
SW_CENTERMARKSYMBOL_4
  1

  0
LINE
  5
2B4
330
2B1
100
AcDbEntity
  8
SLD-0
 62
     0
100
AcDbLine
 10
0.0
 20
0.0
 30
0.0
 11
0.0
 21
2.0
 31
0.0
  0
LINE
  5
2B5
330
2B1
100
AcDbEntity
  8
SLD-0
 62
     0
100
AcDbLine
 10
0.0
 20
0.0
 30
0.0
 11
-2.0
 21
0.0
 31
0.0
  0
LINE
  5
2B6
330
2B1
100
AcDbEntity
  8
SLD-0
 62
     0
100
AcDbLine
 10
0.0
 20
0.0
 30
0.0
 11
0.0
 21
-2.0
 31
0.0
  0
LINE
  5
2B7
330
2B1
100
AcDbEntity
  8
SLD-0
 62
     0
100
AcDbLine
 10
0.0
 20
0.0
 30
0.0
 11
2.0
 21
0.0
 31
0.0
  0
LINE
  5
2B8
330
2B1
100
AcDbEntity
  8
SLD-0
 62
     0
100
AcDbLine
 10
0.0
 20
4.0
 30
0.0
 11
0.0
 21
12.0
 31
0.0
  0
LINE
  5
2B9
330
2B1
100
AcDbEntity
  8
SLD-0
 62
     0
100
AcDbLine
 10
-4.0
 20
0.0
 30
0.0
 11
-12.0
 21
0.0
 31
0.0
  0
LINE
  5
2BA
330
2B1
100
AcDbEntity
  8
SLD-0
 62
     0
100
AcDbLine
 10
0.0
 20
-4.0
 30
0.0
 11
0.0
 21
-12.0
 31
0.0
  0
LINE
  5
2BB
330
2B1
100
AcDbEntity
  8
SLD-0
 62
     0
100
AcDbLine
 10
4.0
 20
0.0
 30
0.0
 11
12.0
 21
0.0
 31
0.0
  0
ENDBLK
  5
2B3
330
2B1
100
AcDbEntity
  8
0
100
AcDbBlockEnd
  0
BLOCK
  5
2BE
330
2BD
100
AcDbEntity
  8
0
100
AcDbBlockBegin
  2
SW_CENTERMARKSYMBOL_5
 70
     0
 10
0.0
 20
0.0
 30
0.0
  3
SW_CENTERMARKSYMBOL_5
  1

  0
LINE
  5
2C0
330
2BD
100
AcDbEntity
  8
SLD-0
 62
     0
100
AcDbLine
 10
0.0
 20
0.0
 30
0.0
 11
0.0
 21
2.0
 31
0.0
  0
LINE
  5
2C1
330
2BD
100
AcDbEntity
  8
SLD-0
 62
     0
100
AcDbLine
 10
0.0
 20
0.0
 30
0.0
 11
-2.0
 21
0.0
 31
0.0
  0
LINE
  5
2C2
330
2BD
100
AcDbEntity
  8
SLD-0
 62
     0
100
AcDbLine
 10
0.0
 20
0.0
 30
0.0
 11
0.0
 21
-2.0
 31
0.0
  0
LINE
  5
2C3
330
2BD
100
AcDbEntity
  8
SLD-0
 62
     0
100
AcDbLine
 10
0.0
 20
0.0
 30
0.0
 11
2.0
 21
0.0
 31
0.0
  0
LINE
  5
2C4
330
2BD
100
AcDbEntity
  8
SLD-0
 62
     0
100
AcDbLine
 10
0.0
 20
4.0
 30
0.0
 11
0.0
 21
12.0
 31
0.0
  0
LINE
  5
2C5
330
2BD
100
AcDbEntity
  8
SLD-0
 62
     0
100
AcDbLine
 10
-4.0
 20
0.0
 30
0.0
 11
-12.0
 21
0.0
 31
0.0
  0
LINE
  5
2C6
330
2BD
100
AcDbEntity
  8
SLD-0
 62
     0
100
AcDbLine
 10
0.0
 20
-4.0
 30
0.0
 11
0.0
 21
-12.0
 31
0.0
  0
LINE
  5
2C7
330
2BD
100
AcDbEntity
  8
SLD-0
 62
     0
100
AcDbLine
 10
4.0
 20
0.0
 30
0.0
 11
12.0
 21
0.0
 31
0.0
  0
ENDBLK
  5
2BF
330
2BD
100
AcDbEntity
  8
0
100
AcDbBlockEnd
  0
BLOCK
  5
30F
330
30E
100
AcDbEntity
  8
0
100
AcDbBlockBegin
  2
_D_13
 70
     0
 10
0.0
 20
0.0
 30
0.0
  3
_D_13
  1

  0
SOLID
  5
311
330
30E
100
AcDbEntity
  8
SLD-0
100
AcDbTrace
 10
2919.9915629299
 20
953.5641280084
 30
0.0
 11
2935.9915629299
 21
951.5641280084
 31
0.0
 12
2935.9915629299
 22
955.5641280084
 32
0.0
 13
2935.9915629299
 23
955.5641280084
 33
0.0
  0
SOLID
  5
312
330
30E
100
AcDbEntity
  8
SLD-0
100
AcDbTrace
 10
3074.9915629299
 20
953.5641280084
 30
0.0
 11
3058.9915629299
 21
955.5641280084
 31
0.0
 12
3058.9915629299
 22
951.5641280084
 32
0.0
 13
3058.9915629299
 23
951.5641280084
 33
0.0
  0
LINE
  5
313
330
30E
100
AcDbEntity
  8
SLD-0
100
AcDbLine
 10
2972.8676734539
 20
953.5641317337
 30
0.0
 11
2967.0732982503
 21
953.5641317337
 31
0.0
  0
LINE
  5
314
330
30E
100
AcDbEntity
  8
SLD-0
100
AcDbLine
 10
2967.0732982503
 20
953.5641317337
 30
0.0
 11
2967.0732982503
 21
923.2957978814
 31
0.0
  0
LINE
  5
315
330
30E
100
AcDbEntity
  8
SLD-0
100
AcDbLine
 10
2967.0732982503
 20
923.2957978814
 30
0.0
 11
2972.8676734539
 21
923.2957978814
 31
0.0
  0
LINE
  5
316
330
30E
100
AcDbEntity
  8
SLD-0
100
AcDbLine
 10
3022.115452406
 20
953.5641317337
 30
0.0
 11
3027.9098276095
 21
953.5641317337
 31
0.0
  0
LINE
  5
317
330
30E
100
AcDbEntity
  8
SLD-0
100
AcDbLine
 10
3027.9098276095
 20
953.5641317337
 30
0.0
 11
3027.9098276095
 21
923.2957978814
 31
0.0
  0
LINE
  5
318
330
30E
100
AcDbEntity
  8
SLD-0
100
AcDbLine
 10
3027.9098276095
 20
923.2957978814
 30
0.0
 11
3022.115452406
 21
923.2957978814
 31
0.0
  0
LINE
  5
319
330
30E
100
AcDbEntity
  8
SLD-0
100
AcDbLine
 10
2919.9915629299
 20
1039.420158454
 30
0.0
 11
2919.9915629299
 21
947.4681280084
 31
0.0
  0
LINE
  5
31A
330
30E
100
AcDbEntity
  8
SLD-0
100
AcDbLine
 10
3074.9915629299
 20
1039.420158454
 30
0.0
 11
3074.9915629299
 21
947.4681280084
 31
0.0
  0
LINE
  5
31B
330
30E
100
AcDbEntity
  8
SLD-0
100
AcDbLine
 10
2919.9915629299
 20
953.5641280084
 30
0.0
 11
2950.396170419
 21
953.5641280084
 31
0.0
  0
LINE
  5
31C
330
30E
100
AcDbEntity
  8
SLD-0
100
AcDbLine
 10
3074.9915629299
 20
953.5641280084
 30
0.0
 11
3044.5869554408
 21
953.5641280084
 31
0.0
  0
MTEXT
  5
31D
330
30E
100
AcDbEntity
  8
SLD-0
100
AcDbMText
 10
2954.2586451443
 20
981.7604448005
 30
0.0
 40
19.05
 41
0.0
 71
     1
 72
     1
  1
 
  7
SLDTEXTSTYLE0
 73
     1
 44
1.0
  0
MTEXT
  5
31E
330
30E
100
AcDbEntity
  8
SLD-0
100
AcDbMText
 10
2965.8297563018
 20
981.7604466632
 30
0.0
 40
19.05
 41
0.0
 71
     1
 72
     1
  1
155.0
  7
SLDTEXTSTYLE0
 73
     1
 44
1.0
  0
MTEXT
  5
31F
330
30E
100
AcDbEntity
  8
SLD-0
100
AcDbMText
 10
2972.8676734539
 20
947.6291972503
 30
0.0
 40
19.05
 41
0.0
 71
     1
 72
     1
  1
6.10
  7
SLDTEXTSTYLE0
 73
     1
 44
1.0
  0
MTEXT
  5
320
330
30E
100
AcDbEntity
  8
SLD-0
100
AcDbMText
 10
3033.7042009504
 20
981.7604448005
 30
0.0
 40
19.05
 41
0.0
 71
     1
 72
     1
  1
 
  7
SLDTEXTSTYLE0
 73
     1
 44
1.0
  0
ENDBLK
  5
310
330
30E
100
AcDbEntity
  8
0
100
AcDbBlockEnd
  0
BLOCK
  5
323
330
322
100
AcDbEntity
  8
0
100
AcDbBlockBegin
  2
_D_14
 70
     0
 10
0.0
 20
0.0
 30
0.0
  3
_D_14
  1

  0
SOLID
  5
325
330
322
100
AcDbEntity
  8
SLD-0
100
AcDbTrace
 10
3289.9915629299
 20
1155.516158454
 30
0.0
 11
3287.9915629299
 21
1139.516158454
 31
0.0
 12
3291.9915629299
 22
1139.516158454
 32
0.0
 13
3291.9915629299
 23
1139.516158454
 33
0.0
  0
SOLID
  5
326
330
322
100
AcDbEntity
  8
SLD-0
100
AcDbTrace
 10
3289.9915629299
 20
1034.516158454
 30
0.0
 11
3291.9915629299
 21
1050.516158454
 31
0.0
 12
3287.9915629299
 22
1050.516158454
 32
0.0
 13
3287.9915629299
 23
1050.516158454
 33
0.0
  0
LINE
  5
327
330
322
100
AcDbEntity
  8
SLD-0
100
AcDbLine
 10
3265.3676734539
 20
1095.0161621793
 30
0.0
 11
3259.5732982503
 21
1095.0161621793
 31
0.0
  0
LINE
  5
328
330
322
100
AcDbEntity
  8
SLD-0
100
AcDbLine
 10
3259.5732982503
 20
1095.0161621793
 30
0.0
 11
3259.5732982503
 21
1064.747828327
 31
0.0
  0
LINE
  5
329
330
322
100
AcDbEntity
  8
SLD-0
100
AcDbLine
 10
3259.5732982503
 20
1064.747828327
 30
0.0
 11
3265.3676734539
 21
1064.747828327
 31
0.0
  0
LINE
  5
32A
330
322
100
AcDbEntity
  8
SLD-0
100
AcDbLine
 10
3314.615452406
 20
1095.0161621793
 30
0.0
 11
3320.4098276095
 21
1095.0161621793
 31
0.0
  0
LINE
  5
32B
330
322
100
AcDbEntity
  8
SLD-0
100
AcDbLine
 10
3320.4098276095
 20
1095.0161621793
 30
0.0
 11
3320.4098276095
 21
1064.747828327
 31
0.0
  0
LINE
  5
32C
330
322
100
AcDbEntity
  8
SLD-0
100
AcDbLine
 10
3320.4098276095
 20
1064.747828327
 30
0.0
 11
3314.615452406
 21
1064.747828327
 31
0.0
  0
LINE
  5
32D
330
322
100
AcDbEntity
  8
SLD-0
100
AcDbLine
 10
3070.0875629299
 20
1155.516158454
 30
0.0
 11
3296.0875629299
 21
1155.516158454
 31
0.0
  0
LINE
  5
32E
330
322
100
AcDbEntity
  8
SLD-0
100
AcDbLine
 10
3070.0875629299
 20
1034.516158454
 30
0.0
 11
3296.0875629299
 21
1034.516158454
 31
0.0
  0
LINE
  5
32F
330
322
100
AcDbEntity
  8
SLD-0
100
AcDbLine
 10
3289.9915629299
 20
1155.516158454
 30
0.0
 11
3289.9915629299
 21
1129.1474097295
 31
0.0
  0
LINE
  5
330
330
322
100
AcDbEntity
  8
SLD-0
100
AcDbLine
 10
3289.9915629299
 20
1034.516158454
 30
0.0
 11
3289.9915629299
 21
1060.8849071785
 31
0.0
  0
MTEXT
  5
331
330
322
100
AcDbEntity
  8
SLD-0
100
AcDbMText
 10
3246.7586451443
 20
1123.2124752461
 30
0.0
 40
19.05
 41
0.0
 71
     1
 72
     1
  1
 
  7
SLDTEXTSTYLE0
 73
     1
 44
1.0
  0
MTEXT
  5
332
330
322
100
AcDbEntity
  8
SLD-0
100
AcDbMText
 10
3258.3297563018
 20
1123.2124771087
 30
0.0
 40
19.05
 41
0.0
 71
     1
 72
     1
  1
121.0
  7
SLDTEXTSTYLE0
 73
     1
 44
1.0
  0
MTEXT
  5
333
330
322
100
AcDbEntity
  8
SLD-0
100
AcDbMText
 10
3265.3676734539
 20
1089.0812276958
 30
0.0
 40
19.05
 41
0.0
 71
     1
 72
     1
  1
4.76
  7
SLDTEXTSTYLE0
 73
     1
 44
1.0
  0
MTEXT
  5
334
330
322
100
AcDbEntity
  8
SLD-0
100
AcDbMText
 10
3326.2042009504
 20
1123.2124752461
 30
0.0
 40
19.05
 41
0.0
 71
     1
 72
     1
  1
 
  7
SLDTEXTSTYLE0
 73
     1
 44
1.0
  0
ENDBLK
  5
324
330
322
100
AcDbEntity
  8
0
100
AcDbBlockEnd
  0
BLOCK
  5
338
330
337
100
AcDbEntity
  8
0
100
AcDbBlockBegin
  2
_D_15
 70
     0
 10
0.0
 20
0.0
 30
0.0
  3
_D_15
  1

  0
SOLID
  5
33A
330
337
100
AcDbEntity
  8
SLD-0
100
AcDbTrace
 10
3289.9915629299
 20
1034.516158454
 30
0.0
 11
3291.9915629299
 21
1050.516158454
 31
0.0
 12
3287.9915629299
 22
1050.516158454
 32
0.0
 13
3287.9915629299
 23
1050.516158454
 33
0.0
  0
SOLID
  5
33B
330
337
100
AcDbEntity
  8
SLD-0
100
AcDbTrace
 10
3289.9915629299
 20
1020.016158454
 30
0.0
 11
3287.9915629299
 21
1004.016158454
 31
0.0
 12
3291.9915629299
 22
1004.016158454
 32
0.0
 13
3291.9915629299
 23
1004.016158454
 33
0.0
  0
LINE
  5
33C
330
337
100
AcDbEntity
  8
SLD-0
100
AcDbLine
 10
3336.1880154153
 20
978.6270989623
 30
0.0
 11
3330.3936402118
 21
978.6270989623
 31
0.0
  0
LINE
  5
33D
330
337
100
AcDbEntity
  8
SLD-0
100
AcDbLine
 10
3330.3936402118
 20
978.6270989623
 30
0.0
 11
3330.3936402118
 21
948.35876511
 31
0.0
  0
LINE
  5
33E
330
337
100
AcDbEntity
  8
SLD-0
100
AcDbLine
 10
3330.3936402118
 20
948.35876511
 30
0.0
 11
3336.1880154153
 21
948.35876511
 31
0.0
  0
LINE
  5
33F
330
337
100
AcDbEntity
  8
SLD-0
100
AcDbLine
 10
3371.3599600634
 20
978.6270989623
 30
0.0
 11
3377.1543352669
 21
978.6270989623
 31
0.0
  0
LINE
  5
340
330
337
100
AcDbEntity
  8
SLD-0
100
AcDbLine
 10
3377.1543352669
 20
978.6270989623
 30
0.0
 11
3377.1543352669
 21
948.35876511
 31
0.0
  0
LINE
  5
341
330
337
100
AcDbEntity
  8
SLD-0
100
AcDbLine
 10
3377.1543352669
 20
948.35876511
 30
0.0
 11
3371.3599600634
 21
948.35876511
 31
0.0
  0
LINE
  5
342
330
337
100
AcDbEntity
  8
SLD-0
100
AcDbLine
 10
3070.0875629299
 20
1034.516158454
 30
0.0
 11
3296.0875629299
 21
1034.516158454
 31
0.0
  0
LINE
  5
343
330
337
100
AcDbEntity
  8
SLD-0
100
AcDbLine
 10
3216.0875629299
 20
1020.016158454
 30
0.0
 11
3296.0875629299
 21
1020.016158454
 31
0.0
  0
LINE
  5
344
330
337
100
AcDbEntity
  8
SLD-0
100
AcDbLine
 10
3305.9915629299
 20
978.627095237
 30
0.0
 11
3289.9915629299
 21
978.627095237
 31
0.0
  0
LINE
  5
345
330
337
100
AcDbEntity
  8
SLD-0
100
AcDbLine
 10
3289.9915629299
 20
978.627095237
 30
0.0
 11
3289.9915629299
 21
1020.016158454
 31
0.0
  0
LINE
  5
346
330
337
100
AcDbEntity
  8
SLD-0
100
AcDbLine
 10
3289.9915629299
 20
1034.516158454
 30
0.0
 11
3289.9915629299
 21
1066.516158454
 31
0.0
  0
MTEXT
  5
347
330
337
100
AcDbEntity
  8
SLD-0
100
AcDbMText
 10
3317.5789871057
 20
1006.8234120291
 30
0.0
 40
19.05
 41
0.0
 71
     1
 72
     1
  1
 
  7
SLDTEXTSTYLE0
 73
     1
 44
1.0
  0
MTEXT
  5
348
330
337
100
AcDbEntity
  8
SLD-0
100
AcDbMText
 10
3329.1500982633
 20
1006.8234138917
 30
0.0
 40
19.05
 41
0.0
 71
     1
 72
     1
  1
14.5
  7
SLDTEXTSTYLE0
 73
     1
 44
1.0
  0
MTEXT
  5
349
330
337
100
AcDbEntity
  8
SLD-0
100
AcDbMText
 10
3336.1880154153
 20
972.6921644788
 30
0.0
 40
19.05
 41
0.0
 71
     1
 72
     1
  1
.57
  7
SLDTEXTSTYLE0
 73
     1
 44
1.0
  0
MTEXT
  5
34A
330
337
100
AcDbEntity
  8
SLD-0
100
AcDbMText
 10
3382.9487123331
 20
1006.8234120291
 30
0.0
 40
19.05
 41
0.0
 71
     1
 72
     1
  1
 
  7
SLDTEXTSTYLE0
 73
     1
 44
1.0
  0
ENDBLK
  5
339
330
337
100
AcDbEntity
  8
0
100
AcDbBlockEnd
  0
BLOCK
  5
34E
330
34D
100
AcDbEntity
  8
0
100
AcDbBlockBegin
  2
_D_16
 70
     0
 10
0.0
 20
0.0
 30
0.0
  3
_D_16
  1

  0
SOLID
  5
350
330
34D
100
AcDbEntity
  8
SLD-0
100
AcDbTrace
 10
2784.9915629299
 20
953.5641280084
 30
0.0
 11
2768.9915629299
 21
955.5641280084
 31
0.0
 12
2768.9915629299
 22
951.5641280084
 32
0.0
 13
2768.9915629299
 23
951.5641280084
 33
0.0
  0
SOLID
  5
351
330
34D
100
AcDbEntity
  8
SLD-0
100
AcDbTrace
 10
2919.9915629299
 20
953.5641280084
 30
0.0
 11
2935.9915629299
 21
951.5641280084
 31
0.0
 12
2935.9915629299
 22
955.5641280084
 32
0.0
 13
2935.9915629299
 23
955.5641280084
 33
0.0
  0
LINE
  5
352
330
34D
100
AcDbEntity
  8
SLD-0
100
AcDbLine
 10
2827.8676734539
 20
953.5641317337
 30
0.0
 11
2822.0732982503
 21
953.5641317337
 31
0.0
  0
LINE
  5
353
330
34D
100
AcDbEntity
  8
SLD-0
100
AcDbLine
 10
2822.0732982503
 20
953.5641317337
 30
0.0
 11
2822.0732982503
 21
923.2957978814
 31
0.0
  0
LINE
  5
354
330
34D
100
AcDbEntity
  8
SLD-0
100
AcDbLine
 10
2822.0732982503
 20
923.2957978814
 30
0.0
 11
2827.8676734539
 21
923.2957978814
 31
0.0
  0
LINE
  5
355
330
34D
100
AcDbEntity
  8
SLD-0
100
AcDbLine
 10
2877.115452406
 20
953.5641317337
 30
0.0
 11
2882.9098276095
 21
953.5641317337
 31
0.0
  0
LINE
  5
356
330
34D
100
AcDbEntity
  8
SLD-0
100
AcDbLine
 10
2882.9098276095
 20
953.5641317337
 30
0.0
 11
2882.9098276095
 21
923.2957978814
 31
0.0
  0
LINE
  5
357
330
34D
100
AcDbEntity
  8
SLD-0
100
AcDbLine
 10
2882.9098276095
 20
923.2957978814
 30
0.0
 11
2877.115452406
 21
923.2957978814
 31
0.0
  0
LINE
  5
358
330
34D
100
AcDbEntity
  8
SLD-0
100
AcDbLine
 10
2784.9915629299
 20
1013.920158454
 30
0.0
 11
2784.9915629299
 21
947.4681280084
 31
0.0
  0
LINE
  5
359
330
34D
100
AcDbEntity
  8
SLD-0
100
AcDbLine
 10
2919.9915629299
 20
1039.420158454
 30
0.0
 11
2919.9915629299
 21
947.4681280084
 31
0.0
  0
LINE
  5
35A
330
34D
100
AcDbEntity
  8
SLD-0
100
AcDbLine
 10
2784.9915629299
 20
953.5641280084
 30
0.0
 11
2752.9915629299
 21
953.5641280084
 31
0.0
  0
LINE
  5
35B
330
34D
100
AcDbEntity
  8
SLD-0
100
AcDbLine
 10
2919.9915629299
 20
953.5641280084
 30
0.0
 11
2951.9915629299
 21
953.5641280084
 31
0.0
  0
MTEXT
  5
35C
330
34D
100
AcDbEntity
  8
SLD-0
100
AcDbMText
 10
2809.2586451443
 20
981.7604448005
 30
0.0
 40
19.05
 41
0.0
 71
     1
 72
     1
  1
 
  7
SLDTEXTSTYLE0
 73
     1
 44
1.0
  0
MTEXT
  5
35D
330
34D
100
AcDbEntity
  8
SLD-0
100
AcDbMText
 10
2820.8297563018
 20
981.7604466632
 30
0.0
 40
19.05
 41
0.0
 71
     1
 72
     1
  1
135.0
  7
SLDTEXTSTYLE0
 73
     1
 44
1.0
  0
MTEXT
  5
35E
330
34D
100
AcDbEntity
  8
SLD-0
100
AcDbMText
 10
2827.8676734539
 20
947.6291972503
 30
0.0
 40
19.05
 41
0.0
 71
     1
 72
     1
  1
5.31
  7
SLDTEXTSTYLE0
 73
     1
 44
1.0
  0
MTEXT
  5
35F
330
34D
100
AcDbEntity
  8
SLD-0
100
AcDbMText
 10
2888.7042009504
 20
981.7604448005
 30
0.0
 40
19.05
 41
0.0
 71
     1
 72
     1
  1
 
  7
SLDTEXTSTYLE0
 73
     1
 44
1.0
  0
ENDBLK
  5
34F
330
34D
100
AcDbEntity
  8
0
100
AcDbBlockEnd
  0
BLOCK
  5
36B
330
36A
100
AcDbEntity
  8
0
100
AcDbBlockBegin
  2
_D_17
 70
     0
 10
0.0
 20
0.0
 30
0.0
  3
_D_17
  1

  0
SOLID
  5
36D
330
36A
100
AcDbEntity
  8
SLD-0
100
AcDbTrace
 10
1895.960117891
 20
2139.3838551497
 30
0.0
 11
1893.960117891
 21
2123.3838551497
 31
0.0
 12
1897.960117891
 22
2123.3838551497
 32
0.0
 13
1897.960117891
 23
2123.3838551497
 33
0.0
  0
SOLID
  5
36E
330
36A
100
AcDbEntity
  8
SLD-0
100
AcDbTrace
 10
1895.960117891
 20
1619.3838551497
 30
0.0
 11
1897.960117891
 21
1635.3838551497
 31
0.0
 12
1893.960117891
 22
1635.3838551497
 32
0.0
 13
1893.960117891
 23
1635.3838551497
 33
0.0
  0
LINE
  5
36F
330
36A
100
AcDbEntity
  8
SLD-0
100
AcDbLine
 10
1864.2983131256
 20
1879.383858875
 30
0.0
 11
1858.503937922
 21
1879.383858875
 31
0.0
  0
LINE
  5
370
330
36A
100
AcDbEntity
  8
SLD-0
100
AcDbLine
 10
1858.503937922
 20
1879.383858875
 30
0.0
 11
1858.503937922
 21
1849.1155250227
 31
0.0
  0
LINE
  5
371
330
36A
100
AcDbEntity
  8
SLD-0
100
AcDbLine
 10
1858.503937922
 20
1849.1155250227
 30
0.0
 11
1864.2983131256
 21
1849.1155250227
 31
0.0
  0
LINE
  5
372
330
36A
100
AcDbEntity
  8
SLD-0
100
AcDbLine
 10
1927.6219226565
 20
1879.383858875
 30
0.0
 11
1933.41629786
 21
1879.383858875
 31
0.0
  0
LINE
  5
373
330
36A
100
AcDbEntity
  8
SLD-0
100
AcDbLine
 10
1933.41629786
 20
1879.383858875
 30
0.0
 11
1933.41629786
 21
1849.1155250227
 31
0.0
  0
LINE
  5
374
330
36A
100
AcDbEntity
  8
SLD-0
100
AcDbLine
 10
1933.41629786
 20
1849.1155250227
 30
0.0
 11
1927.6219226565
 21
1849.1155250227
 31
0.0
  0
LINE
  5
375
330
36A
100
AcDbEntity
  8
SLD-0
100
AcDbLine
 10
1582.056117891
 20
2139.3838551497
 30
0.0
 11
1902.056117891
 21
2139.3838551497
 31
0.0
  0
LINE
  5
376
330
36A
100
AcDbEntity
  8
SLD-0
100
AcDbLine
 10
1582.056117891
 20
1619.3838551497
 30
0.0
 11
1902.056117891
 21
1619.3838551497
 31
0.0
  0
LINE
  5
377
330
36A
100
AcDbEntity
  8
SLD-0
100
AcDbLine
 10
1895.960117891
 20
2139.3838551497
 30
0.0
 11
1895.960117891
 21
1913.5151064252
 31
0.0
  0
LINE
  5
378
330
36A
100
AcDbEntity
  8
SLD-0
100
AcDbLine
 10
1895.960117891
 20
1619.3838551497
 30
0.0
 11
1895.960117891
 21
1845.2526038741
 31
0.0
  0
MTEXT
  5
379
330
36A
100
AcDbEntity
  8
SLD-0
100
AcDbMText
 10
1845.689284816
 20
1907.5801719417
 30
0.0
 40
19.05
 41
0.0
 71
     1
 72
     1
  1
 
  7
SLDTEXTSTYLE0
 73
     1
 44
1.0
  0
MTEXT
  5
37A
330
36A
100
AcDbEntity
  8
SLD-0
100
AcDbMText
 10
1864.2983112629
 20
1907.5801738044
 30
0.0
 40
19.05
 41
0.0
 71
     1
 72
     1
  1
520.0
  7
SLDTEXTSTYLE0
 73
     1
 44
1.0
  0
MTEXT
  5
37B
330
36A
100
AcDbEntity
  8
SLD-0
100
AcDbMText
 10
1864.2983131256
 20
1873.4489243915
 30
0.0
 40
19.05
 41
0.0
 71
     1
 72
     1
  1
20.47
  7
SLDTEXTSTYLE0
 73
     1
 44
1.0
  0
MTEXT
  5
37C
330
36A
100
AcDbEntity
  8
SLD-0
100
AcDbMText
 10
1939.2106712009
 20
1907.5801719417
 30
0.0
 40
19.05
 41
0.0
 71
     1
 72
     1
  1
 
  7
SLDTEXTSTYLE0
 73
     1
 44
1.0
  0
ENDBLK
  5
36C
330
36A
100
AcDbEntity
  8
0
100
AcDbBlockEnd
  0
BLOCK
  5
37F
330
37E
100
AcDbEntity
  8
0
100
AcDbBlockBegin
  2
_D_18
 70
     0
 10
0.0
 20
0.0
 30
0.0
  3
_D_18
  1

  0
SOLID
  5
381
330
37E
100
AcDbEntity
  8
SLD-0
100
AcDbTrace
 10
1751.960117891
 20
2064.3838551497
 30
0.0
 11
1749.960117891
 21
2048.3838551497
 31
0.0
 12
1753.960117891
 22
2048.3838551497
 32
0.0
 13
1753.960117891
 23
2048.3838551497
 33
0.0
  0
SOLID
  5
382
330
37E
100
AcDbEntity
  8
SLD-0
100
AcDbTrace
 10
1751.960117891
 20
1701.3838551497
 30
0.0
 11
1753.960117891
 21
1717.3838551497
 31
0.0
 12
1749.960117891
 22
1717.3838551497
 32
0.0
 13
1749.960117891
 23
1717.3838551497
 33
0.0
  0
LINE
  5
383
330
37E
100
AcDbEntity
  8
SLD-0
100
AcDbLine
 10
1720.2983131256
 20
1882.883858875
 30
0.0
 11
1714.503937922
 21
1882.883858875
 31
0.0
  0
LINE
  5
384
330
37E
100
AcDbEntity
  8
SLD-0
100
AcDbLine
 10
1714.503937922
 20
1882.883858875
 30
0.0
 11
1714.503937922
 21
1852.6155250227
 31
0.0
  0
LINE
  5
385
330
37E
100
AcDbEntity
  8
SLD-0
100
AcDbLine
 10
1714.503937922
 20
1852.6155250227
 30
0.0
 11
1720.2983131256
 21
1852.6155250227
 31
0.0
  0
LINE
  5
386
330
37E
100
AcDbEntity
  8
SLD-0
100
AcDbLine
 10
1783.6219226565
 20
1882.883858875
 30
0.0
 11
1789.41629786
 21
1882.883858875
 31
0.0
  0
LINE
  5
387
330
37E
100
AcDbEntity
  8
SLD-0
100
AcDbLine
 10
1789.41629786
 20
1882.883858875
 30
0.0
 11
1789.41629786
 21
1852.6155250227
 31
0.0
  0
LINE
  5
388
330
37E
100
AcDbEntity
  8
SLD-0
100
AcDbLine
 10
1789.41629786
 20
1852.6155250227
 30
0.0
 11
1783.6219226565
 21
1852.6155250227
 31
0.0
  0
LINE
  5
389
330
37E
100
AcDbEntity
  8
SLD-0
100
AcDbLine
 10
1553.656117891
 20
2064.3838551497
 30
0.0
 11
1758.056117891
 21
2064.3838551497
 31
0.0
  0
LINE
  5
38A
330
37E
100
AcDbEntity
  8
SLD-0
100
AcDbLine
 10
1553.656117891
 20
1701.3838551497
 30
0.0
 11
1758.056117891
 21
1701.3838551497
 31
0.0
  0
LINE
  5
38B
330
37E
100
AcDbEntity
  8
SLD-0
100
AcDbLine
 10
1751.960117891
 20
2064.3838551497
 30
0.0
 11
1751.960117891
 21
1917.0151064252
 31
0.0
  0
LINE
  5
38C
330
37E
100
AcDbEntity
  8
SLD-0
100
AcDbLine
 10
1751.960117891
 20
1701.3838551497
 30
0.0
 11
1751.960117891
 21
1848.7526038741
 31
0.0
  0
MTEXT
  5
38D
330
37E
100
AcDbEntity
  8
SLD-0
100
AcDbMText
 10
1701.689284816
 20
1911.0801719417
 30
0.0
 40
19.05
 41
0.0
 71
     1
 72
     1
  1
 
  7
SLDTEXTSTYLE0
 73
     1
 44
1.0
  0
MTEXT
  5
38E
330
37E
100
AcDbEntity
  8
SLD-0
100
AcDbMText
 10
1720.2983112629
 20
1911.0801738044
 30
0.0
 40
19.05
 41
0.0
 71
     1
 72
     1
  1
363.0
  7
SLDTEXTSTYLE0
 73
     1
 44
1.0
  0
MTEXT
  5
38F
330
37E
100
AcDbEntity
  8
SLD-0
100
AcDbMText
 10
1720.2983131256
 20
1876.9489243915
 30
0.0
 40
19.05
 41
0.0
 71
     1
 72
     1
  1
14.29
  7
SLDTEXTSTYLE0
 73
     1
 44
1.0
  0
MTEXT
  5
390
330
37E
100
AcDbEntity
  8
SLD-0
100
AcDbMText
 10
1795.2106712009
 20
1911.0801719417
 30
0.0
 40
19.05
 41
0.0
 71
     1
 72
     1
  1
 
  7
SLDTEXTSTYLE0
 73
     1
 44
1.0
  0
ENDBLK
  5
380
330
37E
100
AcDbEntity
  8
0
100
AcDbBlockEnd
  0
BLOCK
  5
393
330
392
100
AcDbEntity
  8
0
100
AcDbBlockBegin
  2
_D_19
 70
     0
 10
0.0
 20
0.0
 30
0.0
  3
_D_19
  1

  0
SOLID
  5
395
330
392
100
AcDbEntity
  8
SLD-0
100
AcDbTrace
 10
1751.960117891
 20
1701.3838551497
 30
0.0
 11
1749.960117891
 21
1685.3838551497
 31
0.0
 12
1753.960117891
 22
1685.3838551497
 32
0.0
 13
1753.960117891
 23
1685.3838551497
 33
0.0
  0
SOLID
  5
396
330
392
100
AcDbEntity
  8
SLD-0
100
AcDbTrace
 10
1751.960117891
 20
1619.3838551497
 30
0.0
 11
1753.960117891
 21
1635.3838551497
 31
0.0
 12
1749.960117891
 22
1635.3838551497
 32
0.0
 13
1749.960117891
 23
1635.3838551497
 33
0.0
  0
LINE
  5
397
330
392
100
AcDbEntity
  8
SLD-0
100
AcDbLine
 10
1798.1565703764
 20
1539.383858875
 30
0.0
 11
1792.3621951729
 21
1539.383858875
 31
0.0
  0
LINE
  5
398
330
392
100
AcDbEntity
  8
SLD-0
100
AcDbLine
 10
1792.3621951729
 20
1539.383858875
 30
0.0
 11
1792.3621951729
 21
1509.1155250227
 31
0.0
  0
LINE
  5
399
330
392
100
AcDbEntity
  8
SLD-0
100
AcDbLine
 10
1792.3621951729
 20
1509.1155250227
 30
0.0
 11
1798.1565703764
 21
1509.1155250227
 31
0.0
  0
LINE
  5
39A
330
392
100
AcDbEntity
  8
SLD-0
100
AcDbLine
 10
1847.4043493285
 20
1539.383858875
 30
0.0
 11
1853.1987245321
 21
1539.383858875
 31
0.0
  0
LINE
  5
39B
330
392
100
AcDbEntity
  8
SLD-0
100
AcDbLine
 10
1853.1987245321
 20
1539.383858875
 30
0.0
 11
1853.1987245321
 21
1509.1155250227
 31
0.0
  0
LINE
  5
39C
330
392
100
AcDbEntity
  8
SLD-0
100
AcDbLine
 10
1853.1987245321
 20
1509.1155250227
 30
0.0
 11
1847.4043493285
 21
1509.1155250227
 31
0.0
  0
LINE
  5
39D
330
392
100
AcDbEntity
  8
SLD-0
100
AcDbLine
 10
1553.656117891
 20
1701.3838551497
 30
0.0
 11
1758.056117891
 21
1701.3838551497
 31
0.0
  0
LINE
  5
39E
330
392
100
AcDbEntity
  8
SLD-0
100
AcDbLine
 10
1582.056117891
 20
1619.3838551497
 30
0.0
 11
1758.056117891
 21
1619.3838551497
 31
0.0
  0
LINE
  5
39F
330
392
100
AcDbEntity
  8
SLD-0
100
AcDbLine
 10
1767.960117891
 20
1539.3838551497
 30
0.0
 11
1751.960117891
 21
1539.3838551497
 31
0.0
  0
LINE
  5
3A0
330
392
100
AcDbEntity
  8
SLD-0
100
AcDbLine
 10
1751.960117891
 20
1539.3838551497
 30
0.0
 11
1751.960117891
 21
1619.3838551497
 31
0.0
  0
LINE
  5
3A1
330
392
100
AcDbEntity
  8
SLD-0
100
AcDbLine
 10
1751.960117891
 20
1701.3838551497
 30
0.0
 11
1751.960117891
 21
1619.3838551497
 31
0.0
  0
MTEXT
  5
3A2
330
392
100
AcDbEntity
  8
SLD-0
100
AcDbMText
 10
1779.5475420668
 20
1567.5801719417
 30
0.0
 40
19.05
 41
0.0
 71
     1
 72
     1
  1
 
  7
SLDTEXTSTYLE0
 73
     1
 44
1.0
  0
MTEXT
  5
3A3
330
392
100
AcDbEntity
  8
SLD-0
100
AcDbMText
 10
1798.1565685138
 20
1567.5801738044
 30
0.0
 40
19.05
 41
0.0
 71
     1
 72
     1
  1
82.0
  7
SLDTEXTSTYLE0
 73
     1
 44
1.0
  0
MTEXT
  5
3A4
330
392
100
AcDbEntity
  8
SLD-0
100
AcDbMText
 10
1798.1565703764
 20
1533.4489243915
 30
0.0
 40
19.05
 41
0.0
 71
     1
 72
     1
  1
3.23
  7
SLDTEXTSTYLE0
 73
     1
 44
1.0
  0
MTEXT
  5
3A5
330
392
100
AcDbEntity
  8
SLD-0
100
AcDbMText
 10
1858.993097873
 20
1567.5801719417
 30
0.0
 40
19.05
 41
0.0
 71
     1
 72
     1
  1
 
  7
SLDTEXTSTYLE0
 73
     1
 44
1.0
  0
ENDBLK
  5
394
330
392
100
AcDbEntity
  8
0
100
AcDbBlockEnd
  0
BLOCK
  5
3A8
330
3A7
100
AcDbEntity
  8
0
100
AcDbBlockBegin
  2
_D_20
 70
     0
 10
0.0
 20
0.0
 30
0.0
  3
_D_20
  1

  0
SOLID
  5
3AA
330
3A7
100
AcDbEntity
  8
SLD-0
100
AcDbTrace
 10
1535.560117891
 20
1539.3838551497
 30
0.0
 11
1519.560117891
 21
1541.3838551497
 31
0.0
 12
1519.560117891
 22
1537.3838551497
 32
0.0
 13
1519.560117891
 23
1537.3838551497
 33
0.0
  0
SOLID
  5
3AB
330
3A7
100
AcDbEntity
  8
SLD-0
100
AcDbTrace
 10
1575.960117891
 20
1539.3838551497
 30
0.0
 11
1591.960117891
 21
1537.3838551497
 31
0.0
 12
1591.960117891
 22
1541.3838551497
 32
0.0
 13
1591.960117891
 23
1541.3838551497
 33
0.0
  0
LINE
  5
3AC
330
3A7
100
AcDbEntity
  8
SLD-0
100
AcDbLine
 10
1631.336228415
 20
1539.383858875
 30
0.0
 11
1625.5418532114
 21
1539.383858875
 31
0.0
  0
LINE
  5
3AD
330
3A7
100
AcDbEntity
  8
SLD-0
100
AcDbLine
 10
1625.5418532114
 20
1539.383858875
 30
0.0
 11
1625.5418532114
 21
1509.1155250227
 31
0.0
  0
LINE
  5
3AE
330
3A7
100
AcDbEntity
  8
SLD-0
100
AcDbLine
 10
1625.5418532114
 20
1509.1155250227
 30
0.0
 11
1631.336228415
 21
1509.1155250227
 31
0.0
  0
LINE
  5
3AF
330
3A7
100
AcDbEntity
  8
SLD-0
100
AcDbLine
 10
1680.5840073671
 20
1539.383858875
 30
0.0
 11
1686.3783825706
 21
1539.383858875
 31
0.0
  0
LINE
  5
3B0
330
3A7
100
AcDbEntity
  8
SLD-0
100
AcDbLine
 10
1686.3783825706
 20
1539.383858875
 30
0.0
 11
1686.3783825706
 21
1509.1155250227
 31
0.0
  0
LINE
  5
3B1
330
3A7
100
AcDbEntity
  8
SLD-0
100
AcDbLine
 10
1686.3783825706
 20
1509.1155250227
 30
0.0
 11
1680.5840073671
 21
1509.1155250227
 31
0.0
  0
LINE
  5
3B2
330
3A7
100
AcDbEntity
  8
SLD-0
100
AcDbLine
 10
1535.560117891
 20
1683.2878551497
 30
0.0
 11
1535.560117891
 21
1533.2878551497
 31
0.0
  0
LINE
  5
3B3
330
3A7
100
AcDbEntity
  8
SLD-0
100
AcDbLine
 10
1575.960117891
 20
1613.2878551497
 30
0.0
 11
1575.960117891
 21
1533.2878551497
 31
0.0
  0
LINE
  5
3B4
330
3A7
100
AcDbEntity
  8
SLD-0
100
AcDbLine
 10
1535.560117891
 20
1539.3838551497
 30
0.0
 11
1503.560117891
 21
1539.3838551497
 31
0.0
  0
LINE
  5
3B5
330
3A7
100
AcDbEntity
  8
SLD-0
100
AcDbLine
 10
1575.960117891
 20
1539.3838551497
 30
0.0
 11
1608.8647253801
 21
1539.3838551497
 31
0.0
  0
MTEXT
  5
3B6
330
3A7
100
AcDbEntity
  8
SLD-0
100
AcDbMText
 10
1612.7272001054
 20
1567.5801719417
 30
0.0
 40
19.05
 41
0.0
 71
     1
 72
     1
  1
 
  7
SLDTEXTSTYLE0
 73
     1
 44
1.0
  0
MTEXT
  5
3B7
330
3A7
100
AcDbEntity
  8
SLD-0
100
AcDbMText
 10
1631.3362265523
 20
1567.5801738044
 30
0.0
 40
19.05
 41
0.0
 71
     1
 72
     1
  1
40.4
  7
SLDTEXTSTYLE0
 73
     1
 44
1.0
  0
MTEXT
  5
3B8
330
3A7
100
AcDbEntity
  8
SLD-0
100
AcDbMText
 10
1631.336228415
 20
1533.4489243915
 30
0.0
 40
19.05
 41
0.0
 71
     1
 72
     1
  1
1.59
  7
SLDTEXTSTYLE0
 73
     1
 44
1.0
  0
MTEXT
  5
3B9
330
3A7
100
AcDbEntity
  8
SLD-0
100
AcDbMText
 10
1692.1727559115
 20
1567.5801719417
 30
0.0
 40
19.05
 41
0.0
 71
     1
 72
     1
  1
 
  7
SLDTEXTSTYLE0
 73
     1
 44
1.0
  0
ENDBLK
  5
3A9
330
3A7
100
AcDbEntity
  8
0
100
AcDbBlockEnd
  0
BLOCK
  5
3BB
330
3BA
100
AcDbEntity
  8
0
100
AcDbBlockBegin
  2
SW_NOTE_0_3
 70
     0
 10
0.0
 20
0.0
 30
0.0
  3
SW_NOTE_0_3
  1

  0
LINE
  5
3BD
330
3BA
100
AcDbEntity
  8
SLD-0
 62
     0
100
AcDbLine
 10
-48.84004884
 20
-24.2268131868
 30
0.0
 11
-48.84004884
 21
24.6132356532
 31
0.0
  0
LINE
  5
3BE
330
3BA
100
AcDbEntity
  8
SLD-0
 62
     0
100
AcDbLine
 10
-48.84004884
 20
24.6132356532
 30
0.0
 11
0.0
 21
24.6132356532
 31
0.0
  0
LINE
  5
3BF
330
3BA
100
AcDbEntity
  8
SLD-0
 62
     0
100
AcDbLine
 10
0.0
 20
24.6132356532
 30
0.0
 11
0.0
 21
-24.2268131868
 31
0.0
  0
LINE
  5
3C0
330
3BA
100
AcDbEntity
  8
SLD-0
 62
     0
100
AcDbLine
 10
0.0
 20
-24.2268131868
 30
0.0
 11
-48.84004884
 21
-24.2268131868
 31
0.0
  0
MTEXT
  5
3C1
330
3BA
100
AcDbEntity
  8
SLD-0
 62
     0
100
AcDbMText
 10
-24.6118473564
 20
9.678208558
 30
0.0
 40
19.05
 41
0.0
 71
     2
 72
     1
  1
4
  7
SLDTEXTSTYLE0
 73
     1
 44
1.0
  0
ENDBLK
  5
3BC
330
3BA
100
AcDbEntity
  8
0
100
AcDbBlockEnd
  0
BLOCK
  5
3C6
330
3C5
100
AcDbEntity
  8
0
100
AcDbBlockBegin
  2
SW_CENTERMARKSYMBOL_6
 70
     0
 10
0.0
 20
0.0
 30
0.0
  3
SW_CENTERMARKSYMBOL_6
  1

  0
LINE
  5
3C8
330
3C5
100
AcDbEntity
  8
SLD-0
 62
     0
100
AcDbLine
 10
0.0
 20
0.0
 30
0.0
 11
0.0
 21
2.0
 31
0.0
  0
LINE
  5
3C9
330
3C5
100
AcDbEntity
  8
SLD-0
 62
     0
100
AcDbLine
 10
0.0
 20
0.0
 30
0.0
 11
-2.0
 21
0.0
 31
0.0
  0
LINE
  5
3CA
330
3C5
100
AcDbEntity
  8
SLD-0
 62
     0
100
AcDbLine
 10
0.0
 20
0.0
 30
0.0
 11
0.0
 21
-2.0
 31
0.0
  0
LINE
  5
3CB
330
3C5
100
AcDbEntity
  8
SLD-0
 62
     0
100
AcDbLine
 10
0.0
 20
0.0
 30
0.0
 11
2.0
 21
0.0
 31
0.0
  0
LINE
  5
3CC
330
3C5
100
AcDbEntity
  8
SLD-0
 62
     0
100
AcDbLine
 10
0.0
 20
4.0
 30
0.0
 11
0.0
 21
12.0
 31
0.0
  0
LINE
  5
3CD
330
3C5
100
AcDbEntity
  8
SLD-0
 62
     0
100
AcDbLine
 10
-4.0
 20
0.0
 30
0.0
 11
-12.0
 21
0.0
 31
0.0
  0
LINE
  5
3CE
330
3C5
100
AcDbEntity
  8
SLD-0
 62
     0
100
AcDbLine
 10
0.0
 20
-4.0
 30
0.0
 11
0.0
 21
-12.0
 31
0.0
  0
LINE
  5
3CF
330
3C5
100
AcDbEntity
  8
SLD-0
 62
     0
100
AcDbLine
 10
4.0
 20
0.0
 30
0.0
 11
12.0
 21
0.0
 31
0.0
  0
ENDBLK
  5
3C7
330
3C5
100
AcDbEntity
  8
0
100
AcDbBlockEnd
  0
BLOCK
  5
3D2
330
3D1
100
AcDbEntity
  8
0
100
AcDbBlockBegin
  2
SW_CENTERMARKSYMBOL_7
 70
     0
 10
0.0
 20
0.0
 30
0.0
  3
SW_CENTERMARKSYMBOL_7
  1

  0
LINE
  5
3D4
330
3D1
100
AcDbEntity
  8
SLD-0
 62
     0
100
AcDbLine
 10
0.0
 20
0.0
 30
0.0
 11
0.0
 21
2.0
 31
0.0
  0
LINE
  5
3D5
330
3D1
100
AcDbEntity
  8
SLD-0
 62
     0
100
AcDbLine
 10
0.0
 20
0.0
 30
0.0
 11
-2.0
 21
0.0
 31
0.0
  0
LINE
  5
3D6
330
3D1
100
AcDbEntity
  8
SLD-0
 62
     0
100
AcDbLine
 10
0.0
 20
0.0
 30
0.0
 11
0.0
 21
-2.0
 31
0.0
  0
LINE
  5
3D7
330
3D1
100
AcDbEntity
  8
SLD-0
 62
     0
100
AcDbLine
 10
0.0
 20
0.0
 30
0.0
 11
2.0
 21
0.0
 31
0.0
  0
LINE
  5
3D8
330
3D1
100
AcDbEntity
  8
SLD-0
 62
     0
100
AcDbLine
 10
0.0
 20
4.0
 30
0.0
 11
0.0
 21
12.0
 31
0.0
  0
LINE
  5
3D9
330
3D1
100
AcDbEntity
  8
SLD-0
 62
     0
100
AcDbLine
 10
-4.0
 20
0.0
 30
0.0
 11
-12.0
 21
0.0
 31
0.0
  0
LINE
  5
3DA
330
3D1
100
AcDbEntity
  8
SLD-0
 62
     0
100
AcDbLine
 10
0.0
 20
-4.0
 30
0.0
 11
0.0
 21
-12.0
 31
0.0
  0
LINE
  5
3DB
330
3D1
100
AcDbEntity
  8
SLD-0
 62
     0
100
AcDbLine
 10
4.0
 20
0.0
 30
0.0
 11
12.0
 21
0.0
 31
0.0
  0
ENDBLK
  5
3D3
330
3D1
100
AcDbEntity
  8
0
100
AcDbBlockEnd
  0
BLOCK
  5
45F
330
45E
100
AcDbEntity
  8
0
100
AcDbBlockBegin
  2
_D_21
 70
     0
 10
0.0
 20
0.0
 30
0.0
  3
_D_21
  1

  0
SOLID
  5
461
330
45E
100
AcDbEntity
  8
SLD-0
100
AcDbTrace
 10
1191.360117891
 20
797.5849129352
 30
0.0
 11
1207.360117891
 21
795.5849129352
 31
0.0
 12
1207.360117891
 22
799.5849129352
 32
0.0
 13
1207.360117891
 23
799.5849129352
 33
0.0
  0
SOLID
  5
462
330
45E
100
AcDbEntity
  8
SLD-0
100
AcDbTrace
 10
1535.560117891
 20
797.5849129352
 30
0.0
 11
1519.560117891
 21
799.5849129352
 31
0.0
 12
1519.560117891
 22
795.5849129352
 32
0.0
 13
1519.560117891
 23
795.5849129352
 33
0.0
  0
LINE
  5
463
330
45E
100
AcDbEntity
  8
SLD-0
100
AcDbLine
 10
1331.7983131256
 20
797.5849166605
 30
0.0
 11
1326.003937922
 21
797.5849166605
 31
0.0
  0
LINE
  5
464
330
45E
100
AcDbEntity
  8
SLD-0
100
AcDbLine
 10
1326.003937922
 20
797.5849166605
 30
0.0
 11
1326.003937922
 21
767.3165828082
 31
0.0
  0
LINE
  5
465
330
45E
100
AcDbEntity
  8
SLD-0
100
AcDbLine
 10
1326.003937922
 20
767.3165828082
 30
0.0
 11
1331.7983131256
 21
767.3165828082
 31
0.0
  0
LINE
  5
466
330
45E
100
AcDbEntity
  8
SLD-0
100
AcDbLine
 10
1395.1219226565
 20
797.5849166605
 30
0.0
 11
1400.91629786
 21
797.5849166605
 31
0.0
  0
LINE
  5
467
330
45E
100
AcDbEntity
  8
SLD-0
100
AcDbLine
 10
1400.91629786
 20
797.5849166605
 30
0.0
 11
1400.91629786
 21
767.3165828082
 31
0.0
  0
LINE
  5
468
330
45E
100
AcDbEntity
  8
SLD-0
100
AcDbLine
 10
1400.91629786
 20
767.3165828082
 30
0.0
 11
1395.1219226565
 21
767.3165828082
 31
0.0
  0
LINE
  5
469
330
45E
100
AcDbEntity
  8
SLD-0
100
AcDbLine
 10
1191.360117891
 20
653.6809129352
 30
0.0
 11
1191.360117891
 21
803.6809129352
 31
0.0
  0
LINE
  5
46A
330
45E
100
AcDbEntity
  8
SLD-0
100
AcDbLine
 10
1535.560117891
 20
653.6809129352
 30
0.0
 11
1535.560117891
 21
803.6809129352
 31
0.0
  0
LINE
  5
46B
330
45E
100
AcDbEntity
  8
SLD-0
100
AcDbLine
 10
1191.360117891
 20
797.5849129352
 30
0.0
 11
1309.3268100907
 21
797.5849129352
 31
0.0
  0
LINE
  5
46C
330
45E
100
AcDbEntity
  8
SLD-0
100
AcDbLine
 10
1535.560117891
 20
797.5849129352
 30
0.0
 11
1417.5934256913
 21
797.5849129352
 31
0.0
  0
MTEXT
  5
46D
330
45E
100
AcDbEntity
  8
SLD-0
100
AcDbMText
 10
1313.189284816
 20
825.7812297273
 30
0.0
 40
19.05
 41
0.0
 71
     1
 72
     1
  1
 
  7
SLDTEXTSTYLE0
 73
     1
 44
1.0
  0
MTEXT
  5
46E
330
45E
100
AcDbEntity
  8
SLD-0
100
AcDbMText
 10
1331.7983112629
 20
825.78123159
 30
0.0
 40
19.05
 41
0.0
 71
     1
 72
     1
  1
344.2
  7
SLDTEXTSTYLE0
 73
     1
 44
1.0
  0
MTEXT
  5
46F
330
45E
100
AcDbEntity
  8
SLD-0
100
AcDbMText
 10
1331.7983131256
 20
791.6499821771
 30
0.0
 40
19.05
 41
0.0
 71
     1
 72
     1
  1
13.55
  7
SLDTEXTSTYLE0
 73
     1
 44
1.0
  0
MTEXT
  5
470
330
45E
100
AcDbEntity
  8
SLD-0
100
AcDbMText
 10
1406.7106712009
 20
825.7812297273
 30
0.0
 40
19.05
 41
0.0
 71
     1
 72
     1
  1
 
  7
SLDTEXTSTYLE0
 73
     1
 44
1.0
  0
ENDBLK
  5
460
330
45E
100
AcDbEntity
  8
0
100
AcDbBlockEnd
  0
BLOCK
  5
473
330
472
100
AcDbEntity
  8
0
100
AcDbBlockBegin
  2
_D_22
 70
     0
 10
0.0
 20
0.0
 30
0.0
  3
_D_22
  1

  0
SOLID
  5
475
330
472
100
AcDbEntity
  8
SLD-0
100
AcDbTrace
 10
1535.560117891
 20
797.5849129352
 30
0.0
 11
1551.560117891
 21
795.5849129352
 31
0.0
 12
1551.560117891
 22
799.5849129352
 32
0.0
 13
1551.560117891
 23
799.5849129352
 33
0.0
  0
SOLID
  5
476
330
472
100
AcDbEntity
  8
SLD-0
100
AcDbTrace
 10
1575.960117891
 20
797.5849129352
 30
0.0
 11
1559.960117891
 21
799.5849129352
 31
0.0
 12
1559.960117891
 22
795.5849129352
 32
0.0
 13
1559.960117891
 23
795.5849129352
 33
0.0
  0
LINE
  5
477
330
472
100
AcDbEntity
  8
SLD-0
100
AcDbLine
 10
1631.336228415
 20
797.5849166605
 30
0.0
 11
1625.5418532114
 21
797.5849166605
 31
0.0
  0
LINE
  5
478
330
472
100
AcDbEntity
  8
SLD-0
100
AcDbLine
 10
1625.5418532114
 20
797.5849166605
 30
0.0
 11
1625.5418532114
 21
767.3165828082
 31
0.0
  0
LINE
  5
479
330
472
100
AcDbEntity
  8
SLD-0
100
AcDbLine
 10
1625.5418532114
 20
767.3165828082
 30
0.0
 11
1631.336228415
 21
767.3165828082
 31
0.0
  0
LINE
  5
47A
330
472
100
AcDbEntity
  8
SLD-0
100
AcDbLine
 10
1680.5840073671
 20
797.5849166605
 30
0.0
 11
1686.3783825706
 21
797.5849166605
 31
0.0
  0
LINE
  5
47B
330
472
100
AcDbEntity
  8
SLD-0
100
AcDbLine
 10
1686.3783825706
 20
797.5849166605
 30
0.0
 11
1686.3783825706
 21
767.3165828082
 31
0.0
  0
LINE
  5
47C
330
472
100
AcDbEntity
  8
SLD-0
100
AcDbLine
 10
1686.3783825706
 20
767.3165828082
 30
0.0
 11
1680.5840073671
 21
767.3165828082
 31
0.0
  0
LINE
  5
47D
330
472
100
AcDbEntity
  8
SLD-0
100
AcDbLine
 10
1535.560117891
 20
653.6809129352
 30
0.0
 11
1535.560117891
 21
803.6809129352
 31
0.0
  0
LINE
  5
47E
330
472
100
AcDbEntity
  8
SLD-0
100
AcDbLine
 10
1575.960117891
 20
723.6809129352
 30
0.0
 11
1575.960117891
 21
803.6809129352
 31
0.0
  0
LINE
  5
47F
330
472
100
AcDbEntity
  8
SLD-0
100
AcDbLine
 10
1535.560117891
 20
797.5849129352
 30
0.0
 11
1575.960117891
 21
797.5849129352
 31
0.0
  0
LINE
  5
480
330
472
100
AcDbEntity
  8
SLD-0
100
AcDbLine
 10
1575.960117891
 20
797.5849129352
 30
0.0
 11
1608.8647253801
 21
797.5849129352
 31
0.0
  0
MTEXT
  5
481
330
472
100
AcDbEntity
  8
SLD-0
100
AcDbMText
 10
1612.7272001054
 20
825.7812297273
 30
0.0
 40
19.05
 41
0.0
 71
     1
 72
     1
  1
 
  7
SLDTEXTSTYLE0
 73
     1
 44
1.0
  0
MTEXT
  5
482
330
472
100
AcDbEntity
  8
SLD-0
100
AcDbMText
 10
1631.3362265523
 20
825.78123159
 30
0.0
 40
19.05
 41
0.0
 71
     1
 72
     1
  1
40.4
  7
SLDTEXTSTYLE0
 73
     1
 44
1.0
  0
MTEXT
  5
483
330
472
100
AcDbEntity
  8
SLD-0
100
AcDbMText
 10
1631.336228415
 20
791.6499821771
 30
0.0
 40
19.05
 41
0.0
 71
     1
 72
     1
  1
1.59
  7
SLDTEXTSTYLE0
 73
     1
 44
1.0
  0
MTEXT
  5
484
330
472
100
AcDbEntity
  8
SLD-0
100
AcDbMText
 10
1692.1727559115
 20
825.7812297273
 30
0.0
 40
19.05
 41
0.0
 71
     1
 72
     1
  1
 
  7
SLDTEXTSTYLE0
 73
     1
 44
1.0
  0
ENDBLK
  5
474
330
472
100
AcDbEntity
  8
0
100
AcDbBlockEnd
  0
BLOCK
  5
487
330
486
100
AcDbEntity
  8
0
100
AcDbBlockBegin
  2
_D_23
 70
     0
 10
0.0
 20
0.0
 30
0.0
  3
_D_23
  1

  0
SOLID
  5
489
330
486
100
AcDbEntity
  8
SLD-0
100
AcDbTrace
 10
1751.960117891
 20
635.5849129352
 30
0.0
 11
1753.960117891
 21
651.5849129352
 31
0.0
 12
1749.960117891
 22
651.5849129352
 32
0.0
 13
1749.960117891
 23
651.5849129352
 33
0.0
  0
SOLID
  5
48A
330
486
100
AcDbEntity
  8
SLD-0
100
AcDbTrace
 10
1751.960117891
 20
717.5849129352
 30
0.0
 11
1749.960117891
 21
701.5849129352
 31
0.0
 12
1753.960117891
 22
701.5849129352
 32
0.0
 13
1753.960117891
 23
701.5849129352
 33
0.0
  0
LINE
  5
48B
330
486
100
AcDbEntity
  8
SLD-0
100
AcDbLine
 10
1798.1565703764
 20
797.5849166605
 30
0.0
 11
1792.3621951729
 21
797.5849166605
 31
0.0
  0
LINE
  5
48C
330
486
100
AcDbEntity
  8
SLD-0
100
AcDbLine
 10
1792.3621951729
 20
797.5849166605
 30
0.0
 11
1792.3621951729
 21
767.3165828082
 31
0.0
  0
LINE
  5
48D
330
486
100
AcDbEntity
  8
SLD-0
100
AcDbLine
 10
1792.3621951729
 20
767.3165828082
 30
0.0
 11
1798.1565703764
 21
767.3165828082
 31
0.0
  0
LINE
  5
48E
330
486
100
AcDbEntity
  8
SLD-0
100
AcDbLine
 10
1847.4043493285
 20
797.5849166605
 30
0.0
 11
1853.1987245321
 21
797.5849166605
 31
0.0
  0
LINE
  5
48F
330
486
100
AcDbEntity
  8
SLD-0
100
AcDbLine
 10
1853.1987245321
 20
797.5849166605
 30
0.0
 11
1853.1987245321
 21
767.3165828082
 31
0.0
  0
LINE
  5
490
330
486
100
AcDbEntity
  8
SLD-0
100
AcDbLine
 10
1853.1987245321
 20
767.3165828082
 30
0.0
 11
1847.4043493285
 21
767.3165828082
 31
0.0
  0
LINE
  5
491
330
486
100
AcDbEntity
  8
SLD-0
100
AcDbLine
 10
1553.656117891
 20
635.5849129352
 30
0.0
 11
1758.056117891
 21
635.5849129352
 31
0.0
  0
LINE
  5
492
330
486
100
AcDbEntity
  8
SLD-0
100
AcDbLine
 10
1582.056117891
 20
717.5849129352
 30
0.0
 11
1758.056117891
 21
717.5849129352
 31
0.0
  0
LINE
  5
493
330
486
100
AcDbEntity
  8
SLD-0
100
AcDbLine
 10
1767.960117891
 20
797.5849129352
 30
0.0
 11
1751.960117891
 21
797.5849129352
 31
0.0
  0
LINE
  5
494
330
486
100
AcDbEntity
  8
SLD-0
100
AcDbLine
 10
1751.960117891
 20
797.5849129352
 30
0.0
 11
1751.960117891
 21
717.5849129352
 31
0.0
  0
LINE
  5
495
330
486
100
AcDbEntity
  8
SLD-0
100
AcDbLine
 10
1751.960117891
 20
635.5849129352
 30
0.0
 11
1751.960117891
 21
717.5849129352
 31
0.0
  0
MTEXT
  5
496
330
486
100
AcDbEntity
  8
SLD-0
100
AcDbMText
 10
1779.5475420668
 20
825.7812297273
 30
0.0
 40
19.05
 41
0.0
 71
     1
 72
     1
  1
 
  7
SLDTEXTSTYLE0
 73
     1
 44
1.0
  0
MTEXT
  5
497
330
486
100
AcDbEntity
  8
SLD-0
100
AcDbMText
 10
1798.1565685138
 20
825.78123159
 30
0.0
 40
19.05
 41
0.0
 71
     1
 72
     1
  1
82.0
  7
SLDTEXTSTYLE0
 73
     1
 44
1.0
  0
MTEXT
  5
498
330
486
100
AcDbEntity
  8
SLD-0
100
AcDbMText
 10
1798.1565703764
 20
791.6499821771
 30
0.0
 40
19.05
 41
0.0
 71
     1
 72
     1
  1
3.23
  7
SLDTEXTSTYLE0
 73
     1
 44
1.0
  0
MTEXT
  5
499
330
486
100
AcDbEntity
  8
SLD-0
100
AcDbMText
 10
1858.993097873
 20
825.7812297273
 30
0.0
 40
19.05
 41
0.0
 71
     1
 72
     1
  1
 
  7
SLDTEXTSTYLE0
 73
     1
 44
1.0
  0
ENDBLK
  5
488
330
486
100
AcDbEntity
  8
0
100
AcDbBlockEnd
  0
BLOCK
  5
49C
330
49B
100
AcDbEntity
  8
0
100
AcDbBlockBegin
  2
_D_24
 70
     0
 10
0.0
 20
0.0
 30
0.0
  3
_D_24
  1

  0
SOLID
  5
49E
330
49B
100
AcDbEntity
  8
SLD-0
100
AcDbTrace
 10
1751.960117891
 20
635.5849129352
 30
0.0
 11
1749.960117891
 21
619.5849129352
 31
0.0
 12
1753.960117891
 22
619.5849129352
 32
0.0
 13
1753.960117891
 23
619.5849129352
 33
0.0
  0
SOLID
  5
49F
330
49B
100
AcDbEntity
  8
SLD-0
100
AcDbTrace
 10
1751.960117891
 20
272.5849129352
 30
0.0
 11
1753.960117891
 21
288.5849129352
 31
0.0
 12
1749.960117891
 22
288.5849129352
 32
0.0
 13
1749.960117891
 23
288.5849129352
 33
0.0
  0
LINE
  5
4A0
330
49B
100
AcDbEntity
  8
SLD-0
100
AcDbLine
 10
1720.2983131256
 20
454.0849166605
 30
0.0
 11
1714.503937922
 21
454.0849166605
 31
0.0
  0
LINE
  5
4A1
330
49B
100
AcDbEntity
  8
SLD-0
100
AcDbLine
 10
1714.503937922
 20
454.0849166605
 30
0.0
 11
1714.503937922
 21
423.8165828082
 31
0.0
  0
LINE
  5
4A2
330
49B
100
AcDbEntity
  8
SLD-0
100
AcDbLine
 10
1714.503937922
 20
423.8165828082
 30
0.0
 11
1720.2983131256
 21
423.8165828082
 31
0.0
  0
LINE
  5
4A3
330
49B
100
AcDbEntity
  8
SLD-0
100
AcDbLine
 10
1783.6219226565
 20
454.0849166605
 30
0.0
 11
1789.41629786
 21
454.0849166605
 31
0.0
  0
LINE
  5
4A4
330
49B
100
AcDbEntity
  8
SLD-0
100
AcDbLine
 10
1789.41629786
 20
454.0849166605
 30
0.0
 11
1789.41629786
 21
423.8165828082
 31
0.0
  0
LINE
  5
4A5
330
49B
100
AcDbEntity
  8
SLD-0
100
AcDbLine
 10
1789.41629786
 20
423.8165828082
 30
0.0
 11
1783.6219226565
 21
423.8165828082
 31
0.0
  0
LINE
  5
4A6
330
49B
100
AcDbEntity
  8
SLD-0
100
AcDbLine
 10
1553.656117891
 20
635.5849129352
 30
0.0
 11
1758.056117891
 21
635.5849129352
 31
0.0
  0
LINE
  5
4A7
330
49B
100
AcDbEntity
  8
SLD-0
100
AcDbLine
 10
1553.656117891
 20
272.5849129352
 30
0.0
 11
1758.056117891
 21
272.5849129352
 31
0.0
  0
LINE
  5
4A8
330
49B
100
AcDbEntity
  8
SLD-0
100
AcDbLine
 10
1751.960117891
 20
635.5849129352
 30
0.0
 11
1751.960117891
 21
488.2161642108
 31
0.0
  0
LINE
  5
4A9
330
49B
100
AcDbEntity
  8
SLD-0
100
AcDbLine
 10
1751.960117891
 20
272.5849129352
 30
0.0
 11
1751.960117891
 21
419.9536616597
 31
0.0
  0
MTEXT
  5
4AA
330
49B
100
AcDbEntity
  8
SLD-0
100
AcDbMText
 10
1701.689284816
 20
482.2812297273
 30
0.0
 40
19.05
 41
0.0
 71
     1
 72
     1
  1
 
  7
SLDTEXTSTYLE0
 73
     1
 44
1.0
  0
MTEXT
  5
4AB
330
49B
100
AcDbEntity
  8
SLD-0
100
AcDbMText
 10
1720.2983112629
 20
482.28123159
 30
0.0
 40
19.05
 41
0.0
 71
     1
 72
     1
  1
363.0
  7
SLDTEXTSTYLE0
 73
     1
 44
1.0
  0
MTEXT
  5
4AC
330
49B
100
AcDbEntity
  8
SLD-0
100
AcDbMText
 10
1720.2983131256
 20
448.1499821771
 30
0.0
 40
19.05
 41
0.0
 71
     1
 72
     1
  1
14.29
  7
SLDTEXTSTYLE0
 73
     1
 44
1.0
  0
MTEXT
  5
4AD
330
49B
100
AcDbEntity
  8
SLD-0
100
AcDbMText
 10
1795.2106712009
 20
482.2812297273
 30
0.0
 40
19.05
 41
0.0
 71
     1
 72
     1
  1
 
  7
SLDTEXTSTYLE0
 73
     1
 44
1.0
  0
ENDBLK
  5
49D
330
49B
100
AcDbEntity
  8
0
100
AcDbBlockEnd
  0
BLOCK
  5
4AF
330
4AE
100
AcDbEntity
  8
0
100
AcDbBlockBegin
  2
SW_NOTE_0_4
 70
     0
 10
0.0
 20
0.0
 30
0.0
  3
SW_NOTE_0_4
  1

  0
LINE
  5
4B1
330
4AE
100
AcDbEntity
  8
SLD-0
 62
     0
100
AcDbLine
 10
-48.84004884
 20
-24.2268131868
 30
0.0
 11
-48.84004884
 21
24.6132356532
 31
0.0
  0
LINE
  5
4B2
330
4AE
100
AcDbEntity
  8
SLD-0
 62
     0
100
AcDbLine
 10
-48.84004884
 20
24.6132356532
 30
0.0
 11
0.0
 21
24.6132356532
 31
0.0
  0
LINE
  5
4B3
330
4AE
100
AcDbEntity
  8
SLD-0
 62
     0
100
AcDbLine
 10
0.0
 20
24.6132356532
 30
0.0
 11
0.0
 21
-24.2268131868
 31
0.0
  0
LINE
  5
4B4
330
4AE
100
AcDbEntity
  8
SLD-0
 62
     0
100
AcDbLine
 10
0.0
 20
-24.2268131868
 30
0.0
 11
-48.84004884
 21
-24.2268131868
 31
0.0
  0
MTEXT
  5
4B5
330
4AE
100
AcDbEntity
  8
SLD-0
 62
     0
100
AcDbMText
 10
-24.6118473564
 20
9.678208558
 30
0.0
 40
19.05
 41
0.0
 71
     2
 72
     1
  1
4
  7
SLDTEXTSTYLE0
 73
     1
 44
1.0
  0
ENDBLK
  5
4B0
330
4AE
100
AcDbEntity
  8
0
100
AcDbBlockEnd
  0
BLOCK
  5
4BA
330
4B9
100
AcDbEntity
  8
0
100
AcDbBlockBegin
  2
SW_CENTERMARKSYMBOL_8
 70
     0
 10
0.0
 20
0.0
 30
0.0
  3
SW_CENTERMARKSYMBOL_8
  1

  0
LINE
  5
4BC
330
4B9
100
AcDbEntity
  8
SLD-0
 62
     0
100
AcDbLine
 10
0.0
 20
0.0
 30
0.0
 11
0.0
 21
2.0
 31
0.0
  0
LINE
  5
4BD
330
4B9
100
AcDbEntity
  8
SLD-0
 62
     0
100
AcDbLine
 10
0.0
 20
0.0
 30
0.0
 11
-2.0
 21
0.0
 31
0.0
  0
LINE
  5
4BE
330
4B9
100
AcDbEntity
  8
SLD-0
 62
     0
100
AcDbLine
 10
0.0
 20
0.0
 30
0.0
 11
0.0
 21
-2.0
 31
0.0
  0
LINE
  5
4BF
330
4B9
100
AcDbEntity
  8
SLD-0
 62
     0
100
AcDbLine
 10
0.0
 20
0.0
 30
0.0
 11
2.0
 21
0.0
 31
0.0
  0
LINE
  5
4C0
330
4B9
100
AcDbEntity
  8
SLD-0
 62
     0
100
AcDbLine
 10
0.0
 20
4.0
 30
0.0
 11
0.0
 21
7.25
 31
0.0
  0
LINE
  5
4C1
330
4B9
100
AcDbEntity
  8
SLD-0
 62
     0
100
AcDbLine
 10
-4.0
 20
0.0
 30
0.0
 11
-7.25
 21
0.0
 31
0.0
  0
LINE
  5
4C2
330
4B9
100
AcDbEntity
  8
SLD-0
 62
     0
100
AcDbLine
 10
0.0
 20
-4.0
 30
0.0
 11
0.0
 21
-7.25
 31
0.0
  0
LINE
  5
4C3
330
4B9
100
AcDbEntity
  8
SLD-0
 62
     0
100
AcDbLine
 10
4.0
 20
0.0
 30
0.0
 11
7.25
 21
0.0
 31
0.0
  0
ENDBLK
  5
4BB
330
4B9
100
AcDbEntity
  8
0
100
AcDbBlockEnd
  0
BLOCK
  5
4C6
330
4C5
100
AcDbEntity
  8
0
100
AcDbBlockBegin
  2
SW_CENTERMARKSYMBOL_9
 70
     0
 10
0.0
 20
0.0
 30
0.0
  3
SW_CENTERMARKSYMBOL_9
  1

  0
LINE
  5
4C8
330
4C5
100
AcDbEntity
  8
SLD-0
 62
     0
100
AcDbLine
 10
0.0
 20
0.0
 30
0.0
 11
0.0
 21
2.0
 31
0.0
  0
LINE
  5
4C9
330
4C5
100
AcDbEntity
  8
SLD-0
 62
     0
100
AcDbLine
 10
0.0
 20
0.0
 30
0.0
 11
-2.0
 21
0.0
 31
0.0
  0
LINE
  5
4CA
330
4C5
100
AcDbEntity
  8
SLD-0
 62
     0
100
AcDbLine
 10
0.0
 20
0.0
 30
0.0
 11
0.0
 21
-2.0
 31
0.0
  0
LINE
  5
4CB
330
4C5
100
AcDbEntity
  8
SLD-0
 62
     0
100
AcDbLine
 10
0.0
 20
0.0
 30
0.0
 11
2.0
 21
0.0
 31
0.0
  0
LINE
  5
4CC
330
4C5
100
AcDbEntity
  8
SLD-0
 62
     0
100
AcDbLine
 10
0.0
 20
4.0
 30
0.0
 11
0.0
 21
7.25
 31
0.0
  0
LINE
  5
4CD
330
4C5
100
AcDbEntity
  8
SLD-0
 62
     0
100
AcDbLine
 10
-4.0
 20
0.0
 30
0.0
 11
-7.25
 21
0.0
 31
0.0
  0
LINE
  5
4CE
330
4C5
100
AcDbEntity
  8
SLD-0
 62
     0
100
AcDbLine
 10
0.0
 20
-4.0
 30
0.0
 11
0.0
 21
-7.25
 31
0.0
  0
LINE
  5
4CF
330
4C5
100
AcDbEntity
  8
SLD-0
 62
     0
100
AcDbLine
 10
4.0
 20
0.0
 30
0.0
 11
7.25
 21
0.0
 31
0.0
  0
ENDBLK
  5
4C7
330
4C5
100
AcDbEntity
  8
0
100
AcDbBlockEnd
  0
BLOCK
  5
4D2
330
4D1
100
AcDbEntity
  8
0
100
AcDbBlockBegin
  2
SW_CENTERMARKSYMBOL_10
 70
     0
 10
0.0
 20
0.0
 30
0.0
  3
SW_CENTERMARKSYMBOL_10
  1

  0
LINE
  5
4D4
330
4D1
100
AcDbEntity
  8
SLD-0
 62
     0
100
AcDbLine
 10
0.0
 20
0.0
 30
0.0
 11
0.0
 21
2.0
 31
0.0
  0
LINE
  5
4D5
330
4D1
100
AcDbEntity
  8
SLD-0
 62
     0
100
AcDbLine
 10
0.0
 20
0.0
 30
0.0
 11
-2.0
 21
0.0
 31
0.0
  0
LINE
  5
4D6
330
4D1
100
AcDbEntity
  8
SLD-0
 62
     0
100
AcDbLine
 10
0.0
 20
0.0
 30
0.0
 11
0.0
 21
-2.0
 31
0.0
  0
LINE
  5
4D7
330
4D1
100
AcDbEntity
  8
SLD-0
 62
     0
100
AcDbLine
 10
0.0
 20
0.0
 30
0.0
 11
2.0
 21
0.0
 31
0.0
  0
LINE
  5
4D8
330
4D1
100
AcDbEntity
  8
SLD-0
 62
     0
100
AcDbLine
 10
0.0
 20
4.0
 30
0.0
 11
0.0
 21
7.25
 31
0.0
  0
LINE
  5
4D9
330
4D1
100
AcDbEntity
  8
SLD-0
 62
     0
100
AcDbLine
 10
-4.0
 20
0.0
 30
0.0
 11
-7.25
 21
0.0
 31
0.0
  0
LINE
  5
4DA
330
4D1
100
AcDbEntity
  8
SLD-0
 62
     0
100
AcDbLine
 10
0.0
 20
-4.0
 30
0.0
 11
0.0
 21
-7.25
 31
0.0
  0
LINE
  5
4DB
330
4D1
100
AcDbEntity
  8
SLD-0
 62
     0
100
AcDbLine
 10
4.0
 20
0.0
 30
0.0
 11
7.25
 21
0.0
 31
0.0
  0
ENDBLK
  5
4D3
330
4D1
100
AcDbEntity
  8
0
100
AcDbBlockEnd
  0
BLOCK
  5
4DE
330
4DD
100
AcDbEntity
  8
0
100
AcDbBlockBegin
  2
SW_CENTERMARKSYMBOL_11
 70
     0
 10
0.0
 20
0.0
 30
0.0
  3
SW_CENTERMARKSYMBOL_11
  1

  0
LINE
  5
4E0
330
4DD
100
AcDbEntity
  8
SLD-0
 62
     0
100
AcDbLine
 10
0.0
 20
0.0
 30
0.0
 11
0.0
 21
2.0
 31
0.0
  0
LINE
  5
4E1
330
4DD
100
AcDbEntity
  8
SLD-0
 62
     0
100
AcDbLine
 10
0.0
 20
0.0
 30
0.0
 11
-2.0
 21
0.0
 31
0.0
  0
LINE
  5
4E2
330
4DD
100
AcDbEntity
  8
SLD-0
 62
     0
100
AcDbLine
 10
0.0
 20
0.0
 30
0.0
 11
0.0
 21
-2.0
 31
0.0
  0
LINE
  5
4E3
330
4DD
100
AcDbEntity
  8
SLD-0
 62
     0
100
AcDbLine
 10
0.0
 20
0.0
 30
0.0
 11
2.0
 21
0.0
 31
0.0
  0
LINE
  5
4E4
330
4DD
100
AcDbEntity
  8
SLD-0
 62
     0
100
AcDbLine
 10
0.0
 20
4.0
 30
0.0
 11
0.0
 21
7.25
 31
0.0
  0
LINE
  5
4E5
330
4DD
100
AcDbEntity
  8
SLD-0
 62
     0
100
AcDbLine
 10
-4.0
 20
0.0
 30
0.0
 11
-7.25
 21
0.0
 31
0.0
  0
LINE
  5
4E6
330
4DD
100
AcDbEntity
  8
SLD-0
 62
     0
100
AcDbLine
 10
0.0
 20
-4.0
 30
0.0
 11
0.0
 21
-7.25
 31
0.0
  0
LINE
  5
4E7
330
4DD
100
AcDbEntity
  8
SLD-0
 62
     0
100
AcDbLine
 10
4.0
 20
0.0
 30
0.0
 11
7.25
 21
0.0
 31
0.0
  0
ENDBLK
  5
4DF
330
4DD
100
AcDbEntity
  8
0
100
AcDbBlockEnd
  0
BLOCK
  5
4EA
330
4E9
100
AcDbEntity
  8
0
100
AcDbBlockBegin
  2
SW_CENTERMARKSYMBOL_12
 70
     0
 10
0.0
 20
0.0
 30
0.0
  3
SW_CENTERMARKSYMBOL_12
  1

  0
LINE
  5
4EC
330
4E9
100
AcDbEntity
  8
SLD-0
 62
     0
100
AcDbLine
 10
0.0
 20
0.0
 30
0.0
 11
0.0
 21
2.0
 31
0.0
  0
LINE
  5
4ED
330
4E9
100
AcDbEntity
  8
SLD-0
 62
     0
100
AcDbLine
 10
0.0
 20
0.0
 30
0.0
 11
-2.0
 21
0.0
 31
0.0
  0
LINE
  5
4EE
330
4E9
100
AcDbEntity
  8
SLD-0
 62
     0
100
AcDbLine
 10
0.0
 20
0.0
 30
0.0
 11
0.0
 21
-2.0
 31
0.0
  0
LINE
  5
4EF
330
4E9
100
AcDbEntity
  8
SLD-0
 62
     0
100
AcDbLine
 10
0.0
 20
0.0
 30
0.0
 11
2.0
 21
0.0
 31
0.0
  0
LINE
  5
4F0
330
4E9
100
AcDbEntity
  8
SLD-0
 62
     0
100
AcDbLine
 10
0.0
 20
4.0
 30
0.0
 11
0.0
 21
7.25
 31
0.0
  0
LINE
  5
4F1
330
4E9
100
AcDbEntity
  8
SLD-0
 62
     0
100
AcDbLine
 10
-4.0
 20
0.0
 30
0.0
 11
-7.25
 21
0.0
 31
0.0
  0
LINE
  5
4F2
330
4E9
100
AcDbEntity
  8
SLD-0
 62
     0
100
AcDbLine
 10
0.0
 20
-4.0
 30
0.0
 11
0.0
 21
-7.25
 31
0.0
  0
LINE
  5
4F3
330
4E9
100
AcDbEntity
  8
SLD-0
 62
     0
100
AcDbLine
 10
4.0
 20
0.0
 30
0.0
 11
7.25
 21
0.0
 31
0.0
  0
ENDBLK
  5
4EB
330
4E9
100
AcDbEntity
  8
0
100
AcDbBlockEnd
  0
BLOCK
  5
4F6
330
4F5
100
AcDbEntity
  8
0
100
AcDbBlockBegin
  2
SW_CENTERMARKSYMBOL_13
 70
     0
 10
0.0
 20
0.0
 30
0.0
  3
SW_CENTERMARKSYMBOL_13
  1

  0
LINE
  5
4F8
330
4F5
100
AcDbEntity
  8
SLD-0
 62
     0
100
AcDbLine
 10
0.0
 20
0.0
 30
0.0
 11
0.0
 21
2.0
 31
0.0
  0
LINE
  5
4F9
330
4F5
100
AcDbEntity
  8
SLD-0
 62
     0
100
AcDbLine
 10
0.0
 20
0.0
 30
0.0
 11
-2.0
 21
0.0
 31
0.0
  0
LINE
  5
4FA
330
4F5
100
AcDbEntity
  8
SLD-0
 62
     0
100
AcDbLine
 10
0.0
 20
0.0
 30
0.0
 11
0.0
 21
-2.0
 31
0.0
  0
LINE
  5
4FB
330
4F5
100
AcDbEntity
  8
SLD-0
 62
     0
100
AcDbLine
 10
0.0
 20
0.0
 30
0.0
 11
2.0
 21
0.0
 31
0.0
  0
LINE
  5
4FC
330
4F5
100
AcDbEntity
  8
SLD-0
 62
     0
100
AcDbLine
 10
0.0
 20
4.0
 30
0.0
 11
0.0
 21
7.25
 31
0.0
  0
LINE
  5
4FD
330
4F5
100
AcDbEntity
  8
SLD-0
 62
     0
100
AcDbLine
 10
-4.0
 20
0.0
 30
0.0
 11
-7.25
 21
0.0
 31
0.0
  0
LINE
  5
4FE
330
4F5
100
AcDbEntity
  8
SLD-0
 62
     0
100
AcDbLine
 10
0.0
 20
-4.0
 30
0.0
 11
0.0
 21
-7.25
 31
0.0
  0
LINE
  5
4FF
330
4F5
100
AcDbEntity
  8
SLD-0
 62
     0
100
AcDbLine
 10
4.0
 20
0.0
 30
0.0
 11
7.25
 21
0.0
 31
0.0
  0
ENDBLK
  5
4F7
330
4F5
100
AcDbEntity
  8
0
100
AcDbBlockEnd
  0
BLOCK
  5
502
330
501
100
AcDbEntity
  8
0
100
AcDbBlockBegin
  2
SW_CENTERMARKSYMBOL_14
 70
     0
 10
0.0
 20
0.0
 30
0.0
  3
SW_CENTERMARKSYMBOL_14
  1

  0
LINE
  5
504
330
501
100
AcDbEntity
  8
SLD-0
 62
     0
100
AcDbLine
 10
0.0
 20
0.0
 30
0.0
 11
0.0
 21
2.0
 31
0.0
  0
LINE
  5
505
330
501
100
AcDbEntity
  8
SLD-0
 62
     0
100
AcDbLine
 10
0.0
 20
0.0
 30
0.0
 11
-2.0
 21
0.0
 31
0.0
  0
LINE
  5
506
330
501
100
AcDbEntity
  8
SLD-0
 62
     0
100
AcDbLine
 10
0.0
 20
0.0
 30
0.0
 11
0.0
 21
-2.0
 31
0.0
  0
LINE
  5
507
330
501
100
AcDbEntity
  8
SLD-0
 62
     0
100
AcDbLine
 10
0.0
 20
0.0
 30
0.0
 11
2.0
 21
0.0
 31
0.0
  0
LINE
  5
508
330
501
100
AcDbEntity
  8
SLD-0
 62
     0
100
AcDbLine
 10
0.0
 20
4.0
 30
0.0
 11
0.0
 21
7.25
 31
0.0
  0
LINE
  5
509
330
501
100
AcDbEntity
  8
SLD-0
 62
     0
100
AcDbLine
 10
-4.0
 20
0.0
 30
0.0
 11
-7.25
 21
0.0
 31
0.0
  0
LINE
  5
50A
330
501
100
AcDbEntity
  8
SLD-0
 62
     0
100
AcDbLine
 10
0.0
 20
-4.0
 30
0.0
 11
0.0
 21
-7.25
 31
0.0
  0
LINE
  5
50B
330
501
100
AcDbEntity
  8
SLD-0
 62
     0
100
AcDbLine
 10
4.0
 20
0.0
 30
0.0
 11
7.25
 21
0.0
 31
0.0
  0
ENDBLK
  5
503
330
501
100
AcDbEntity
  8
0
100
AcDbBlockEnd
  0
BLOCK
  5
50E
330
50D
100
AcDbEntity
  8
0
100
AcDbBlockBegin
  2
SW_CENTERMARKSYMBOL_15
 70
     0
 10
0.0
 20
0.0
 30
0.0
  3
SW_CENTERMARKSYMBOL_15
  1

  0
LINE
  5
510
330
50D
100
AcDbEntity
  8
SLD-0
 62
     0
100
AcDbLine
 10
0.0
 20
0.0
 30
0.0
 11
0.0
 21
2.0
 31
0.0
  0
LINE
  5
511
330
50D
100
AcDbEntity
  8
SLD-0
 62
     0
100
AcDbLine
 10
0.0
 20
0.0
 30
0.0
 11
-2.0
 21
0.0
 31
0.0
  0
LINE
  5
512
330
50D
100
AcDbEntity
  8
SLD-0
 62
     0
100
AcDbLine
 10
0.0
 20
0.0
 30
0.0
 11
0.0
 21
-2.0
 31
0.0
  0
LINE
  5
513
330
50D
100
AcDbEntity
  8
SLD-0
 62
     0
100
AcDbLine
 10
0.0
 20
0.0
 30
0.0
 11
2.0
 21
0.0
 31
0.0
  0
LINE
  5
514
330
50D
100
AcDbEntity
  8
SLD-0
 62
     0
100
AcDbLine
 10
0.0
 20
4.0
 30
0.0
 11
0.0
 21
7.25
 31
0.0
  0
LINE
  5
515
330
50D
100
AcDbEntity
  8
SLD-0
 62
     0
100
AcDbLine
 10
-4.0
 20
0.0
 30
0.0
 11
-7.25
 21
0.0
 31
0.0
  0
LINE
  5
516
330
50D
100
AcDbEntity
  8
SLD-0
 62
     0
100
AcDbLine
 10
0.0
 20
-4.0
 30
0.0
 11
0.0
 21
-7.25
 31
0.0
  0
LINE
  5
517
330
50D
100
AcDbEntity
  8
SLD-0
 62
     0
100
AcDbLine
 10
4.0
 20
0.0
 30
0.0
 11
7.25
 21
0.0
 31
0.0
  0
ENDBLK
  5
50F
330
50D
100
AcDbEntity
  8
0
100
AcDbBlockEnd
  0
BLOCK
  5
51A
330
519
100
AcDbEntity
  8
0
100
AcDbBlockBegin
  2
SW_CENTERMARKSYMBOL_16
 70
     0
 10
0.0
 20
0.0
 30
0.0
  3
SW_CENTERMARKSYMBOL_16
  1

  0
LINE
  5
51C
330
519
100
AcDbEntity
  8
SLD-0
 62
     0
100
AcDbLine
 10
0.0
 20
0.0
 30
0.0
 11
0.0
 21
2.0
 31
0.0
  0
LINE
  5
51D
330
519
100
AcDbEntity
  8
SLD-0
 62
     0
100
AcDbLine
 10
0.0
 20
0.0
 30
0.0
 11
-2.0
 21
0.0
 31
0.0
  0
LINE
  5
51E
330
519
100
AcDbEntity
  8
SLD-0
 62
     0
100
AcDbLine
 10
0.0
 20
0.0
 30
0.0
 11
0.0
 21
-2.0
 31
0.0
  0
LINE
  5
51F
330
519
100
AcDbEntity
  8
SLD-0
 62
     0
100
AcDbLine
 10
0.0
 20
0.0
 30
0.0
 11
2.0
 21
0.0
 31
0.0
  0
LINE
  5
520
330
519
100
AcDbEntity
  8
SLD-0
 62
     0
100
AcDbLine
 10
0.0
 20
4.0
 30
0.0
 11
0.0
 21
7.25
 31
0.0
  0
LINE
  5
521
330
519
100
AcDbEntity
  8
SLD-0
 62
     0
100
AcDbLine
 10
-4.0
 20
0.0
 30
0.0
 11
-7.25
 21
0.0
 31
0.0
  0
LINE
  5
522
330
519
100
AcDbEntity
  8
SLD-0
 62
     0
100
AcDbLine
 10
0.0
 20
-4.0
 30
0.0
 11
0.0
 21
-7.25
 31
0.0
  0
LINE
  5
523
330
519
100
AcDbEntity
  8
SLD-0
 62
     0
100
AcDbLine
 10
4.0
 20
0.0
 30
0.0
 11
7.25
 21
0.0
 31
0.0
  0
ENDBLK
  5
51B
330
519
100
AcDbEntity
  8
0
100
AcDbBlockEnd
  0
BLOCK
  5
526
330
525
100
AcDbEntity
  8
0
100
AcDbBlockBegin
  2
SW_CENTERMARKSYMBOL_17
 70
     0
 10
0.0
 20
0.0
 30
0.0
  3
SW_CENTERMARKSYMBOL_17
  1

  0
LINE
  5
528
330
525
100
AcDbEntity
  8
SLD-0
 62
     0
100
AcDbLine
 10
0.0
 20
0.0
 30
0.0
 11
0.0
 21
2.0
 31
0.0
  0
LINE
  5
529
330
525
100
AcDbEntity
  8
SLD-0
 62
     0
100
AcDbLine
 10
0.0
 20
0.0
 30
0.0
 11
-2.0
 21
0.0
 31
0.0
  0
LINE
  5
52A
330
525
100
AcDbEntity
  8
SLD-0
 62
     0
100
AcDbLine
 10
0.0
 20
0.0
 30
0.0
 11
0.0
 21
-2.0
 31
0.0
  0
LINE
  5
52B
330
525
100
AcDbEntity
  8
SLD-0
 62
     0
100
AcDbLine
 10
0.0
 20
0.0
 30
0.0
 11
2.0
 21
0.0
 31
0.0
  0
LINE
  5
52C
330
525
100
AcDbEntity
  8
SLD-0
 62
     0
100
AcDbLine
 10
0.0
 20
4.0
 30
0.0
 11
0.0
 21
7.25
 31
0.0
  0
LINE
  5
52D
330
525
100
AcDbEntity
  8
SLD-0
 62
     0
100
AcDbLine
 10
-4.0
 20
0.0
 30
0.0
 11
-7.25
 21
0.0
 31
0.0
  0
LINE
  5
52E
330
525
100
AcDbEntity
  8
SLD-0
 62
     0
100
AcDbLine
 10
0.0
 20
-4.0
 30
0.0
 11
0.0
 21
-7.25
 31
0.0
  0
LINE
  5
52F
330
525
100
AcDbEntity
  8
SLD-0
 62
     0
100
AcDbLine
 10
4.0
 20
0.0
 30
0.0
 11
7.25
 21
0.0
 31
0.0
  0
ENDBLK
  5
527
330
525
100
AcDbEntity
  8
0
100
AcDbBlockEnd
  0
BLOCK
  5
532
330
531
100
AcDbEntity
  8
0
100
AcDbBlockBegin
  2
SW_CENTERMARKSYMBOL_18
 70
     0
 10
0.0
 20
0.0
 30
0.0
  3
SW_CENTERMARKSYMBOL_18
  1

  0
LINE
  5
534
330
531
100
AcDbEntity
  8
SLD-0
 62
     0
100
AcDbLine
 10
0.0
 20
0.0
 30
0.0
 11
0.0
 21
2.0
 31
0.0
  0
LINE
  5
535
330
531
100
AcDbEntity
  8
SLD-0
 62
     0
100
AcDbLine
 10
0.0
 20
0.0
 30
0.0
 11
-2.0
 21
0.0
 31
0.0
  0
LINE
  5
536
330
531
100
AcDbEntity
  8
SLD-0
 62
     0
100
AcDbLine
 10
0.0
 20
0.0
 30
0.0
 11
0.0
 21
-2.0
 31
0.0
  0
LINE
  5
537
330
531
100
AcDbEntity
  8
SLD-0
 62
     0
100
AcDbLine
 10
0.0
 20
0.0
 30
0.0
 11
2.0
 21
0.0
 31
0.0
  0
LINE
  5
538
330
531
100
AcDbEntity
  8
SLD-0
 62
     0
100
AcDbLine
 10
0.0
 20
4.0
 30
0.0
 11
0.0
 21
7.25
 31
0.0
  0
LINE
  5
539
330
531
100
AcDbEntity
  8
SLD-0
 62
     0
100
AcDbLine
 10
-4.0
 20
0.0
 30
0.0
 11
-7.25
 21
0.0
 31
0.0
  0
LINE
  5
53A
330
531
100
AcDbEntity
  8
SLD-0
 62
     0
100
AcDbLine
 10
0.0
 20
-4.0
 30
0.0
 11
0.0
 21
-7.25
 31
0.0
  0
LINE
  5
53B
330
531
100
AcDbEntity
  8
SLD-0
 62
     0
100
AcDbLine
 10
4.0
 20
0.0
 30
0.0
 11
7.25
 21
0.0
 31
0.0
  0
ENDBLK
  5
533
330
531
100
AcDbEntity
  8
0
100
AcDbBlockEnd
  0
BLOCK
  5
53E
330
53D
100
AcDbEntity
  8
0
100
AcDbBlockBegin
  2
SW_CENTERMARKSYMBOL_19
 70
     0
 10
0.0
 20
0.0
 30
0.0
  3
SW_CENTERMARKSYMBOL_19
  1

  0
LINE
  5
540
330
53D
100
AcDbEntity
  8
SLD-0
 62
     0
100
AcDbLine
 10
0.0
 20
0.0
 30
0.0
 11
0.0
 21
2.0
 31
0.0
  0
LINE
  5
541
330
53D
100
AcDbEntity
  8
SLD-0
 62
     0
100
AcDbLine
 10
0.0
 20
0.0
 30
0.0
 11
-2.0
 21
0.0
 31
0.0
  0
LINE
  5
542
330
53D
100
AcDbEntity
  8
SLD-0
 62
     0
100
AcDbLine
 10
0.0
 20
0.0
 30
0.0
 11
0.0
 21
-2.0
 31
0.0
  0
LINE
  5
543
330
53D
100
AcDbEntity
  8
SLD-0
 62
     0
100
AcDbLine
 10
0.0
 20
0.0
 30
0.0
 11
2.0
 21
0.0
 31
0.0
  0
LINE
  5
544
330
53D
100
AcDbEntity
  8
SLD-0
 62
     0
100
AcDbLine
 10
0.0
 20
4.0
 30
0.0
 11
0.0
 21
7.25
 31
0.0
  0
LINE
  5
545
330
53D
100
AcDbEntity
  8
SLD-0
 62
     0
100
AcDbLine
 10
-4.0
 20
0.0
 30
0.0
 11
-7.25
 21
0.0
 31
0.0
  0
LINE
  5
546
330
53D
100
AcDbEntity
  8
SLD-0
 62
     0
100
AcDbLine
 10
0.0
 20
-4.0
 30
0.0
 11
0.0
 21
-7.25
 31
0.0
  0
LINE
  5
547
330
53D
100
AcDbEntity
  8
SLD-0
 62
     0
100
AcDbLine
 10
4.0
 20
0.0
 30
0.0
 11
7.25
 21
0.0
 31
0.0
  0
ENDBLK
  5
53F
330
53D
100
AcDbEntity
  8
0
100
AcDbBlockEnd
  0
BLOCK
  5
54A
330
549
100
AcDbEntity
  8
0
100
AcDbBlockBegin
  2
SW_CENTERMARKSYMBOL_20
 70
     0
 10
0.0
 20
0.0
 30
0.0
  3
SW_CENTERMARKSYMBOL_20
  1

  0
LINE
  5
54C
330
549
100
AcDbEntity
  8
SLD-0
 62
     0
100
AcDbLine
 10
0.0
 20
0.0
 30
0.0
 11
0.0
 21
2.0
 31
0.0
  0
LINE
  5
54D
330
549
100
AcDbEntity
  8
SLD-0
 62
     0
100
AcDbLine
 10
0.0
 20
0.0
 30
0.0
 11
-2.0
 21
0.0
 31
0.0
  0
LINE
  5
54E
330
549
100
AcDbEntity
  8
SLD-0
 62
     0
100
AcDbLine
 10
0.0
 20
0.0
 30
0.0
 11
0.0
 21
-2.0
 31
0.0
  0
LINE
  5
54F
330
549
100
AcDbEntity
  8
SLD-0
 62
     0
100
AcDbLine
 10
0.0
 20
0.0
 30
0.0
 11
2.0
 21
0.0
 31
0.0
  0
LINE
  5
550
330
549
100
AcDbEntity
  8
SLD-0
 62
     0
100
AcDbLine
 10
0.0
 20
4.0
 30
0.0
 11
0.0
 21
7.25
 31
0.0
  0
LINE
  5
551
330
549
100
AcDbEntity
  8
SLD-0
 62
     0
100
AcDbLine
 10
-4.0
 20
0.0
 30
0.0
 11
-7.25
 21
0.0
 31
0.0
  0
LINE
  5
552
330
549
100
AcDbEntity
  8
SLD-0
 62
     0
100
AcDbLine
 10
0.0
 20
-4.0
 30
0.0
 11
0.0
 21
-7.25
 31
0.0
  0
LINE
  5
553
330
549
100
AcDbEntity
  8
SLD-0
 62
     0
100
AcDbLine
 10
4.0
 20
0.0
 30
0.0
 11
7.25
 21
0.0
 31
0.0
  0
ENDBLK
  5
54B
330
549
100
AcDbEntity
  8
0
100
AcDbBlockEnd
  0
BLOCK
  5
556
330
555
100
AcDbEntity
  8
0
100
AcDbBlockBegin
  2
SW_CENTERMARKSYMBOL_21
 70
     0
 10
0.0
 20
0.0
 30
0.0
  3
SW_CENTERMARKSYMBOL_21
  1

  0
LINE
  5
558
330
555
100
AcDbEntity
  8
SLD-0
 62
     0
100
AcDbLine
 10
0.0
 20
0.0
 30
0.0
 11
0.0
 21
2.0
 31
0.0
  0
LINE
  5
559
330
555
100
AcDbEntity
  8
SLD-0
 62
     0
100
AcDbLine
 10
0.0
 20
0.0
 30
0.0
 11
-2.0
 21
0.0
 31
0.0
  0
LINE
  5
55A
330
555
100
AcDbEntity
  8
SLD-0
 62
     0
100
AcDbLine
 10
0.0
 20
0.0
 30
0.0
 11
0.0
 21
-2.0
 31
0.0
  0
LINE
  5
55B
330
555
100
AcDbEntity
  8
SLD-0
 62
     0
100
AcDbLine
 10
0.0
 20
0.0
 30
0.0
 11
2.0
 21
0.0
 31
0.0
  0
LINE
  5
55C
330
555
100
AcDbEntity
  8
SLD-0
 62
     0
100
AcDbLine
 10
0.0
 20
4.0
 30
0.0
 11
0.0
 21
7.25
 31
0.0
  0
LINE
  5
55D
330
555
100
AcDbEntity
  8
SLD-0
 62
     0
100
AcDbLine
 10
-4.0
 20
0.0
 30
0.0
 11
-7.25
 21
0.0
 31
0.0
  0
LINE
  5
55E
330
555
100
AcDbEntity
  8
SLD-0
 62
     0
100
AcDbLine
 10
0.0
 20
-4.0
 30
0.0
 11
0.0
 21
-7.25
 31
0.0
  0
LINE
  5
55F
330
555
100
AcDbEntity
  8
SLD-0
 62
     0
100
AcDbLine
 10
4.0
 20
0.0
 30
0.0
 11
7.25
 21
0.0
 31
0.0
  0
ENDBLK
  5
557
330
555
100
AcDbEntity
  8
0
100
AcDbBlockEnd
  0
BLOCK
  5
562
330
561
100
AcDbEntity
  8
0
100
AcDbBlockBegin
  2
SW_CENTERMARKSYMBOL_22
 70
     0
 10
0.0
 20
0.0
 30
0.0
  3
SW_CENTERMARKSYMBOL_22
  1

  0
LINE
  5
564
330
561
100
AcDbEntity
  8
SLD-0
 62
     0
100
AcDbLine
 10
0.0
 20
0.0
 30
0.0
 11
0.0
 21
2.0
 31
0.0
  0
LINE
  5
565
330
561
100
AcDbEntity
  8
SLD-0
 62
     0
100
AcDbLine
 10
0.0
 20
0.0
 30
0.0
 11
-2.0
 21
0.0
 31
0.0
  0
LINE
  5
566
330
561
100
AcDbEntity
  8
SLD-0
 62
     0
100
AcDbLine
 10
0.0
 20
0.0
 30
0.0
 11
0.0
 21
-2.0
 31
0.0
  0
LINE
  5
567
330
561
100
AcDbEntity
  8
SLD-0
 62
     0
100
AcDbLine
 10
0.0
 20
0.0
 30
0.0
 11
2.0
 21
0.0
 31
0.0
  0
LINE
  5
568
330
561
100
AcDbEntity
  8
SLD-0
 62
     0
100
AcDbLine
 10
0.0
 20
4.0
 30
0.0
 11
0.0
 21
7.25
 31
0.0
  0
LINE
  5
569
330
561
100
AcDbEntity
  8
SLD-0
 62
     0
100
AcDbLine
 10
-4.0
 20
0.0
 30
0.0
 11
-7.25
 21
0.0
 31
0.0
  0
LINE
  5
56A
330
561
100
AcDbEntity
  8
SLD-0
 62
     0
100
AcDbLine
 10
0.0
 20
-4.0
 30
0.0
 11
0.0
 21
-7.25
 31
0.0
  0
LINE
  5
56B
330
561
100
AcDbEntity
  8
SLD-0
 62
     0
100
AcDbLine
 10
4.0
 20
0.0
 30
0.0
 11
7.25
 21
0.0
 31
0.0
  0
ENDBLK
  5
563
330
561
100
AcDbEntity
  8
0
100
AcDbBlockEnd
  0
BLOCK
  5
56E
330
56D
100
AcDbEntity
  8
0
100
AcDbBlockBegin
  2
SW_CENTERMARKSYMBOL_23
 70
     0
 10
0.0
 20
0.0
 30
0.0
  3
SW_CENTERMARKSYMBOL_23
  1

  0
LINE
  5
570
330
56D
100
AcDbEntity
  8
SLD-0
 62
     0
100
AcDbLine
 10
0.0
 20
0.0
 30
0.0
 11
0.0
 21
2.0
 31
0.0
  0
LINE
  5
571
330
56D
100
AcDbEntity
  8
SLD-0
 62
     0
100
AcDbLine
 10
0.0
 20
0.0
 30
0.0
 11
-2.0
 21
0.0
 31
0.0
  0
LINE
  5
572
330
56D
100
AcDbEntity
  8
SLD-0
 62
     0
100
AcDbLine
 10
0.0
 20
0.0
 30
0.0
 11
0.0
 21
-2.0
 31
0.0
  0
LINE
  5
573
330
56D
100
AcDbEntity
  8
SLD-0
 62
     0
100
AcDbLine
 10
0.0
 20
0.0
 30
0.0
 11
2.0
 21
0.0
 31
0.0
  0
LINE
  5
574
330
56D
100
AcDbEntity
  8
SLD-0
 62
     0
100
AcDbLine
 10
0.0
 20
4.0
 30
0.0
 11
0.0
 21
7.25
 31
0.0
  0
LINE
  5
575
330
56D
100
AcDbEntity
  8
SLD-0
 62
     0
100
AcDbLine
 10
-4.0
 20
0.0
 30
0.0
 11
-7.25
 21
0.0
 31
0.0
  0
LINE
  5
576
330
56D
100
AcDbEntity
  8
SLD-0
 62
     0
100
AcDbLine
 10
0.0
 20
-4.0
 30
0.0
 11
0.0
 21
-7.25
 31
0.0
  0
LINE
  5
577
330
56D
100
AcDbEntity
  8
SLD-0
 62
     0
100
AcDbLine
 10
4.0
 20
0.0
 30
0.0
 11
7.25
 21
0.0
 31
0.0
  0
ENDBLK
  5
56F
330
56D
100
AcDbEntity
  8
0
100
AcDbBlockEnd
  0
BLOCK
  5
57A
330
579
100
AcDbEntity
  8
0
100
AcDbBlockBegin
  2
SW_CENTERMARKSYMBOL_24
 70
     0
 10
0.0
 20
0.0
 30
0.0
  3
SW_CENTERMARKSYMBOL_24
  1

  0
LINE
  5
57C
330
579
100
AcDbEntity
  8
SLD-0
 62
     0
100
AcDbLine
 10
0.0
 20
0.0
 30
0.0
 11
0.0
 21
2.0
 31
0.0
  0
LINE
  5
57D
330
579
100
AcDbEntity
  8
SLD-0
 62
     0
100
AcDbLine
 10
0.0
 20
0.0
 30
0.0
 11
-2.0
 21
0.0
 31
0.0
  0
LINE
  5
57E
330
579
100
AcDbEntity
  8
SLD-0
 62
     0
100
AcDbLine
 10
0.0
 20
0.0
 30
0.0
 11
0.0
 21
-2.0
 31
0.0
  0
LINE
  5
57F
330
579
100
AcDbEntity
  8
SLD-0
 62
     0
100
AcDbLine
 10
0.0
 20
0.0
 30
0.0
 11
2.0
 21
0.0
 31
0.0
  0
LINE
  5
580
330
579
100
AcDbEntity
  8
SLD-0
 62
     0
100
AcDbLine
 10
0.0
 20
4.0
 30
0.0
 11
0.0
 21
12.0
 31
0.0
  0
LINE
  5
581
330
579
100
AcDbEntity
  8
SLD-0
 62
     0
100
AcDbLine
 10
-4.0
 20
0.0
 30
0.0
 11
-12.0
 21
0.0
 31
0.0
  0
LINE
  5
582
330
579
100
AcDbEntity
  8
SLD-0
 62
     0
100
AcDbLine
 10
0.0
 20
-4.0
 30
0.0
 11
0.0
 21
-12.0
 31
0.0
  0
LINE
  5
583
330
579
100
AcDbEntity
  8
SLD-0
 62
     0
100
AcDbLine
 10
4.0
 20
0.0
 30
0.0
 11
12.0
 21
0.0
 31
0.0
  0
ENDBLK
  5
57B
330
579
100
AcDbEntity
  8
0
100
AcDbBlockEnd
  0
BLOCK
  5
586
330
585
100
AcDbEntity
  8
0
100
AcDbBlockBegin
  2
SW_CENTERMARKSYMBOL_25
 70
     0
 10
0.0
 20
0.0
 30
0.0
  3
SW_CENTERMARKSYMBOL_25
  1

  0
LINE
  5
588
330
585
100
AcDbEntity
  8
SLD-0
 62
     0
100
AcDbLine
 10
0.0
 20
0.0
 30
0.0
 11
0.0
 21
2.0
 31
0.0
  0
LINE
  5
589
330
585
100
AcDbEntity
  8
SLD-0
 62
     0
100
AcDbLine
 10
0.0
 20
0.0
 30
0.0
 11
-2.0
 21
0.0
 31
0.0
  0
LINE
  5
58A
330
585
100
AcDbEntity
  8
SLD-0
 62
     0
100
AcDbLine
 10
0.0
 20
0.0
 30
0.0
 11
0.0
 21
-2.0
 31
0.0
  0
LINE
  5
58B
330
585
100
AcDbEntity
  8
SLD-0
 62
     0
100
AcDbLine
 10
0.0
 20
0.0
 30
0.0
 11
2.0
 21
0.0
 31
0.0
  0
LINE
  5
58C
330
585
100
AcDbEntity
  8
SLD-0
 62
     0
100
AcDbLine
 10
0.0
 20
4.0
 30
0.0
 11
0.0
 21
12.0
 31
0.0
  0
LINE
  5
58D
330
585
100
AcDbEntity
  8
SLD-0
 62
     0
100
AcDbLine
 10
-4.0
 20
0.0
 30
0.0
 11
-12.0
 21
0.0
 31
0.0
  0
LINE
  5
58E
330
585
100
AcDbEntity
  8
SLD-0
 62
     0
100
AcDbLine
 10
0.0
 20
-4.0
 30
0.0
 11
0.0
 21
-12.0
 31
0.0
  0
LINE
  5
58F
330
585
100
AcDbEntity
  8
SLD-0
 62
     0
100
AcDbLine
 10
4.0
 20
0.0
 30
0.0
 11
12.0
 21
0.0
 31
0.0
  0
ENDBLK
  5
587
330
585
100
AcDbEntity
  8
0
100
AcDbBlockEnd
  0
BLOCK
  5
592
330
591
100
AcDbEntity
  8
0
100
AcDbBlockBegin
  2
SW_CENTERMARKSYMBOL_26
 70
     0
 10
0.0
 20
0.0
 30
0.0
  3
SW_CENTERMARKSYMBOL_26
  1

  0
LINE
  5
594
330
591
100
AcDbEntity
  8
SLD-0
 62
     0
100
AcDbLine
 10
0.0
 20
0.0
 30
0.0
 11
0.0
 21
2.0
 31
0.0
  0
LINE
  5
595
330
591
100
AcDbEntity
  8
SLD-0
 62
     0
100
AcDbLine
 10
0.0
 20
0.0
 30
0.0
 11
-2.0
 21
0.0
 31
0.0
  0
LINE
  5
596
330
591
100
AcDbEntity
  8
SLD-0
 62
     0
100
AcDbLine
 10
0.0
 20
0.0
 30
0.0
 11
0.0
 21
-2.0
 31
0.0
  0
LINE
  5
597
330
591
100
AcDbEntity
  8
SLD-0
 62
     0
100
AcDbLine
 10
0.0
 20
0.0
 30
0.0
 11
2.0
 21
0.0
 31
0.0
  0
LINE
  5
598
330
591
100
AcDbEntity
  8
SLD-0
 62
     0
100
AcDbLine
 10
0.0
 20
4.0
 30
0.0
 11
0.0
 21
12.0
 31
0.0
  0
LINE
  5
599
330
591
100
AcDbEntity
  8
SLD-0
 62
     0
100
AcDbLine
 10
-4.0
 20
0.0
 30
0.0
 11
-12.0
 21
0.0
 31
0.0
  0
LINE
  5
59A
330
591
100
AcDbEntity
  8
SLD-0
 62
     0
100
AcDbLine
 10
0.0
 20
-4.0
 30
0.0
 11
0.0
 21
-12.0
 31
0.0
  0
LINE
  5
59B
330
591
100
AcDbEntity
  8
SLD-0
 62
     0
100
AcDbLine
 10
4.0
 20
0.0
 30
0.0
 11
12.0
 21
0.0
 31
0.0
  0
ENDBLK
  5
593
330
591
100
AcDbEntity
  8
0
100
AcDbBlockEnd
  0
BLOCK
  5
59E
330
59D
100
AcDbEntity
  8
0
100
AcDbBlockBegin
  2
SW_CENTERMARKSYMBOL_27
 70
     0
 10
0.0
 20
0.0
 30
0.0
  3
SW_CENTERMARKSYMBOL_27
  1

  0
LINE
  5
5A0
330
59D
100
AcDbEntity
  8
SLD-0
 62
     0
100
AcDbLine
 10
0.0
 20
0.0
 30
0.0
 11
0.0
 21
2.0
 31
0.0
  0
LINE
  5
5A1
330
59D
100
AcDbEntity
  8
SLD-0
 62
     0
100
AcDbLine
 10
0.0
 20
0.0
 30
0.0
 11
-2.0
 21
0.0
 31
0.0
  0
LINE
  5
5A2
330
59D
100
AcDbEntity
  8
SLD-0
 62
     0
100
AcDbLine
 10
0.0
 20
0.0
 30
0.0
 11
0.0
 21
-2.0
 31
0.0
  0
LINE
  5
5A3
330
59D
100
AcDbEntity
  8
SLD-0
 62
     0
100
AcDbLine
 10
0.0
 20
0.0
 30
0.0
 11
2.0
 21
0.0
 31
0.0
  0
LINE
  5
5A4
330
59D
100
AcDbEntity
  8
SLD-0
 62
     0
100
AcDbLine
 10
0.0
 20
4.0
 30
0.0
 11
0.0
 21
12.0
 31
0.0
  0
LINE
  5
5A5
330
59D
100
AcDbEntity
  8
SLD-0
 62
     0
100
AcDbLine
 10
-4.0
 20
0.0
 30
0.0
 11
-12.0
 21
0.0
 31
0.0
  0
LINE
  5
5A6
330
59D
100
AcDbEntity
  8
SLD-0
 62
     0
100
AcDbLine
 10
0.0
 20
-4.0
 30
0.0
 11
0.0
 21
-12.0
 31
0.0
  0
LINE
  5
5A7
330
59D
100
AcDbEntity
  8
SLD-0
 62
     0
100
AcDbLine
 10
4.0
 20
0.0
 30
0.0
 11
12.0
 21
0.0
 31
0.0
  0
ENDBLK
  5
59F
330
59D
100
AcDbEntity
  8
0
100
AcDbBlockEnd
  0
ENDSEC
  0
SECTION
  2
ENTITIES
  0
LINE
  5
68
330
1F
100
AcDbEntity
  8
SLD-0
 62
     7
100
AcDbLine
 10
52.0
 20
2183.2
 30
0.0
 11
3402.4
 21
2183.2
 31
0.0
  0
LINE
  5
69
330
1F
100
AcDbEntity
  8
0
  6
Continuous
 62
     7
370
    18
100
AcDbLine
 10
52.0
 20
144.0
 30
0.0
 11
3402.4
 21
144.0
 31
0.0
  0
LINE
  5
6A
330
1F
100
AcDbEntity
  8
0
  6
CENTER
 62
     7
370
    18
100
AcDbLine
 10
1467.6410065043
 20
71.4141574233
 30
0.0
 11
1505.0131264995
 21
71.4141574233
 31
0.0
  0
LINE
  5
6B
330
1F
100
AcDbEntity
  8
0
  6
Continuous
 62
     7
370
    18
100
AcDbLine
 10
1471.4240984393
 20
66.3341574233
 30
0.0
 11
1501.9040984393
 21
61.2541574233
 31
0.0
  0
LINE
  5
6C
330
1F
100
AcDbEntity
  8
0
  6
Continuous
 62
     7
370
    18
100
AcDbLine
 10
1471.4240984393
 20
76.4941574233
 30
0.0
 11
1501.9040984393
 21
81.5741574233
 31
0.0
  0
LINE
  5
6D
330
1F
100
AcDbEntity
  8
0
  6
CENTER
 62
     7
370
    18
100
AcDbLine
 10
1437.9367384393
 20
71.4141574233
 30
0.0
 11
1464.0355161516
 21
71.4141574233
 31
0.0
  0
LINE
  5
6E
330
1F
100
AcDbEntity
  8
0
  6
CENTER
 62
     7
370
    18
100
AcDbLine
 10
1450.9861272954
 20
58.2311817608
 30
0.0
 11
1450.9861272954
 21
84.5971330858
 31
0.0
  0
LINE
  5
6F
330
1F
100
AcDbEntity
  8
0
  6
Continuous
 62
     7
370
    18
100
AcDbLine
 10
1471.4240984393
 20
76.4941574233
 30
0.0
 11
1471.4240984393
 21
66.3341574233
 31
0.0
  0
LINE
  5
70
330
1F
100
AcDbEntity
  8
0
  6
Continuous
 62
     7
370
    18
100
AcDbLine
 10
1501.9040984393
 20
81.5741574233
 30
0.0
 11
1501.9040984393
 21
61.2541574233
 31
0.0
  0
CIRCLE
  5
71
330
1F
100
AcDbEntity
  8
0
  6
Continuous
 62
     7
370
    18
100
AcDbCircle
 10
1450.9861272954
 20
71.4141574233
 30
0.0
 40
10.1599999999992
  0
CIRCLE
  5
72
330
1F
100
AcDbEntity
  8
0
  6
Continuous
 62
     7
370
    18
100
AcDbCircle
 10
1450.9861272954
 20
71.4141574233
 30
0.0
 40
5.079999999999506
  0
INSERT
  5
9C
330
1F
100
AcDbEntity
  8
0
  6
Continuous
 62
     7
370
     0
100
AcDbBlockReference
  2
SW_NOTE_0
 10
63.6664054407
 20
2129.5057392681
 30
0.0
  0
MTEXT
  5
9D
330
1F
100
AcDbEntity
  8
0
  6
Continuous
 62
     7
370
     0
100
AcDbMText
 10
1182.0172076054
 20
115.9278271027
 30
0.0
 40
14.8166666667
 41
0.0
 71
     2
 72
     1
  1
00PW4
  7
SLDTEXTSTYLE0
 73
     1
 44
1.0
  0
MTEXT
  5
9E
330
1F
100
AcDbEntity
  8
0
  6
Continuous
 62
     7
370
     0
100
AcDbMText
 10
1813.6046823506
 20
71.1537051905
 30
0.0
 40
14.8166666667
 41
0.0
 71
     1
 72
     1
  1
B.HAWKINS
  7
SLDTEXTSTYLE0
 73
     1
 44
1.0
  0
MTEXT
  5
9F
330
1F
100
AcDbEntity
  8
0
  6
Continuous
 62
     7
370
     0
100
AcDbMText
 10
1292.5154134451
 20
132.310977662
 30
0.0
 40
12.7
 41
0.0
 71
     1
 72
     1
  1
UNLESS  OTHERWISE  SPECIFIED
  7
SLDTEXTSTYLE0
 73
     1
 44
1.0
  0
MTEXT
  5
A0
330
1F
100
AcDbEntity
  8
0
  6
Continuous
 62
     7
370
     0
100
AcDbMText
 10
1292.5154134451
 20
115.3776445333
 30
0.0
 40
12.7
 41
0.0
 71
     1
 72
     1
  1
DIMENSIONS  ARE  IN  MM [IN]
  7
SLDTEXTSTYLE0
 73
     1
 44
1.0
  0
MTEXT
  5
A1
330
1F
100
AcDbEntity
  8
0
  6
Continuous
 62
     7
370
     0
100
AcDbMText
 10
3143.5181157932
 20
71.9396981417
 30
0.0
 40
14.8166666667
 41
0.0
 71
     2
 72
     1
  1
1:8
  7
SLDTEXTSTYLE0
 73
     1
 44
1.0
  0
MTEXT
  5
A2
330
1F
100
AcDbEntity
  8
0
  6
Continuous
 62
     7
370
     0
100
AcDbMText
 10
1311.8421143525
 20
78.7674877452
 30
0.0
 40
12.7
 41
0.0
 71
     1
 72
     1
  1
PROJECTION
  7
SLDTEXTSTYLE0
 73
     1
 44
1.0
  0
MTEXT
  5
A3
330
1F
100
AcDbEntity
  8
0
  6
Continuous
 62
     7
370
     0
100
AcDbMText
 10
1702.0607064549
 20
87.2350911823
 30
0.0
 40
12.7
 41
0.0
 71
     1
 72
     1
  1
%%p
  7
SLDTEXTSTYLE0
 73
     1
 44
1.0
  0
MTEXT
  5
A4
330
1F
100
AcDbEntity
  8
0
  6
Continuous
 62
     7
370
     0
100
AcDbMText
 10
1714.1680396233
 20
87.2350911823
 30
0.0
 40
12.7
 41
0.0
 71
     1
 72
     1
  1
1
  7
SLDTEXTSTYLE0
 73
     1
 44
1.0
  0
MTEXT
  5
A5
330
1F
100
AcDbEntity
  8
0
  6
Continuous
 62
     7
370
     0
100
AcDbMText
 10
1723.5519285385
 20
87.2350911823
 30
0.0
 40
12.7
 41
0.0
 71
     1
 72
     1
  1
%%d
  7
SLDTEXTSTYLE0
 73
     1
 44
1.0
  0
MTEXT
  5
A6
330
1F
100
AcDbEntity
  8
0
  6
Continuous
 62
     7
370
     0
100
AcDbMText
 10
1576.2950201887
 20
87.2350911823
 30
0.0
 40
12.7
 41
0.0
 71
     1
 72
     1
  1
.X 
  7
SLDTEXTSTYLE0
 73
     1
 44
1.0
  0
MTEXT
  5
A7
330
1F
100
AcDbEntity
  8
0
  6
Continuous
 62
     7
370
     0
100
AcDbMText
 10
1595.9565026122
 20
87.2350911823
 30
0.0
 40
12.7
 41
0.0
 71
     1
 72
     1
  1
%%p
  7
SLDTEXTSTYLE0
 73
     1
 44
1.0
  0
MTEXT
  5
A8
330
1F
100
AcDbEntity
  8
0
  6
Continuous
 62
     7
370
     0
100
AcDbMText
 10
1608.063833918
 20
87.2350911823
 30
0.0
 40
12.7
 41
0.0
 71
     1
 72
     1
  1
 3
  7
SLDTEXTSTYLE0
 73
     1
 44
1.0
  0
MTEXT
  5
A9
330
1F
100
AcDbEntity
  8
0
  6
Continuous
 62
     7
370
     0
100
AcDbMText
 10
1576.2950201887
 20
70.3017580536
 30
0.0
 40
12.7
 41
0.0
 71
     1
 72
     1
  1
.XX 
  7
SLDTEXTSTYLE0
 73
     1
 44
1.0
  0
MTEXT
  5
AA
330
1F
100
AcDbEntity
  8
0
  6
Continuous
 62
     7
370
     0
100
AcDbMText
 10
1606.2576120156
 20
70.3017580536
 30
0.0
 40
12.7
 41
0.0
 71
     1
 72
     1
  1
%%p
  7
SLDTEXTSTYLE0
 73
     1
 44
1.0
  0
MTEXT
  5
AB
330
1F
100
AcDbEntity
  8
0
  6
Continuous
 62
     7
370
     0
100
AcDbMText
 10
2736.2916989037
 20
125.3206787745
 30
0.0
 40
25.4
 41
0.0
 71
     2
 72
     1
  1
LOUDSPEAKER, PL-SUB10, BK, 10" 
  7
SLDTEXTSTYLE0
 73
     1
 44
1.0
  0
MTEXT
  5
AC
330
1F
100
AcDbEntity
  8
0
  6
Continuous
 62
     7
370
     0
100
AcDbMText
 10
2730.3532756516
 20
91.4540125171
 30
0.0
 40
25.4
 41
0.0
 71
     2
 72
     1
  1
SUBWOOFER
  7
SLDTEXTSTYLE0
 73
     1
 44
1.0
  0
MTEXT
  5
AD
330
1F
100
AcDbEntity
  8
0
  6
Continuous
 62
     7
370
     0
100
AcDbMText
 10
1576.5167447372
 20
132.310977662
 30
0.0
 40
12.7
 41
0.0
 71
     1
 72
     1
  1
TOLERANCES  ARE:
  7
SLDTEXTSTYLE0
 73
     1
 44
1.0
  0
MTEXT
  5
AE
330
1F
100
AcDbEntity
  8
0
  6
Continuous
 62
     7
370
     0
100
AcDbMText
 10
1576.5167447372
 20
115.3776445333
 30
0.0
 40
12.7
 41
0.0
 71
     1
 72
     1
  1
DECIMALS          ANGLES
  7
SLDTEXTSTYLE0
 73
     1
 44
1.0
  0
MTEXT
  5
AF
330
1F
100
AcDbEntity
  8
0
  6
Continuous
 62
     7
370
     0
100
AcDbMText
 10
2028.9475490134
 20
87.224961298
 30
0.0
 40
10.5833333333
 41
0.0
 71
     1
 72
     1
  1
MFG ENGINEER
  7
SLDTEXTSTYLE0
 73
     1
 44
1.0
  0
MTEXT
  5
B0
330
1F
100
AcDbEntity
  8
0
  6
Continuous
 62
     7
370
     0
100
AcDbMText
 10
1813.6046823506
 20
87.224961298
 30
0.0
 40
10.5833333333
 41
0.0
 71
     1
 72
     1
  1
MECH ENGINEER
  7
SLDTEXTSTYLE0
 73
     1
 44
1.0
  0
MTEXT
  5
B2
330
1F
100
AcDbEntity
  8
0
  6
Continuous
 62
     7
370
     0
100
AcDbMText
 10
3083.923979723
 20
70.2390094465
 30
0.0
 40
10.5833333333
 41
0.0
 71
     1
 72
     1
  1
SCALE:  
  7
SLDTEXTSTYLE1
 73
     1
 44
1.0
  0
MTEXT
  5
B3
330
1F
100
AcDbEntity
  8
SLD-0
 62
     7
100
AcDbMText
 10
3083.3081367943
 20
111.101438307
 30
0.0
 40
25.4
 41
0.0
 71
     1
 72
     1
  1
FG-901572-2D
  7
SLDTEXTSTYLE0
 73
     1
 44
1.0
  0
MTEXT
  5
B4
330
1F
100
AcDbEntity
  8
0
  6
Continuous
 62
     7
370
     0
100
AcDbMText
 10
3375.0768984944
 20
111.4093597714
 30
0.0
 40
25.4
 41
0.0
 71
     2
 72
     1
  1
A
  7
SLDTEXTSTYLE0
 73
     1
 44
1.0
  0
MTEXT
  5
B5
330
1F
100
AcDbEntity
  8
0
  6
Continuous
 62
     7
370
     0
100
AcDbMText
 10
3366.3883146742
 20
71.9396981417
 30
0.0
 40
14.8166666667
 41
0.0
 71
     2
 72
     1
  1
1  OF  1
  7
SLDTEXTSTYLE0
 73
     1
 44
1.0
  0
MTEXT
  5
B6
330
1F
100
AcDbEntity
  8
0
  6
Continuous
 62
     7
370
     0
100
AcDbMText
 10
3083.923979723
 20
131.4074435141
 30
0.0
 40
10.5833333333
 41
0.0
 71
     1
 72
     1
  1
DRAWING NUMBER
  7
SLDTEXTSTYLE0
 73
     1
 44
1.0
  0
MTEXT
  5
B7
330
1F
100
AcDbEntity
  8
SLD-0
 62
     7
100
AcDbMText
 10
2028.9475490134
 20
131.2736451244
 30
0.0
 40
10.5833333333
 41
0.0
 71
     1
 72
     1
  1
TECH DIRECTOR
  7
SLDTEXTSTYLE0
 73
     1
 44
1.0
  0
MTEXT
  5
B8
330
1F
100
AcDbEntity
  8
SLD-0
 62
     7
100
AcDbMText
 10
1813.6046823506
 20
131.2736451244
 30
0.0
 40
10.5833333333
 41
0.0
 71
     1
 72
     1
  1
DRAWN BY
  7
SLDTEXTSTYLE0
 73
     1
 44
1.0
  0
MTEXT
  5
B9
330
1F
100
AcDbEntity
  8
SLD-0
 62
     7
100
AcDbMText
 10
1813.6046823506
 20
116.1413708261
 30
0.0
 40
14.8166666667
 41
0.0
 71
     1
 72
     1
  1
K.CASTRO
  7
SLDTEXTSTYLE0
 73
     1
 44
1.0
  0
MTEXT
  5
BA
330
1F
100
AcDbEntity
  8
SLD-0
 62
     7
100
AcDbMText
 10
2028.9475490134
 20
71.1537051905
 30
0.0
 40
14.8166666667
 41
0.0
 71
     1
 72
     1
  1
A.TRAN
  7
SLDTEXTSTYLE0
 73
     1
 44
1.0
  0
MTEXT
  5
BB
330
1F
100
AcDbEntity
  8
SLD-0
 62
     7
100
AcDbMText
 10
2028.9475490134
 20
116.1413708261
 30
0.0
 40
14.8166666667
 41
0.0
 71
     1
 72
     1
  1
R.VAUCHER
  7
SLDTEXTSTYLE0
 73
     1
 44
1.0
  0
MTEXT
  5
BD
330
1F
100
AcDbEntity
  8
0
  6
Continuous
 62
     7
370
     0
100
AcDbMText
 10
877.0159486806
 20
119.5877247251
 30
0.0
 40
8.4666666667
 41
0.0
 71
     2
 72
     1
  1
THIS DOCUMENT CONTAINS CONFIDENTIAL OR PROPRIETARY INFORMATION WHICH 
  7
SLDTEXTSTYLE2
 73
     1
 44
1.0
  0
MTEXT
  5
BE
330
1F
100
AcDbEntity
  8
0
  6
Continuous
 62
     7
370
     0
100
AcDbMText
 10
877.747458539
 20
108.2988359727
 30
0.0
 40
8.4666666667
 41
0.0
 71
     2
 72
     1
  1
IS THE PROPERTY OF QSC, LLC THAT MAY NOT BE DISCLOSED, REPRODUCED OR 
  7
SLDTEXTSTYLE2
 73
     1
 44
1.0
  0
MTEXT
  5
BF
330
1F
100
AcDbEntity
  8
0
  6
Continuous
 62
     7
370
     0
100
AcDbMText
 10
877.5831212169
 20
97.0099472202
 30
0.0
 40
8.4666666667
 41
0.0
 71
     2
 72
     1
  1
USED WITHOUT EXPRESS WRITTEN CONSENT FROM QSC, LLC. NO PORTION OF THIS 
  7
SLDTEXTSTYLE2
 73
     1
 44
1.0
  0
MTEXT
  5
C0
330
1F
100
AcDbEntity
  8
0
  6
Continuous
 62
     7
370
     0
100
AcDbMText
 10
877.3008932239
 20
85.7210584678
 30
0.0
 40
8.4666666667
 41
0.0
 71
     2
 72
     1
  1
DOCUMENT MAY BE REPRODUCED, REDISTRIBUTED, OR OTHERWISE DISCLOSED TO 
  7
SLDTEXTSTYLE2
 73
     1
 44
1.0
  0
MTEXT
  5
C2
330
1F
100
AcDbEntity
  8
0
  6
Continuous
 62
     7
370
     0
100
AcDbMText
 10
875.9057739202
 20
74.4321697153
 30
0.0
 40
8.4666666667
 41
0.0
 71
     2
 72
     1
  1
ANY THIRD PARTY WITHOUT QSC\U+2019S WRITTEN PERMISSION.
  7
SLDTEXTSTYLE3
 73
     1
 44
1.0
  0
MTEXT
  5
C3
330
1F
100
AcDbEntity
  8
0
  6
Continuous
 62
     7
370
     0
100
AcDbMText
 10
3281.1553955036
 20
69.9777392889
 30
0.0
 40
10.5833333333
 41
0.0
 71
     1
 72
     1
  1
SHEET:
  7
SLDTEXTSTYLE0
 73
     1
 44
1.0
  0
MTEXT
  5
C4
330
1F
100
AcDbEntity
  8
SLD-0
100
AcDbMText
 10
391.3228815356
 20
122.3725933295
 30
0.0
 40
16.9333333333
 41
0.0
 71
     1
 72
     1
  1
QSC, LLC
  7
SLDTEXTSTYLE0
 73
     1
 44
1.0
  0
MTEXT
  5
C5
330
1F
100
AcDbEntity
  8
0
  6
Continuous
 62
     7
370
     0
100
AcDbMText
 10
3376.0073490093
 20
131.6203652151
 30
0.0
 40
10.5833333333
 41
0.0
 71
     2
 72
     1
  1
REV
  7
SLDTEXTSTYLE0
 73
     1
 44
1.0
  0
MTEXT
  5
C6
330
1F
100
AcDbEntity
  8
SLD-0
 62
     7
100
AcDbMText
 10
2242.1846141878
 20
131.2736451244
 30
0.0
 40
10.5833333333
 41
0.0
 71
     1
 72
     1
  1
REV BY
  7
SLDTEXTSTYLE0
 73
     1
 44
1.0
  0
MTEXT
  5
C7
330
1F
100
AcDbEntity
  8
SLD-0
 62
     7
100
AcDbMText
 10
2242.1846141878
 20
116.1413708261
 30
0.0
 40
14.8166666667
 41
0.0
 71
     1
 72
     1
  1
KC
  7
SLDTEXTSTYLE0
 73
     1
 44
1.0
  0
MTEXT
  5
C8
330
1F
100
AcDbEntity
  8
SLD-0
 62
     7
100
AcDbMText
 10
2242.1846141878
 20
71.1537051905
 30
0.0
 40
14.8166666667
 41
0.0
 71
     1
 72
     1
  1
02-FEB-2024
  7
SLDTEXTSTYLE0
 73
     1
 44
1.0
  0
MTEXT
  5
C9
330
1F
100
AcDbEntity
  8
0
  6
Continuous
 62
     7
370
     0
100
AcDbMText
 10
2242.1846141878
 20
87.224961298
 30
0.0
 40
10.5833333333
 41
0.0
 71
     1
 72
     1
  1
REV DATE
  7
SLDTEXTSTYLE0
 73
     1
 44
1.0
  0
MTEXT
  5
CA
330
1F
100
AcDbEntity
  8
SLD-0
100
AcDbMText
 10
1182.1886709732
 20
89.0516285419
 30
0.0
 40
10.5833333333
 41
0.0
 71
     2
 72
     1
  1
FORM
  7
SLDTEXTSTYLE0
 73
     1
 44
1.0
  0
MTEXT
  5
CB
330
1F
100
AcDbEntity
  8
0
  6
Continuous
 62
     7
370
     0
100
AcDbMText
 10
1183.8454642013
 20
73.1234671965
 30
0.0
 40
14.8166666667
 41
0.0
 71
     2
 72
     1
  1
QOS40169 B
  7
SLDTEXTSTYLE0
 73
     1
 44
1.0
  0
MTEXT
  5
CC
330
1F
100
AcDbEntity
  8
SLD-0
100
AcDbMText
 10
393.77089895
 20
73.8403842834
 30
0.0
 40
12.7
 41
0.0
 71
     1
 72
     1
  1
COSTA MESA, CA 92626 USA
  7
SLDTEXTSTYLE0
 73
     1
 44
1.0
  0
MTEXT
  5
CD
330
1F
100
AcDbEntity
  8
SLD-0
100
AcDbMText
 10
393.1948051962
 20
95.5091868244
 30
0.0
 40
12.7
 41
0.0
 71
     1
 72
     1
  1
1675 MACARTHUR BLVD
  7
SLDTEXTSTYLE0
 73
     1
 44
1.0
  0
MTEXT
  5
CE
330
1F
100
AcDbEntity
  8
SLD-0
 62
     7
100
AcDbMText
 10
1182.729439595
 20
132.5759000427
 30
0.0
 40
10.5833333333
 41
0.0
 71
     2
 72
     1
  1
CAGE CODE
  7
SLDTEXTSTYLE0
 73
     1
 44
1.0
  0
LINE
  5
CF
330
1F
100
AcDbEntity
  8
0
  6
Continuous
 62
     7
370
    25
100
AcDbLine
 10
2840.7217853754
 20
1526.4280356575
 30
0.0
 11
3208.4173115924
 21
1738.6941447314
 31
0.0
  0
LINE
  5
D0
330
1F
100
AcDbEntity
  8
0
  6
Continuous
 62
     7
370
    25
100
AcDbLine
 10
2840.7217853754
 20
1526.4280356575
 30
0.0
 11
2840.7217853754
 21
1746.8940548666
 31
0.0
  0
LINE
  5
D1
330
1F
100
AcDbEntity
  8
0
  6
Continuous
 62
     7
370
    25
100
AcDbLine
 10
2840.7217853754
 20
1746.8940548666
 30
0.0
 11
3208.4173115924
 21
1959.1601639405
 31
0.0
  0
LINE
  5
D2
330
1F
100
AcDbEntity
  8
0
  6
Continuous
 62
     7
370
    25
100
AcDbLine
 10
3208.4173115924
 20
1738.6941447314
 30
0.0
 11
3208.4173115924
 21
1959.1601639405
 31
0.0
  0
LWPOLYLINE
  5
D3
330
1F
100
AcDbEntity
  8
0
  6
Continuous
 62
     7
370
    25
100
AcDbPolyline
 90
       34
 70
   128
 43
0.0
 10
2898.7045414327
 20
1755.54394677
 10
2897.3663330503
 20
1754.6238559526
 10
2896.0764910056
 20
1753.4419004904
 10
2894.8816335506
 20
1752.0407993334
 10
2893.8249459469
 20
1750.4711919279
 10
2892.9446196378
 20
1748.7898079752
 10
2892.2724719097
 20
1747.0574170721
 10
2891.8327959327
 20
1745.3366323396
 10
2891.6414827422
 20
1743.6896474212
 10
2891.7054468955
 20
1742.1759886433
 10
2892.0223765613
 20
1740.8503635777
 10
2892.5808170757
 20
1739.7606837683
 10
2893.3605849436
 20
1738.9463330824
 10
2894.3334973226
 20
1738.4367442758
 10
2895.4643906243
 20
1738.2503352154
 10
2896.7123914184
 20
1738.3938432106
 10
2898.0323937045
 20
1738.8620815083
 10
2899.3766891608
 20
1739.6381267567
 10
2900.6966914469
 20
1740.6939306583
 10
2901.944692241
 20
1741.9913337093
 10
2903.0755855427
 20
1743.4834443832
 10
2904.0484979217
 20
1745.1163339125
 10
2904.8282657896
 20
1746.8309854152
 10
2905.3867063041
 20
1748.5654269185
 10
2905.7036359698
 20
1750.2569711873
 10
2905.7676001231
 20
1751.8444814047
 10
2905.5762869326
 20
1753.270580815
 10
2905.1366109557
 20
1754.4837264699
 10
2904.4644632275
 20
1755.4400721247
 10
2903.5841369184
 20
1756.1050529557
 10
2902.5274493148
 20
1756.4546348229
 10
2901.3325918598
 20
1756.476182927
 10
2900.042749815
 20
1756.1689184633
 10
2898.7045414327
 20
1755.54394677
  0
LWPOLYLINE
  5
D4
330
1F
100
AcDbEntity
  8
0
  6
Continuous
 62
     7
370
    25
100
AcDbPolyline
 90
       34
 70
   128
 43
0.0
 10
3155.3843030034
 20
1749.2324974571
 10
3154.046094621
 20
1748.3124066396
 10
3152.7562525763
 20
1747.1304511774
 10
3151.5613951213
 20
1745.7293500204
 10
3150.5047075176
 20
1744.159742615
 10
3149.6243812085
 20
1742.4783586623
 10
3148.9522334804
 20
1740.7459677592
 10
3148.5125575034
 20
1739.0251830266
 10
3148.321244313
 20
1737.3781981083
 10
3148.3852084662
 20
1735.8645393303
 10
3148.702138132
 20
1734.5389142647
 10
3149.2605786464
 20
1733.4492344553
 10
3150.0403465143
 20
1732.6348837695
 10
3151.0132588933
 20
1732.1252949628
 10
3152.1441521951
 20
1731.9388859025
 10
3153.3921529891
 20
1732.0823938976
 10
3154.7121552753
 20
1732.5506321954
 10
3156.0564507315
 20
1733.3266774437
 10
3157.3764530176
 20
1734.3824813453
 10
3158.6244538117
 20
1735.6798843964
 10
3159.7553471135
 20
1737.1719950703
 10
3160.7282594924
 20
1738.8048845996
 10
3161.5080273603
 20
1740.5195361023
 10
3162.0664678748
 20
1742.2539776055
 10
3162.3833975406
 20
1743.9455218744
 10
3162.4473616938
 20
1745.5330320917
 10
3162.2560485034
 20
1746.959131502
 10
3161.8163725264
 20
1748.172277157
 10
3161.1442247982
 20
1749.1286228118
 10
3160.2638984891
 20
1749.7936036427
 10
3159.2072108855
 20
1750.14318551
 10
3158.0123534305
 20
1750.1647336141
 10
3156.7225113857
 20
1749.8574691503
 10
3155.3843030034
 20
1749.2324974571
  0
LWPOLYLINE
  5
D5
330
1F
100
AcDbEntity
  8
0
  6
Continuous
 62
     7
370
    25
100
AcDbPolyline
 90
       34
 70
   128
 43
0.0
 10
2898.7045414327
 20
1601.0544251612
 10
2897.3663330503
 20
1600.1343343438
 10
2896.0764910056
 20
1598.9523788816
 10
2894.8816335506
 20
1597.5512777246
 10
2893.8249459469
 20
1595.9816703192
 10
2892.9446196378
 20
1594.3002863665
 10
2892.2724719097
 20
1592.5678954633
 10
2891.8327959327
 20
1590.8471107308
 10
2891.6414827422
 20
1589.2001258124
 10
2891.7054468955
 20
1587.6864670345
 10
2892.0223765613
 20
1586.3608419689
 10
2892.5808170757
 20
1585.2711621595
 10
2893.3605849436
 20
1584.4568114737
 10
2894.3334973226
 20
1583.947222667
 10
2895.4643906243
 20
1583.7608136067
 10
2896.7123914184
 20
1583.9043216018
 10
2898.0323937045
 20
1584.3725598996
 10
2899.3766891608
 20
1585.1486051479
 10
2900.6966914469
 20
1586.2044090495
 10
2901.944692241
 20
1587.5018121006
 10
2903.0755855427
 20
1588.9939227745
 10
2904.0484979217
 20
1590.6268123038
 10
2904.8282657896
 20
1592.3414638064
 10
2905.3867063041
 20
1594.0759053097
 10
2905.7036359698
 20
1595.7674495786
 10
2905.7676001231
 20
1597.3549597959
 10
2905.5762869326
 20
1598.7810592062
 10
2905.1366109557
 20
1599.9942048612
 10
2904.4644632275
 20
1600.9505505159
 10
2903.5841369184
 20
1601.6155313469
 10
2902.5274493148
 20
1601.9651132142
 10
2901.3325918598
 20
1601.9866613182
 10
2900.042749815
 20
1601.6793968545
 10
2898.7045414327
 20
1601.0544251612
  0
LWPOLYLINE
  5
D6
330
1F
100
AcDbEntity
  8
0
  6
Continuous
 62
     7
370
    25
100
AcDbPolyline
 90
       34
 70
   128
 43
0.0
 10
3155.3843030034
 20
1903.7220190659
 10
3154.046094621
 20
1902.8019282484
 10
3152.7562525763
 20
1901.6199727862
 10
3151.5613951213
 20
1900.2188716292
 10
3150.5047075176
 20
1898.6492642238
 10
3149.6243812085
 20
1896.9678802711
 10
3148.9522334804
 20
1895.2354893679
 10
3148.5125575034
 20
1893.5147046354
 10
3148.321244313
 20
1891.8677197171
 10
3148.3852084662
 20
1890.3540609391
 10
3148.702138132
 20
1889.0284358735
 10
3149.2605786464
 20
1887.9387560641
 10
3150.0403465143
 20
1887.1244053783
 10
3151.0132588933
 20
1886.6148165716
 10
3152.1441521951
 20
1886.4284075113
 10
3153.3921529891
 20
1886.5719155064
 10
3154.7121552753
 20
1887.0401538042
 10
3156.0564507315
 20
1887.8161990525
 10
3157.3764530176
 20
1888.8720029541
 10
3158.6244538117
 20
1890.1694060052
 10
3159.7553471135
 20
1891.6615166791
 10
3160.7282594924
 20
1893.2944062084
 10
3161.5080273603
 20
1895.009057711
 10
3162.0664678748
 20
1896.7434992143
 10
3162.3833975406
 20
1898.4350434832
 10
3162.4473616938
 20
1900.0225537005
 10
3162.2560485034
 20
1901.4486531108
 10
3161.8163725264
 20
1902.6617987658
 10
3161.1442247982
 20
1903.6181444206
 10
3160.2638984891
 20
1904.2831252515
 10
3159.2072108855
 20
1904.6327071188
 10
3158.0123534305
 20
1904.6542552228
 10
3156.7225113857
 20
1904.3469907591
 10
3155.3843030034
 20
1903.7220190659
  0
LINE
  5
D7
330
1F
100
AcDbEntity
  8
0
  6
Continuous
 62
     7
370
    25
100
AcDbLine
 10
2840.7217853754
 20
1746.8940548666
 30
0.0
 11
2540.2014033711
 21
1920.380778629
 31
0.0
  0
LINE
  5
D8
330
1F
100
AcDbEntity
  8
0
  6
Continuous
 62
     7
370
    25
100
AcDbLine
 10
2540.2014033711
 20
1920.380778629
 30
0.0
 11
2907.8969295881
 21
2132.6468877029
 31
0.0
  0
LINE
  5
D9
330
1F
100
AcDbEntity
  8
0
  6
Continuous
 62
     7
370
    25
100
AcDbLine
 10
3208.4173115924
 20
1959.1601639405
 30
0.0
 11
2907.8969295881
 21
2132.6468877029
 31
0.0
  0
LWPOLYLINE
  5
DA
330
1F
100
AcDbEntity
  8
0
  6
Continuous
 62
     7
370
    25
100
AcDbPolyline
 90
       34
 70
   128
 43
0.0
 10
2863.0663596609
 20
1792.7761907511
 10
2864.5323514503
 20
1792.0774272864
 10
2866.2009252911
 20
1791.5514545355
 10
2868.0117745772
 20
1791.2172825239
 10
2869.8994504973
 20
1791.0869890988
 10
2871.7957275253
 20
1791.165283404
 10
2873.6320692687
 20
1791.4493356793
 10
2875.3421055525
 20
1791.9288795355
 10
2876.8640312097
 20
1792.5865830082
 10
2878.142839882
 20
1793.3986749801
 10
2879.1323120918
 20
1794.3358043316
 10
2879.7966857356
 20
1795.3641007663
 10
2880.1119486188
 20
1796.4463989717
 10
2880.0667063195
 20
1797.5435818708
 10
2879.6625940121
 20
1798.615994415
 10
2878.9142173684
 20
1799.6248768208
 10
2877.8486246702
 20
1800.5337654494
 10
2876.5043292139
 20
1801.3098106977
 10
2874.9299173399
 20
1801.9249642685
 10
2873.1822923954
 20
1802.3569929089
 10
2871.3246180993
 20
1802.5902819783
 10
2869.4240356407
 20
1802.6163998018
 10
2867.5492370217
 20
1802.4344024132
 10
2865.767982349
 20
1802.0508676724
 10
2864.1446508076
 20
1801.4796575242
 10
2862.7379138289
 20
1800.7414169916
 10
2861.5986145525
 20
1799.862828011
 10
2860.7679302227
 20
1798.8756450771
 10
2860.2758839355
 20
1797.8155475535
 10
2860.1402595258
 20
1796.7208501265
 10
2860.365958813
 20
1795.6311180134
 10
2860.9448244369
 20
1794.5857369721
 10
2861.8559346856
 20
1793.6224897971
 10
2863.0663596609
 20
1792.7761907511
  0
LWPOLYLINE
  5
DB
330
1F
100
AcDbEntity
  8
0
  6
Continuous
 62
     7
370
    25
100
AcDbPolyline
 90
       34
 70
   128
 43
0.0
 10
3119.7461212316
 20
1940.9542630469
 10
3121.212113021
 20
1940.2554995823
 10
3122.8806868618
 20
1939.7295268313
 10
3124.6915361479
 20
1939.3953548197
 10
3126.579212068
 20
1939.2650613946
 10
3128.475489096
 20
1939.3433556998
 10
3130.3118308394
 20
1939.6274079752
 10
3132.0218671232
 20
1940.1069518314
 10
3133.5437927805
 20
1940.764655304
 10
3134.8226014527
 20
1941.576747276
 10
3135.8120736626
 20
1942.5138766275
 10
3136.4764473063
 20
1943.5421730621
 10
3136.7917101895
 20
1944.6244712675
 10
3136.7464678902
 20
1945.7216541666
 10
3136.3423555828
 20
1946.7940667108
 10
3135.5939789391
 20
1947.8029491166
 10
3134.5283862409
 20
1948.7118377452
 10
3133.1840907846
 20
1949.4878829936
 10
3131.6096789106
 20
1950.1030365643
 10
3129.8620539661
 20
1950.5350652047
 10
3128.00437967
 20
1950.7683542741
 10
3126.1037972115
 20
1950.7944720976
 10
3124.2289985924
 20
1950.612474709
 10
3122.4477439198
 20
1950.2289399682
 10
3120.8244123783
 20
1949.65772982
 10
3119.4176753996
 20
1948.9194892874
 10
3118.2783761232
 20
1948.0409003068
 10
3117.4476917934
 20
1947.053717373
 10
3116.9556455063
 20
1945.9936198493
 10
3116.8200210965
 20
1944.8989224223
 10
3117.0457203837
 20
1943.8091903092
 10
3117.6245860076
 20
1942.7638092679
 10
3118.5356962563
 20
1941.800562093
 10
3119.7461212316
 20
1940.9542630469
  0
LINE
  5
DC
330
1F
100
AcDbEntity
  8
0
  6
Continuous
 62
     7
370
    25
100
AcDbLine
 10
2540.2014033711
 20
1699.9147594198
 30
0.0
 11
2840.7217853754
 21
1526.4280356575
 31
0.0
  0
LINE
  5
DD
330
1F
100
AcDbEntity
  8
0
  6
Continuous
 62
     7
370
    25
100
AcDbLine
 10
2540.2014033711
 20
1920.380778629
 30
0.0
 11
2540.2014033711
 21
1699.9147594198
 31
0.0
  0
LINE
  5
DE
330
1F
100
AcDbEntity
  8
0
  6
Continuous
 62
     7
370
    25
100
AcDbLine
 10
2550.8080050889
 20
1706.0398107594
 30
0.0
 11
2830.1151836576
 21
1544.7992086744
 31
0.0
  0
LINE
  5
DF
330
1F
100
AcDbEntity
  8
0
  6
Continuous
 62
     7
370
    25
100
AcDbLine
 10
2830.1151836576
 20
1544.7992086744
 30
0.0
 11
2830.1151836576
 21
1740.769003527
 31
0.0
  0
LINE
  5
E0
330
1F
100
AcDbEntity
  8
0
  6
Continuous
 62
     7
370
    25
100
AcDbLine
 10
2830.1151836576
 20
1740.769003527
 30
0.0
 11
2550.8080050889
 21
1902.009605612
 31
0.0
  0
LINE
  5
E1
330
1F
100
AcDbEntity
  8
0
  6
Continuous
 62
     7
370
    25
100
AcDbLine
 10
2550.8080050889
 20
1902.009605612
 30
0.0
 11
2550.8080050889
 21
1706.0398107594
 31
0.0
  0
LINE
  5
E2
330
1F
100
AcDbEntity
  8
0
  6
Continuous
 62
     7
370
    25
100
AcDbLine
 10
2614.4476153957
 20
1700.3249539767
 30
0.0
 11
2830.1151836576
 21
1575.8227169237
 31
0.0
  0
LINE
  5
E3
330
1F
100
AcDbEntity
  8
0
  6
Continuous
 62
     7
370
    25
100
AcDbLine
 10
2614.4476153957
 20
1700.3249539767
 30
0.0
 11
2614.4476153957
 21
1865.27124058
 31
0.0
  0
LINE
  5
E4
330
1F
100
AcDbEntity
  8
0
  6
Continuous
 62
     7
370
    25
100
AcDbLine
 10
2625.0542171135
 20
1859.1481797413
 30
0.0
 11
2625.0542171135
 21
1771.7732702671
 31
0.0
  0
LINE
  5
E5
330
1F
100
AcDbEntity
  8
0
  6
Continuous
 62
     7
370
    25
100
AcDbLine
 10
2625.0542171135
 20
1771.7732702671
 30
0.0
 11
2830.1151836576
 21
1653.3940940528
 31
0.0
  0
LINE
  5
E6
330
1F
100
AcDbEntity
  8
0
  6
Continuous
 62
     7
370
    25
100
AcDbLine
 10
2635.6608188313
 20
1777.8963311058
 30
0.0
 11
2830.1151836576
 21
1665.6402157302
 31
0.0
  0
LINE
  5
E7
330
1F
100
AcDbEntity
  8
0
  6
Continuous
 62
     7
370
    25
100
AcDbLine
 10
2678.1493888222
 20
1828.4969895428
 30
0.0
 11
2635.6608188313
 21
1777.8963311058
 31
0.0
  0
LWPOLYLINE
  5
E8
330
1F
100
AcDbEntity
  8
0
  6
Continuous
 62
     7
370
    25
100
AcDbPolyline
 90
       13
 70
   128
 43
0.0
 10
2767.7785474041
 20
1731.4372429433
 10
2772.408713466
 20
1728.9605367936
 10
2777.2465230694
 20
1726.7558176831
 10
2782.2770228221
 20
1724.8299002722
 10
2787.4846637376
 20
1723.1887374613
 10
2792.8533492964
 20
1721.8374019905
 10
2798.3664851989
 20
1720.7800707604
 10
2804.0070306581
 20
1720.0200119212
 10
2809.7575510713
 20
1719.5595747712
 10
2815.6002719093
 20
1719.4001824953
 10
2821.5171336568
 20
1719.5423277657
 10
2827.4898476334
 20
1719.9855712198
 10
2830.1151836576
 20
1720.2737852196
  0
ARC
  5
E9
330
1F
100
AcDbEntity
  8
0
  6
Continuous
 62
     7
370
    25
100
AcDbCircle
 10
2803.7015102174
 20
1794.5756471084
 30
0.0
 40
72.64239353020575
100
AcDbArc
 50
177.3701820917
 51
240.3620358433
  0
LWPOLYLINE
  5
EA
330
1F
100
AcDbEntity
  8
0
  6
Continuous
 62
     7
370
    25
100
AcDbPolyline
 90
       17
 70
   128
 43
0.0
 10
2891.8749949675
 20
1745.5517889187
 10
2892.154512521
 20
1745.0256367172
 10
2892.7725609173
 20
1744.4523171959
 10
2893.5780172691
 20
1744.2035977743
 10
2894.5159910569
 20
1744.2964282697
 10
2895.5225609173
 20
1744.7244824374
 10
2896.5291307777
 20
1745.4585890932
 10
2897.4671045656
 20
1746.4487200818
 10
2898.2725609173
 20
1747.6273996124
 10
2898.8906093137
 20
1748.914302623
 10
2899.2791307777
 20
1750.2217288001
 10
2899.4116482139
 20
1751.4605792103
 10
2899.2791307777
 20
1752.5464282455
 10
2898.8906093137
 20
1753.4052770884
 10
2898.2725609173
 20
1753.9785966096
 10
2897.4671045656
 20
1754.2273160313
 10
2896.8711391616
 20
1754.2063022395
  0
LWPOLYLINE
  5
EB
330
1F
100
AcDbEntity
  8
0
  6
Continuous
 62
     7
370
    25
100
AcDbPolyline
 90
       17
 70
   128
 43
0.0
 10
2875.1349487113
 20
1791.8579471793
 10
2875.4500195173
 20
1792.3620258575
 10
2875.6374274727
 20
1793.1837976567
 10
2875.4500195173
 20
1794.0055694558
 10
2874.9005671935
 20
1794.7713388649
 10
2874.0265147693
 20
1795.4289199642
 10
2872.8874274727
 20
1795.9334996885
 10
2871.5609322208
 20
1796.2506917634
 10
2870.1374274727
 20
1796.3588800732
 10
2868.7139227247
 20
1796.2506917634
 10
2867.3874274727
 20
1795.9334996885
 10
2866.2483401762
 20
1795.4289199642
 10
2865.3742877519
 20
1794.7713388649
 10
2864.8248354281
 20
1794.0055694558
 10
2864.6374274727
 20
1793.1837976567
 10
2864.8248354281
 20
1792.3620258575
 10
2865.1399062342
 20
1791.8579471793
  0
ARC
  5
EC
330
1F
100
AcDbEntity
  8
0
  6
Continuous
 62
     7
370
    25
100
AcDbCircle
 10
2813.0177457632
 20
1787.0252010285
 30
0.0
 40
76.67353524114216
100
AcDbArc
 50
174.2697668331
 51
207.3784387767
  0
ARC
  5
ED
330
1F
100
AcDbEntity
  8
0
  6
Continuous
 62
     7
370
    25
100
AcDbCircle
 10
2816.8304791888
 20
1785.0673191559
 30
0.0
 40
61.54219312676283
100
AcDbArc
 50
181.0310631714
 51
240.4302600578
  0
ARC
  5
EE
330
1F
100
AcDbEntity
  8
0
  6
Continuous
 62
     7
370
    25
100
AcDbCircle
 10
2826.2871772924
 20
1803.5024237132
 30
0.0
 40
82.24757256121707
100
AcDbArc
 50
241.0379981583
 51
272.66765163
  0
LINE
  5
EF
330
1F
100
AcDbEntity
  8
0
  6
Continuous
 62
     7
370
    25
100
AcDbLine
 10
2635.6608188313
 20
1777.8963311058
 30
0.0
 11
2625.0542171135
 21
1771.7732702671
 31
0.0
  0
LINE
  5
F0
330
1F
100
AcDbEntity
  8
0
  6
Continuous
 62
     7
370
    25
100
AcDbLine
 10
2614.4476153957
 20
1742.7781757914
 30
0.0
 11
2550.8080050889
 21
1706.0398107594
 31
0.0
  0
LWPOLYLINE
  5
F1
330
1F
100
AcDbEntity
  8
0
  6
Continuous
 62
     7
370
    25
100
AcDbPolyline
 90
       17
 70
   128
 43
0.0
 10
2891.8749949674
 20
1591.0622673101
 10
2892.154512521
 20
1590.5361151084
 10
2892.7725609173
 20
1589.9627955872
 10
2893.5780172691
 20
1589.7140761655
 10
2894.5159910569
 20
1589.8069066609
 10
2895.5225609173
 20
1590.2349608286
 10
2896.5291307777
 20
1590.9690674845
 10
2897.4671045656
 20
1591.959198473
 10
2898.2725609173
 20
1593.1378780036
 10
2898.8906093137
 20
1594.4247810142
 10
2899.2791307777
 20
1595.7322071913
 10
2899.4116482139
 20
1596.9710576015
 10
2899.2791307777
 20
1598.0569066367
 10
2898.8906093137
 20
1598.9157554796
 10
2898.2725609173
 20
1599.4890750008
 10
2897.4671045656
 20
1599.7377944225
 10
2896.8711391615
 20
1599.7167806307
  0
ARC
  5
F2
330
1F
100
AcDbEntity
  8
0
  6
Continuous
 62
     7
370
    25
100
AcDbCircle
 10
2835.4479900309
 20
1540.4612385638
 30
0.0
 40
10.04999049786942
100
AcDbArc
 50
241.0865747113
 51
258.750608945
  0
LINE
  5
F3
330
1F
100
AcDbEntity
  8
0
  6
Continuous
 62
     7
370
    25
100
AcDbLine
 10
2830.588945201
 20
1531.6639666942
 30
0.0
 11
2814.4386263187
 21
1540.9873473312
 31
0.0
  0
ARC
  5
F4
330
1F
100
AcDbEntity
  8
0
  6
Continuous
 62
     7
370
    25
100
AcDbCircle
 10
2816.7418642476
 20
1545.3573520903
 30
0.0
 40
4.939822522358922
100
AcDbArc
 50
213.087445555
 51
242.2082511732
  0
LWPOLYLINE
  5
F5
330
1F
100
AcDbEntity
  8
0
  6
Continuous
 62
     7
370
    25
100
AcDbPolyline
 90
       17
 70
   128
 43
0.0
 10
3148.5547565382
 20
1893.7298612145
 10
3148.8342740917
 20
1893.203709013
 10
3149.452322488
 20
1892.6303894918
 10
3150.2577788398
 20
1892.3816700701
 10
3151.1957526276
 20
1892.4745005655
 10
3152.202322488
 20
1892.9025547332
 10
3153.2088923485
 20
1893.6366613891
 10
3154.1468661363
 20
1894.6267923776
 10
3154.952322488
 20
1895.8054719082
 10
3155.5703708844
 20
1897.0923749188
 10
3155.9588923484
 20
1898.3998010959
 10
3156.0914097846
 20
1899.6386515061
 10
3155.9588923484
 20
1900.7245005413
 10
3155.5703708844
 20
1901.5833493842
 10
3154.952322488
 20
1902.1566689054
 10
3154.1468661363
 20
1902.4053883271
 10
3153.5509007324
 20
1902.3843745353
  0
LWPOLYLINE
  5
F6
330
1F
100
AcDbEntity
  8
0
  6
Continuous
 62
     7
370
    25
100
AcDbPolyline
 90
       17
 70
   128
 43
0.0
 10
3131.8147102818
 20
1940.0360194749
 10
3132.129781088
 20
1940.5400981534
 10
3132.3171890434
 20
1941.3618699525
 10
3132.129781088
 20
1942.1836417517
 10
3131.5803287643
 20
1942.9494111607
 10
3130.70627634
 20
1943.60699226
 10
3129.5671890434
 20
1944.1115719843
 10
3128.2406937915
 20
1944.4287640592
 10
3126.8171890434
 20
1944.536952369
 10
3125.3936842954
 20
1944.4287640592
 10
3124.0671890434
 20
1944.1115719843
 10
3122.9281017469
 20
1943.60699226
 10
3122.0540493226
 20
1942.9494111607
 10
3121.5045969989
 20
1942.1836417517
 10
3121.3171890434
 20
1941.3618699525
 10
3121.5045969989
 20
1940.5400981534
 10
3121.8196678051
 20
1940.0360194749
  0
ARC
  5
F7
330
1F
100
AcDbEntity
  8
0
  6
Continuous
 62
     7
370
    25
100
AcDbCircle
 10
2584.4250827097
 20
1685.3736784123
 30
0.0
 40
10.04999049787748
100
AcDbArc
 50
241.0865747113
 51
258.750608945
  0
LWPOLYLINE
  5
F8
330
1F
100
AcDbEntity
  8
0
  6
Continuous
 62
     7
370
    25
100
AcDbPolyline
 90
       17
 70
   128
 43
0.0
 10
3148.554756538
 20
1739.2403396062
 10
3148.8342740917
 20
1738.7141874042
 10
3149.452322488
 20
1738.140867883
 10
3150.2577788398
 20
1737.8921484613
 10
3151.1957526276
 20
1737.9849789567
 10
3152.202322488
 20
1738.4130331244
 10
3153.2088923485
 20
1739.1471397803
 10
3154.1468661363
 20
1740.1372707688
 10
3154.952322488
 20
1741.3159502994
 10
3155.5703708844
 20
1742.60285331
 10
3155.9588923485
 20
1743.9102794871
 10
3156.0914097846
 20
1745.1491298973
 10
3155.9588923484
 20
1746.2349789325
 10
3155.5703708844
 20
1747.0938277754
 10
3154.952322488
 20
1747.6671472966
 10
3154.1468661363
 20
1747.9158667183
 10
3153.550900732
 20
1747.8948529265
  0
LINE
  5
F9
330
1F
100
AcDbEntity
  8
0
  6
Continuous
 62
     7
370
    25
100
AcDbLine
 10
2579.5660378797
 20
1676.5764065427
 30
0.0
 11
2563.4157189974
 21
1685.8997871797
 31
0.0
  0
ARC
  5
FA
330
1F
100
AcDbEntity
  8
0
  6
Continuous
 62
     7
370
    25
100
AcDbCircle
 10
2565.7189569264
 20
1690.2697919389
 30
0.0
 40
4.939822522337328
100
AcDbArc
 50
213.087445555
 51
242.2082511733
  0
LINE
  5
FB
330
1F
100
AcDbEntity
  8
0
  6
Continuous
 62
     7
370
    25
100
AcDbLine
 10
2830.588945201
 20
1531.6639666942
 30
0.0
 11
2830.588945201
 21
1532.2775997787
 31
0.0
  0
LINE
  5
FC
330
1F
100
AcDbEntity
  8
0
  6
Continuous
 62
     7
370
    25
100
AcDbLine
 10
2814.4386263187
 20
1540.9873473312
 30
0.0
 11
2814.4386263187
 21
1541.6009804157
 31
0.0
  0
LINE
  5
FD
330
1F
100
AcDbEntity
  8
0
  6
Continuous
 62
     7
370
    25
100
AcDbLine
 10
2579.5660378797
 20
1676.5764065427
 30
0.0
 11
2579.5660378797
 21
1677.1900396272
 31
0.0
  0
LINE
  5
FE
330
1F
100
AcDbEntity
  8
0
  6
Continuous
 62
     7
370
    25
100
AcDbLine
 10
2563.4157189974
 20
1685.8997871797
 30
0.0
 11
2563.4157189974
 21
1686.5134202642
 31
0.0
  0
LINE
  5
FF
330
1F
100
AcDbEntity
  8
0
  6
Continuous
 62
     7
370
    25
100
AcDbLine
 10
1575.960117891
 20
1020.016158454
 30
0.0
 11
1575.960117891
 21
1290.016158454
 31
0.0
  0
LINE
  5
100
330
1F
100
AcDbEntity
  8
0
  6
Continuous
 62
     7
370
    25
100
AcDbLine
 10
1150.960117891
 20
1020.016158454
 30
0.0
 11
1575.960117891
 21
1020.016158454
 31
0.0
  0
LINE
  5
101
330
1F
100
AcDbEntity
  8
0
  6
Continuous
 62
     7
370
    25
100
AcDbLine
 10
1150.960117891
 20
1290.016158454
 30
0.0
 11
1150.960117891
 21
1020.016158454
 31
0.0
  0
LINE
  5
102
330
1F
100
AcDbEntity
  8
0
  6
Continuous
 62
     7
370
    25
100
AcDbLine
 10
1575.960117891
 20
1290.016158454
 30
0.0
 11
1150.960117891
 21
1290.016158454
 31
0.0
  0
LINE
  5
103
330
1F
100
AcDbEntity
  8
0
  6
Continuous
 62
     7
370
    25
100
AcDbLine
 10
1165.960117891
 20
1035.016158454
 30
0.0
 11
1560.960117891
 21
1035.016158454
 31
0.0
  0
LINE
  5
104
330
1F
100
AcDbEntity
  8
0
  6
Continuous
 62
     7
370
    25
100
AcDbLine
 10
1560.960117891
 20
1035.016158454
 30
0.0
 11
1560.960117891
 21
1275.016158454
 31
0.0
  0
LINE
  5
105
330
1F
100
AcDbEntity
  8
0
  6
Continuous
 62
     7
370
    25
100
AcDbLine
 10
1560.960117891
 20
1275.016158454
 30
0.0
 11
1165.960117891
 21
1275.016158454
 31
0.0
  0
LINE
  5
106
330
1F
100
AcDbEntity
  8
0
  6
Continuous
 62
     7
370
    25
100
AcDbLine
 10
1165.960117891
 20
1275.016158454
 30
0.0
 11
1165.960117891
 21
1035.016158454
 31
0.0
  0
LINE
  5
107
330
1F
100
AcDbEntity
  8
0
  6
Continuous
 62
     7
370
    25
100
AcDbLine
 10
1560.210117891
 20
1010.016158454
 30
0.0
 11
1560.210117891
 21
1020.016158454
 31
0.0
  0
LINE
  5
108
330
1F
100
AcDbEntity
  8
0
  6
Continuous
 62
     7
370
    25
100
AcDbLine
 10
1560.210117891
 20
1010.016158454
 30
0.0
 11
1552.380117891
 21
1010.016158454
 31
0.0
  0
LINE
  5
109
330
1F
100
AcDbEntity
  8
0
  6
Continuous
 62
     7
370
    25
100
AcDbLine
 10
1552.380117891
 20
1010.016158454
 30
0.0
 11
1529.540117891
 21
1010.016158454
 31
0.0
  0
LINE
  5
10A
330
1F
100
AcDbEntity
  8
0
  6
Continuous
 62
     7
370
    25
100
AcDbLine
 10
1174.540117891
 20
1010.016158454
 30
0.0
 11
1166.710117891
 21
1010.016158454
 31
0.0
  0
LINE
  5
10B
330
1F
100
AcDbEntity
  8
0
  6
Continuous
 62
     7
370
    25
100
AcDbLine
 10
1166.710117891
 20
1010.016158454
 30
0.0
 11
1166.710117891
 21
1020.016158454
 31
0.0
  0
LINE
  5
10C
330
1F
100
AcDbEntity
  8
0
  6
Continuous
 62
     7
370
    25
100
AcDbLine
 10
1197.380117891
 20
1010.016158454
 30
0.0
 11
1174.540117891
 21
1010.016158454
 31
0.0
  0
LINE
  5
10D
330
1F
100
AcDbEntity
  8
0
  6
Continuous
 62
     7
370
    25
100
AcDbLine
 10
1205.210117891
 20
1010.016158454
 30
0.0
 11
1205.210117891
 21
1020.016158454
 31
0.0
  0
LINE
  5
10E
330
1F
100
AcDbEntity
  8
0
  6
Continuous
 62
     7
370
    25
100
AcDbLine
 10
1205.210117891
 20
1010.016158454
 30
0.0
 11
1197.380117891
 21
1010.016158454
 31
0.0
  0
LINE
  5
10F
330
1F
100
AcDbEntity
  8
0
  6
Continuous
 62
     7
370
    25
100
AcDbLine
 10
1521.710117891
 20
1010.016158454
 30
0.0
 11
1521.710117891
 21
1020.016158454
 31
0.0
  0
LINE
  5
110
330
1F
100
AcDbEntity
  8
0
  6
Continuous
 62
     7
370
    25
100
AcDbLine
 10
1529.540117891
 20
1010.016158454
 30
0.0
 11
1521.710117891
 21
1010.016158454
 31
0.0
  0
LINE
  5
111
330
1F
100
AcDbEntity
  8
0
  6
Continuous
 62
     7
370
    25
100
AcDbLine
 10
1217.960117891
 20
1035.016158454
 30
0.0
 11
1217.960117891
 21
1275.016158454
 31
0.0
  0
LINE
  5
112
330
1F
100
AcDbEntity
  8
0
  6
Continuous
 62
     7
370
    25
100
AcDbLine
 10
1232.960117891
 20
1275.016158454
 30
0.0
 11
1232.960117891
 21
1130.016158454
 31
0.0
  0
LINE
  5
113
330
1F
100
AcDbEntity
  8
0
  6
Continuous
 62
     7
370
    25
100
AcDbLine
 10
1232.960117891
 20
1130.016158454
 30
0.0
 11
1560.960117891
 21
1130.016158454
 31
0.0
  0
LWPOLYLINE
  5
114
330
1F
100
AcDbEntity
  8
0
  6
Continuous
 62
     7
370
    25
100
AcDbPolyline
 90
      114
 70
   128
 43
0.0
 10
1395.960117891
 20
1142.6860613666
 10
1402.3512155617
 20
1142.7694618025
 10
1408.7225587157
 20
1143.0194053243
 10
1415.0544538965
 20
1143.4351193708
 10
1421.3273295789
 20
1144.0153189938
 10
1427.5217966638
 20
1144.7582108295
 10
1433.6187084083
 20
1145.6614986418
 10
1439.5992196077
 20
1146.7223904197
 10
1445.4448448445
 20
1147.9376070078
 10
1451.1375156261
 20
1149.303392241
 10
1456.6596362335
 20
1150.8155245555
 10
1461.9941381081
 20
1152.4693300371
 10
1467.1245326106
 20
1154.2596968676
 10
1472.0349619854
 20
1156.1810911259
 10
1476.7102483768
 20
1158.2275738924
 10
1481.1359407424
 20
1160.3928196062
 10
1485.2983595209
 20
1162.6701356168
 10
1489.1846389143
 20
1165.052482871
 10
1492.7827666556
 20
1167.5324976699
 10
1496.0816211383
 20
1170.1025144299
 10
1499.0710057922
 20
1172.7545893765
 10
1501.7416806006
 20
1175.480525098
 10
1504.0853906608
 20
1178.2718958833
 10
1506.0948916992
 20
1181.1200737653
 10
1507.7639724634
 20
1184.0162551893
 10
1509.0874739204
 20
1186.9514882246
 10
1510.0613052029
 20
1189.9167002341
 10
1510.6824562543
 20
1192.9027259173
 10
1510.9490071322
 20
1195.90033564
 10
1510.8601339433
 20
1198.9002639624
 10
1510.4161113895
 20
1201.8932382779
 10
1509.6183119189
 20
1204.8700074744
 10
1508.469201484
 20
1207.8213705289
 10
1506.9723319195
 20
1210.7382049474
 10
1505.1323299632
 20
1213.6114949618
 10
1502.9548829558
 20
1216.4323593973
 10
1500.4467212612
 20
1219.1920791237
 10
1497.6155974634
 20
1221.8821240055
 10
1494.470262404
 20
1224.4941792679
 10
1491.0204381332
 20
1227.020171198
 10
1487.2767878603
 20
1229.4522920995
 10
1483.2508829936
 20
1231.7830244259
 10
1478.9551673745
 20
1234.0051640173
 10
1474.4029188136
 20
1236.1118423675
 10
1469.6082080505
 20
1238.0965478545
 10
1464.5858552612
 20
1239.9531458673
 10
1459.3513842506
 20
1241.6758977679
 10
1453.9209744684
 20
1243.2594786289
 10
1448.3114110002
 20
1244.6989936926
 10
1442.5400326851
 20
1245.9899935004
 10
1436.6246785227
 20
1247.1284876459
 10
1430.5836325338
 20
1248.110957109
 10
1424.4355672454
 20
1248.9343651328
 10
1418.1994859748
 20
1249.5961666104
 10
1411.894664092
 20
1250.0943159512
 10
1405.5405894401
 20
1250.4272734043
 10
1399.1569020996
 20
1250.5940098172
 10
1392.7633336824
 20
1250.5940098172
 10
1386.3796463419
 20
1250.4272734043
 10
1380.02557169
 20
1250.0943159512
 10
1373.7207498072
 20
1249.5961666104
 10
1367.4846685367
 20
1248.9343651328
 10
1361.3366032482
 20
1248.110957109
 10
1355.2955572593
 20
1247.1284876459
 10
1349.380203097
 20
1245.9899935004
 10
1343.6088247819
 20
1244.6989936926
 10
1337.9992613136
 20
1243.2594786289
 10
1332.5688515314
 20
1241.6758977679
 10
1327.3343805208
 20
1239.9531458673
 10
1322.3120277316
 20
1238.0965478545
 10
1317.5173169684
 20
1236.1118423675
 10
1312.9650684075
 20
1234.0051640173
 10
1308.6693527884
 20
1231.7830244259
 10
1304.6434479217
 20
1229.4522920995
 10
1300.8997976488
 20
1227.020171198
 10
1297.449973378
 20
1224.4941792679
 10
1294.3046383186
 20
1221.8821240055
 10
1291.4735145209
 20
1219.1920791237
 10
1288.9653528263
 20
1216.4323593973
 10
1286.7879058189
 20
1213.6114949618
 10
1284.9479038626
 20
1210.7382049474
 10
1283.451034298
 20
1207.8213705289
 10
1282.3019238631
 20
1204.8700074744
 10
1281.5041243926
 20
1201.8932382779
 10
1281.0601018387
 20
1198.9002639624
 10
1280.9712286498
 20
1195.90033564
 10
1281.2377795278
 20
1192.9027259173
 10
1281.8589305792
 20
1189.9167002341
 10
1282.8327618617
 20
1186.9514882246
 10
1284.1562633186
 20
1184.0162551893
 10
1285.8253440828
 20
1181.1200737653
 10
1287.8348451212
 20
1178.2718958833
 10
1290.1785551814
 20
1175.480525098
 10
1292.8492299899
 20
1172.7545893765
 10
1295.8386146437
 20
1170.1025144299
 10
1299.1374691264
 20
1167.5324976699
 10
1302.7355968678
 20
1165.052482871
 10
1306.6218762611
 20
1162.6701356168
 10
1310.7842950396
 20
1160.3928196062
 10
1315.2099874052
 20
1158.2275738924
 10
1319.8852737966
 20
1156.1810911259
 10
1324.7957031714
 20
1154.2596968676
 10
1329.9260976739
 20
1152.4693300371
 10
1335.2605995486
 20
1150.8155245555
 10
1340.7827201559
 20
1149.303392241
 10
1346.4753909375
 20
1147.9376070078
 10
1352.3210161743
 20
1146.7223904197
 10
1358.3015273737
 20
1145.6614986418
 10
1364.3984391182
 20
1144.7582108295
 10
1370.5929062031
 20
1144.0153189938
 10
1376.8657818855
 20
1143.4351193708
 10
1383.1976770664
 20
1143.0194053243
 10
1389.5690202204
 20
1142.7694618025
 10
1395.960117891
 20
1142.6860613666
  0
LWPOLYLINE
  5
115
330
1F
100
AcDbEntity
  8
0
  6
Continuous
 62
     7
370
    25
100
AcDbPolyline
 90
       54
 70
   128
 43
0.0
 10
1281.941429469
 20
1189.615716262
 10
1282.3019238631
 20
1190.8005146762
 10
1283.451034298
 20
1193.7518777307
 10
1284.9479038626
 20
1196.6687121492
 10
1286.7879058189
 20
1199.5420021636
 10
1288.9653528263
 20
1202.3628665991
 10
1291.4735145209
 20
1205.1225863255
 10
1294.3046383186
 20
1207.8126312073
 10
1297.449973378
 20
1210.4246864697
 10
1300.8997976488
 20
1212.9506783998
 10
1304.6434479217
 20
1215.3827993013
 10
1308.6693527884
 20
1217.7135316277
 10
1312.9650684075
 20
1219.9356712191
 10
1317.5173169684
 20
1222.0423495693
 10
1322.3120277316
 20
1224.0270550563
 10
1327.3343805208
 20
1225.8836530691
 10
1332.5688515314
 20
1227.6064049697
 10
1337.9992613136
 20
1229.1899858307
 10
1343.6088247819
 20
1230.6295008944
 10
1349.380203097
 20
1231.9205007022
 10
1355.2955572593
 20
1233.0589948477
 10
1361.3366032482
 20
1234.0414643108
 10
1367.4846685367
 20
1234.8648723346
 10
1373.7207498072
 20
1235.5266738122
 10
1380.02557169
 20
1236.024823153
 10
1386.3796463419
 20
1236.3577806061
 10
1392.7633336824
 20
1236.524517019
 10
1399.1569020996
 20
1236.524517019
 10
1405.5405894401
 20
1236.3577806061
 10
1411.894664092
 20
1236.024823153
 10
1418.1994859748
 20
1235.5266738122
 10
1424.4355672454
 20
1234.8648723346
 10
1430.5836325338
 20
1234.0414643108
 10
1436.6246785227
 20
1233.0589948477
 10
1442.5400326851
 20
1231.9205007022
 10
1448.3114110002
 20
1230.6295008944
 10
1453.9209744684
 20
1229.1899858307
 10
1459.3513842506
 20
1227.6064049697
 10
1464.5858552612
 20
1225.8836530691
 10
1469.6082080505
 20
1224.0270550563
 10
1474.4029188136
 20
1222.0423495693
 10
1478.9551673745
 20
1219.9356712191
 10
1483.2508829936
 20
1217.7135316277
 10
1487.2767878603
 20
1215.3827993013
 10
1491.0204381332
 20
1212.9506783998
 10
1494.470262404
 20
1210.4246864697
 10
1497.6155974634
 20
1207.8126312073
 10
1500.4467212612
 20
1205.1225863255
 10
1502.9548829558
 20
1202.3628665991
 10
1505.1323299632
 20
1199.5420021636
 10
1506.9723319195
 20
1196.6687121492
 10
1508.469201484
 20
1193.7518777307
 10
1509.6183119189
 20
1190.8005146762
 10
1509.978806313
 20
1189.615716262
  0
LWPOLYLINE
  5
116
330
1F
100
AcDbEntity
  8
0
  6
Continuous
 62
     7
370
    25
100
AcDbPolyline
 90
       60
 70
   128
 43
0.0
 10
1299.8332012872
 20
1167.0292554059
 10
1299.037530178
 20
1169.3406914819
 10
1298.4258369123
 20
1172.0716996899
 10
1298.1632910589
 20
1174.8149859635
 10
1298.2508324639
 20
1177.56073005
 10
1298.6881477516
 20
1180.2991028981
 10
1299.4736714469
 20
1183.0203018437
 10
1300.6045915788
 20
1185.7145857009
 10
1302.0768597468
 20
1188.3723096326
 10
1303.8852056129
 20
1190.9839596771
 10
1306.0231557683
 20
1193.5401868049
 10
1308.4830569062
 20
1196.0318403864
 10
1311.256103219
 20
1198.4500009483
 10
1314.3323679207
 20
1200.7860121036
 10
1317.700838782
 20
1203.0315115385
 10
1321.3494575514
 20
1205.1784609479
 10
1325.2651631207
 20
1207.21917481
 10
1329.4339382803
 20
1209.146347899
 10
1333.8408598969
 20
1210.9530814352
 10
1338.470152335
 20
1212.6329077816
 10
1343.3052439292
 20
1214.1798135958
 10
1348.3288263063
 20
1215.5882613564
 10
1353.5229163452
 20
1216.8532091861
 10
1358.8689205518
 20
1217.9701288999
 10
1364.3477016183
 20
1218.9350222151
 10
1369.9396469306
 20
1219.744435064
 10
1375.6247387756
 20
1220.3954699588
 10
1381.3826260002
 20
1220.8857963634
 10
1387.1926968623
 20
1221.2136590366
 10
1393.0341528162
 20
1221.3778843152
 10
1398.8860829658
 20
1221.3778843152
 10
1404.7275389197
 20
1221.2136590366
 10
1410.5376097819
 20
1220.8857963634
 10
1416.2954970064
 20
1220.3954699588
 10
1421.9805888514
 20
1219.744435064
 10
1427.5725341637
 20
1218.9350222151
 10
1433.0513152302
 20
1217.9701288999
 10
1438.3973194368
 20
1216.8532091861
 10
1443.5914094758
 20
1215.5882613564
 10
1448.6149918529
 20
1214.1798135958
 10
1453.450083447
 20
1212.6329077816
 10
1458.0793758851
 20
1210.9530814352
 10
1462.4862975018
 20
1209.146347899
 10
1466.6550726613
 20
1207.21917481
 10
1470.5707782307
 20
1205.1784609479
 10
1474.2193970001
 20
1203.0315115385
 10
1477.5878678613
 20
1200.7860121036
 10
1480.664132563
 20
1198.4500009483
 10
1483.4371788759
 20
1196.0318403864
 10
1485.8970800138
 20
1193.5401868049
 10
1488.0350301691
 20
1190.9839596771
 10
1489.8433760352
 20
1188.3723096326
 10
1491.3156442032
 20
1185.7145857009
 10
1492.4465643351
 20
1183.0203018437
 10
1493.2320880304
 20
1180.2991028981
 10
1493.6694033182
 20
1177.56073005
 10
1493.7569447231
 20
1174.8149859635
 10
1493.4943988697
 20
1172.0716996899
 10
1492.882705604
 20
1169.3406914819
 10
1492.0870344948
 20
1167.0292554059
  0
LWPOLYLINE
  5
117
330
1F
100
AcDbEntity
  8
0
  6
Continuous
 62
     7
370
    25
100
AcDbPolyline
 90
       32
 70
   128
 43
0.0
 10
1442.7569603978
 20
1147.3561535265
 10
1441.6895180874
 20
1149.0777517024
 10
1440.205424464
 20
1150.8958828362
 10
1438.3937540709
 20
1152.6474160184
 10
1436.2679198817
 20
1154.3193835101
 10
1433.843660829
 20
1155.899406649
 10
1431.1389252787
 20
1157.3757874965
 10
1428.1737381465
 20
1158.7375954454
 10
1424.9700526404
 20
1159.9747481461
 10
1421.5515877272
 20
1161.0780861529
 10
1417.9436525249
 20
1162.0394407371
 10
1414.1729589236
 20
1162.8516943658
 10
1410.2674238194
 20
1163.5088333973
 10
1406.2559624278
 20
1164.0059926041
 10
1402.1682742054
 20
1164.3394911934
 10
1398.0346229657
 20
1164.5068600584
 10
1393.8856128163
 20
1164.5068600584
 10
1389.7519615766
 20
1164.3394911934
 10
1385.6642733542
 20
1164.0059926041
 10
1381.6528119626
 20
1163.5088333973
 10
1377.7472768584
 20
1162.8516943658
 10
1373.9765832571
 20
1162.0394407371
 10
1370.3686480549
 20
1161.0780861529
 10
1366.9501831416
 20
1159.9747481461
 10
1363.7464976356
 20
1158.7375954454
 10
1360.7813105033
 20
1157.3757874965
 10
1358.076574953
 20
1155.899406649
 10
1355.6523159003
 20
1154.3193835101
 10
1353.5264817111
 20
1152.6474160184
 10
1351.714811318
 20
1150.8958828362
 10
1350.2307176946
 20
1149.0777517024
 10
1349.1632753842
 20
1147.3561535265
  0
LWPOLYLINE
  5
118
330
1F
100
AcDbEntity
  8
0
  6
Continuous
 62
     7
370
    25
100
AcDbPolyline
 90
       16
 70
   128
 43
0.0
 10
1395.960117891
 20
1162.5478458589
 10
1399.9042474828
 20
1162.4647261038
 10
1403.8166212622
 20
1162.2160360701
 10
1407.6657390959
 20
1161.8037780636
 10
1411.4206101506
 20
1161.2312713433
 10
1415.0510024122
 20
1160.5031253968
 10
1418.5276860969
 20
1159.6252028271
 10
1421.8226689919
 20
1158.6045721505
 10
1424.9094218324
 20
1157.4494508851
 10
1427.7630918994
 20
1156.1691393881
 10
1430.3607031196
 20
1154.7739459749
 10
1432.6813410548
 20
1153.2751039225
 10
1434.7063212927
 20
1151.6846810258
 10
1436.4193398833
 20
1150.0154824348
 10
1437.806604608
 20
1148.2809475551
 10
1438.8183578171
 20
1146.5736685474
  0
LWPOLYLINE
  5
119
330
1F
100
AcDbEntity
  8
0
  6
Continuous
 62
     7
370
    25
100
AcDbPolyline
 90
       16
 70
   128
 43
0.0
 10
1353.101877965
 20
1146.5736685474
 10
1354.113631174
 20
1148.2809475551
 10
1355.5008958987
 20
1150.0154824348
 10
1357.2139144893
 20
1151.6846810258
 10
1359.2388947273
 20
1153.2751039225
 10
1361.5595326624
 20
1154.7739459749
 10
1364.1571438826
 20
1156.1691393881
 10
1367.0108139497
 20
1157.4494508851
 10
1370.0975667901
 20
1158.6045721505
 10
1373.3925496852
 20
1159.6252028271
 10
1376.8692333698
 20
1160.5031253968
 10
1380.4996256314
 20
1161.2312713433
 10
1384.2544966861
 20
1161.8037780636
 10
1388.1036145199
 20
1162.2160360701
 10
1392.0159882993
 20
1162.4647261038
 10
1395.960117891
 20
1162.5478458589
  0
LINE
  5
11A
330
1F
100
AcDbEntity
  8
0
  6
Continuous
 62
     7
370
    25
100
AcDbLine
 10
1552.380117891
 20
1010.016158454
 30
0.0
 11
1552.380117891
 21
1020.016158454
 31
0.0
  0
LINE
  5
11B
330
1F
100
AcDbEntity
  8
0
  6
Continuous
 62
     7
370
    25
100
AcDbLine
 10
1529.540117891
 20
1010.016158454
 30
0.0
 11
1529.540117891
 21
1020.016158454
 31
0.0
  0
LINE
  5
11C
330
1F
100
AcDbEntity
  8
0
  6
Continuous
 62
     7
370
    25
100
AcDbLine
 10
1174.540117891
 20
1010.016158454
 30
0.0
 11
1174.540117891
 21
1020.016158454
 31
0.0
  0
LINE
  5
11D
330
1F
100
AcDbEntity
  8
0
  6
Continuous
 62
     7
370
    25
100
AcDbLine
 10
1197.380117891
 20
1010.016158454
 30
0.0
 11
1197.380117891
 21
1020.016158454
 31
0.0
  0
LINE
  5
11E
330
1F
100
AcDbEntity
  8
SLD-0
100
AcDbLine
 10
1375.380117891
 20
1129.4400718898
 30
0.0
 11
1375.380117891
 21
1135.0922450182
 31
0.0
  0
LINE
  5
11F
330
1F
100
AcDbEntity
  8
SLD-0
100
AcDbLine
 10
1372.5540313268
 20
1132.266158454
 30
0.0
 11
1378.2062044552
 21
1132.266158454
 31
0.0
  0
DIMENSION
  5
120
330
1F
100
AcDbEntity
  8
SLD-0
100
AcDbDimension
  2
_D
 10
1375.380117891
 20
939.0365045607
 30
0.0
 11
1263.170117891
 21
939.0365045607
 31
0.0
 70
   160
  1
<>
 71
     2
 42
-1.0
  3
SLDDIMSTYLE0
100
AcDbAlignedDimension
 13
1150.960117891
 23
1020.016158454
 33
0.0
 14
1375.380117891
 24
1129.4400718898
 34
0.0
100
AcDbRotatedDimension
  0
DIMENSION
  5
135
330
1F
100
AcDbEntity
  8
SLD-0
100
AcDbDimension
  2
_D_1
 10
1575.960117891
 20
1418.016158454
 30
0.0
 11
1363.460117891
 21
1418.016158454
 31
0.0
 70
   160
  1
<>
 71
     2
 42
-1.0
  3
SLDDIMSTYLE1
100
AcDbAlignedDimension
 13
1150.960117891
 23
1290.016158454
 33
0.0
 14
1575.960117891
 24
1290.016158454
 34
0.0
100
AcDbRotatedDimension
  0
INSERT
  5
14F
330
1F
100
AcDbEntity
  8
SLD-0
100
AcDbBlockReference
  2
SW_SYMBOL_MOD_CL
 10
1351.5549876643
 20
1333.1648864373
 30
0.0
 41
0.0030416748
 42
0.0030416748
 43
0.0030416748
  0
INSERT
  5
150
330
1F
100
AcDbEntity
  8
SLD-0
100
AcDbBlockReference
  2
SW_SYMBOL_MOD_COM
 10
1360.241094412
 20
1119.7786162889
 30
0.0
 41
0.0030416748
 42
0.0030416748
 43
0.0030416748
  0
LINE
  5
151
330
1F
100
AcDbEntity
  8
SLD-0
  6
CENTERX2
370
    18
100
AcDbLine
 10
1363.460117891
 20
1004.016158454
 30
0.0
 11
1363.460117891
 21
1319.298013631
 31
0.0
  0
LINE
  5
152
330
1F
100
AcDbEntity
  8
0
  6
Continuous
 62
     7
370
    25
100
AcDbLine
 10
1963.4533678496
 20
1020.016158454
 30
0.0
 11
2483.4533678496
 21
1020.016158454
 31
0.0
  0
LINE
  5
153
330
1F
100
AcDbEntity
  8
0
  6
Continuous
 62
     7
370
    25
100
AcDbLine
 10
1963.4533678496
 20
1020.016158454
 30
0.0
 11
1963.4533678496
 21
1290.016158454
 31
0.0
  0
LINE
  5
154
330
1F
100
AcDbEntity
  8
0
  6
Continuous
 62
     7
370
    25
100
AcDbLine
 10
1963.4533678496
 20
1290.016158454
 30
0.0
 11
2483.4533678496
 21
1290.016158454
 31
0.0
  0
LINE
  5
155
330
1F
100
AcDbEntity
  8
0
  6
Continuous
 62
     7
370
    25
100
AcDbLine
 10
2483.4533678496
 20
1020.016158454
 30
0.0
 11
2483.4533678496
 21
1290.016158454
 31
0.0
  0
CIRCLE
  5
156
330
1F
100
AcDbEntity
  8
0
  6
Continuous
 62
     7
370
    25
100
AcDbCircle
 10
2045.4533678496
 20
1249.616158454
 30
0.0
 40
10.00000000000023
  0
CIRCLE
  5
157
330
1F
100
AcDbEntity
  8
0
  6
Continuous
 62
     7
370
    25
100
AcDbCircle
 10
2408.4533678496
 20
1060.416158454
 30
0.0
 40
10.0
  0
CIRCLE
  5
158
330
1F
100
AcDbEntity
  8
0
  6
Continuous
 62
     7
370
    25
100
AcDbCircle
 10
2045.4533678496
 20
1060.416158454
 30
0.0
 40
10.0
  0
CIRCLE
  5
159
330
1F
100
AcDbEntity
  8
0
  6
Continuous
 62
     7
370
    25
100
AcDbCircle
 10
2408.4533678496
 20
1249.616158454
 30
0.0
 40
10.00000000000023
  0
CIRCLE
  5
15A
330
1F
100
AcDbEntity
  8
0
  6
Continuous
 62
     7
370
    25
100
AcDbCircle
 10
2408.4533678496
 20
1249.616158454
 30
0.0
 40
5.5
  0
CIRCLE
  5
15B
330
1F
100
AcDbEntity
  8
0
  6
Continuous
 62
     7
370
    25
100
AcDbCircle
 10
2408.4533678496
 20
1060.416158454
 30
0.0
 40
5.499999999999773
  0
CIRCLE
  5
15C
330
1F
100
AcDbEntity
  8
0
  6
Continuous
 62
     7
370
    25
100
AcDbCircle
 10
2045.4533678496
 20
1249.616158454
 30
0.0
 40
5.5
  0
CIRCLE
  5
15D
330
1F
100
AcDbEntity
  8
0
  6
Continuous
 62
     7
370
    25
100
AcDbCircle
 10
2045.4533678496
 20
1060.416158454
 30
0.0
 40
5.499999999999773
  0
LINE
  5
15E
330
1F
100
AcDbEntity
  8
0
  6
Continuous
 62
     7
370
    25
100
AcDbLine
 10
2465.2033678496
 20
1010.016158454
 30
0.0
 11
2465.2033678496
 21
1020.016158454
 31
0.0
  0
LINE
  5
15F
330
1F
100
AcDbEntity
  8
0
  6
Continuous
 62
     7
370
    25
100
AcDbLine
 10
2465.2033678496
 20
1010.016158454
 30
0.0
 11
2457.3733678496
 21
1010.016158454
 31
0.0
  0
LINE
  5
160
330
1F
100
AcDbEntity
  8
0
  6
Continuous
 62
     7
370
    25
100
AcDbLine
 10
2457.3733678496
 20
1010.016158454
 30
0.0
 11
2434.5333678496
 21
1010.016158454
 31
0.0
  0
LINE
  5
161
330
1F
100
AcDbEntity
  8
0
  6
Continuous
 62
     7
370
    25
100
AcDbLine
 10
2426.7033678496
 20
1010.016158454
 30
0.0
 11
2426.7033678496
 21
1020.016158454
 31
0.0
  0
LINE
  5
162
330
1F
100
AcDbEntity
  8
0
  6
Continuous
 62
     7
370
    25
100
AcDbLine
 10
2434.5333678496
 20
1010.016158454
 30
0.0
 11
2426.7033678496
 21
1010.016158454
 31
0.0
  0
LINE
  5
163
330
1F
100
AcDbEntity
  8
0
  6
Continuous
 62
     7
370
    25
100
AcDbLine
 10
2011.2033678496
 20
1010.016158454
 30
0.0
 11
2011.2033678496
 21
1020.016158454
 31
0.0
  0
LINE
  5
164
330
1F
100
AcDbEntity
  8
0
  6
Continuous
 62
     7
370
    25
100
AcDbLine
 10
2011.2033678496
 20
1010.016158454
 30
0.0
 11
2003.3733678496
 21
1010.016158454
 31
0.0
  0
LINE
  5
165
330
1F
100
AcDbEntity
  8
0
  6
Continuous
 62
     7
370
    25
100
AcDbLine
 10
2003.3733678496
 20
1010.016158454
 30
0.0
 11
1980.5333678496
 21
1010.016158454
 31
0.0
  0
LINE
  5
166
330
1F
100
AcDbEntity
  8
0
  6
Continuous
 62
     7
370
    25
100
AcDbLine
 10
1972.7033678496
 20
1010.016158454
 30
0.0
 11
1972.7033678496
 21
1020.016158454
 31
0.0
  0
LINE
  5
167
330
1F
100
AcDbEntity
  8
0
  6
Continuous
 62
     7
370
    25
100
AcDbLine
 10
1980.5333678496
 20
1010.016158454
 30
0.0
 11
1972.7033678496
 21
1010.016158454
 31
0.0
  0
LINE
  5
168
330
1F
100
AcDbEntity
  8
0
  6
Continuous
 62
     7
370
    25
100
AcDbLine
 10
2457.3733678496
 20
1010.016158454
 30
0.0
 11
2457.3733678496
 21
1020.016158454
 31
0.0
  0
LINE
  5
169
330
1F
100
AcDbEntity
  8
0
  6
Continuous
 62
     7
370
    25
100
AcDbLine
 10
2434.5333678496
 20
1010.016158454
 30
0.0
 11
2434.5333678496
 21
1020.016158454
 31
0.0
  0
LINE
  5
16A
330
1F
100
AcDbEntity
  8
0
  6
Continuous
 62
     7
370
    25
100
AcDbLine
 10
2003.3733678496
 20
1010.016158454
 30
0.0
 11
2003.3733678496
 21
1020.016158454
 31
0.0
  0
LINE
  5
16B
330
1F
100
AcDbEntity
  8
0
  6
Continuous
 62
     7
370
    25
100
AcDbLine
 10
1980.5333678496
 20
1010.016158454
 30
0.0
 11
1980.5333678496
 21
1020.016158454
 31
0.0
  0
LINE
  5
16C
330
1F
100
AcDbEntity
  8
SLD-0
100
AcDbLine
 10
2045.4533678496
 20
1249.616158454
 30
0.0
 11
2408.4533678496
 21
1249.616158454
 31
0.0
  0
LINE
  5
16D
330
1F
100
AcDbEntity
  8
SLD-0
100
AcDbLine
 10
2408.4533678496
 20
1249.616158454
 30
0.0
 11
2408.4533678496
 21
1060.416158454
 31
0.0
  0
LINE
  5
16E
330
1F
100
AcDbEntity
  8
SLD-0
100
AcDbLine
 10
2408.4533678496
 20
1060.416158454
 30
0.0
 11
2045.4533678496
 21
1060.416158454
 31
0.0
  0
LINE
  5
16F
330
1F
100
AcDbEntity
  8
SLD-0
100
AcDbLine
 10
2045.4533678496
 20
1060.416158454
 30
0.0
 11
2045.4533678496
 21
1249.616158454
 31
0.0
  0
DIMENSION
  5
170
330
1F
100
AcDbEntity
  8
SLD-0
100
AcDbDimension
  2
_D_2
 10
1883.4533678496
 20
1020.016158454
 30
0.0
 11
1883.4533678496
 21
1155.016158454
 31
0.0
 70
   160
  1
<>
 71
     2
 42
-1.0
  3
SLDDIMSTYLE2
100
AcDbAlignedDimension
 13
1963.4533678496
 23
1290.016158454
 33
0.0
 14
1963.4533678496
 24
1020.016158454
 34
0.0
 50
90.0
100
AcDbRotatedDimension
  0
DIMENSION
  5
185
330
1F
100
AcDbEntity
  8
SLD-0
100
AcDbDimension
  2
_D_3
 10
1765.2497822272
 20
1010.016158454
 30
0.0
 11
1765.2497822272
 21
1150.016158454
 31
0.0
 70
   160
  1
<>
 71
     2
 42
-1.0
  3
SLDDIMSTYLE1
100
AcDbAlignedDimension
 13
1963.4533678496
 23
1290.016158454
 33
0.0
 14
1972.7033678496
 24
1010.016158454
 34
0.0
 50
90.0
100
AcDbRotatedDimension
  0
DIMENSION
  5
199
330
1F
100
AcDbEntity
  8
SLD-0
100
AcDbDimension
  2
_D_4
 10
2045.4533678496
 20
946.6134142438
 30
0.0
 11
1883.4533678496
 21
946.6134142438
 31
0.0
 70
   160
  1
<>
 71
     2
 42
-1.0
  3
SLDDIMSTYLE1
100
AcDbAlignedDimension
 13
1963.4533678496
 23
1020.016158454
 33
0.0
 14
2045.4533678496
 24
1048.416158454
 34
0.0
100
AcDbRotatedDimension
  0
DIMENSION
  5
1AD
330
1F
100
AcDbEntity
  8
SLD-0
100
AcDbDimension
  2
_D_5
 10
2408.4533678496
 20
946.6134142438
 30
0.0
 11
2226.9533678496
 21
946.6134142438
 31
0.0
 70
   160
  1
<>
 71
     2
 42
-1.0
  3
SLDDIMSTYLE1
100
AcDbAlignedDimension
 13
2045.4533678496
 23
1048.416158454
 33
0.0
 14
2408.4533678496
 24
1048.416158454
 34
0.0
100
AcDbRotatedDimension
  0
DIMENSION
  5
1C1
330
1F
100
AcDbEntity
  8
SLD-0
100
AcDbDimension
  2
_D_6
 10
2563.4533678496
 20
1060.416158454
 30
0.0
 11
2563.4533678496
 21
1155.016158454
 31
0.0
 70
   160
  1
<>
 71
     2
 42
-1.0
  3
SLDDIMSTYLE0
100
AcDbAlignedDimension
 13
2420.4533678496
 23
1249.616158454
 33
0.0
 14
2420.4533678496
 24
1060.416158454
 34
0.0
 50
90.0
100
AcDbRotatedDimension
  0
DIMENSION
  5
1D5
330
1F
100
AcDbEntity
  8
SLD-0
100
AcDbDimension
  2
_D_7
 10
2563.4533678496
 20
1020.016158454
 30
0.0
 11
2563.4533678496
 21
979.3042410636
 31
0.0
 70
   160
  1
<>
 71
     2
 42
-1.0
  3
SLDDIMSTYLE0
100
AcDbAlignedDimension
 13
2420.4533678496
 23
1060.416158454
 33
0.0
 14
2483.4533678496
 24
1020.016158454
 34
0.0
 50
90.0
100
AcDbRotatedDimension
  0
INSERT
  5
1F2
102
{ACAD_REACTORS
330
1F4
102
}
330
1F
100
AcDbEntity
  8
SLD-0
100
AcDbBlockReference
  2
SW_NOTE_0_1
 10
2137.7289377289
 20
1368.4981684982
 30
0.0
  0
LEADER
  5
1F4
330
1F
100
AcDbEntity
  8
SLD-0
100
AcDbLeader
  3
SLDDIMSTYLE3
 73
     2
 76
     3
 10
2052.8670146068
 20
1256.3271823519
 30
0.0
 10
2121.7289377289
 20
1368.4981684982
 30
0.0
 10
2137.7289377289
 20
1368.4981684982
 30
0.0
340
1F2
  0
MTEXT
  5
1F5
330
1F
100
AcDbEntity
  8
SLD-0
100
AcDbMText
 10
2197.7761339268
 20
1377.8693075362
 30
0.0
 40
19.05
 41
0.0
 71
     1
 72
     1
  1
4X
  7
SLDTEXTSTYLE0
 73
     1
 44
1.0
  0
INSERT
  5
201
330
1F
100
AcDbEntity
  8
SLD-0
100
AcDbBlockReference
  2
SW_CENTERMARKSYMBOL_0
 10
2045.4533678496
 20
1249.616158454
 30
0.0
  0
INSERT
  5
20D
330
1F
100
AcDbEntity
  8
SLD-0
100
AcDbBlockReference
  2
SW_CENTERMARKSYMBOL_1
 10
2408.4533678496
 20
1249.616158454
 30
0.0
  0
INSERT
  5
219
330
1F
100
AcDbEntity
  8
SLD-0
100
AcDbBlockReference
  2
SW_CENTERMARKSYMBOL_2
 10
2045.4533678496
 20
1060.416158454
 30
0.0
  0
INSERT
  5
225
330
1F
100
AcDbEntity
  8
SLD-0
100
AcDbBlockReference
  2
SW_CENTERMARKSYMBOL_3
 10
2408.4533678496
 20
1060.416158454
 30
0.0
  0
LINE
  5
226
330
1F
100
AcDbEntity
  8
0
  6
Continuous
 62
     7
370
    25
100
AcDbLine
 10
838.4111627907
 20
1290.016158454
 30
0.0
 11
318.4111627907
 21
1290.016158454
 31
0.0
  0
LINE
  5
227
330
1F
100
AcDbEntity
  8
0
  6
Continuous
 62
     7
370
    25
100
AcDbLine
 10
838.4111627907
 20
1290.016158454
 30
0.0
 11
838.4111627907
 21
1020.016158454
 31
0.0
  0
LINE
  5
228
330
1F
100
AcDbEntity
  8
0
  6
Continuous
 62
     7
370
    25
100
AcDbLine
 10
838.4111627907
 20
1020.016158454
 30
0.0
 11
318.4111627907
 21
1020.016158454
 31
0.0
  0
CIRCLE
  5
229
330
1F
100
AcDbEntity
  8
0
  6
Continuous
 62
     7
370
    25
100
AcDbCircle
 10
756.4111627907
 20
1060.416158454
 30
0.0
 40
10.0
  0
CIRCLE
  5
22A
330
1F
100
AcDbEntity
  8
0
  6
Continuous
 62
     7
370
    25
100
AcDbCircle
 10
393.4111627907
 20
1060.416158454
 30
0.0
 40
10.0
  0
LINE
  5
22B
330
1F
100
AcDbEntity
  8
0
  6
Continuous
 62
     7
370
    25
100
AcDbLine
 10
318.4111627907
 20
1290.016158454
 30
0.0
 11
318.4111627907
 21
1020.016158454
 31
0.0
  0
CIRCLE
  5
22C
330
1F
100
AcDbEntity
  8
0
  6
Continuous
 62
     7
370
    25
100
AcDbCircle
 10
393.4111627907
 20
1060.416158454
 30
0.0
 40
5.5
  0
CIRCLE
  5
22D
330
1F
100
AcDbEntity
  8
0
  6
Continuous
 62
     7
370
    25
100
AcDbCircle
 10
756.4111627907
 20
1060.416158454
 30
0.0
 40
5.5
  0
LINE
  5
22E
330
1F
100
AcDbEntity
  8
0
  6
Continuous
 62
     7
370
    25
100
AcDbLine
 10
790.6611627907
 20
1010.016158454
 30
0.0
 11
790.6611627907
 21
1020.016158454
 31
0.0
  0
LINE
  5
22F
330
1F
100
AcDbEntity
  8
0
  6
Continuous
 62
     7
370
    25
100
AcDbLine
 10
798.4911627907
 20
1010.016158454
 30
0.0
 11
790.6611627907
 21
1010.016158454
 31
0.0
  0
LINE
  5
230
330
1F
100
AcDbEntity
  8
0
  6
Continuous
 62
     7
370
    25
100
AcDbLine
 10
821.3311627907
 20
1010.016158454
 30
0.0
 11
798.4911627907
 21
1010.016158454
 31
0.0
  0
LINE
  5
231
330
1F
100
AcDbEntity
  8
0
  6
Continuous
 62
     7
370
    25
100
AcDbLine
 10
829.1611627907
 20
1010.016158454
 30
0.0
 11
829.1611627907
 21
1020.016158454
 31
0.0
  0
LINE
  5
232
330
1F
100
AcDbEntity
  8
0
  6
Continuous
 62
     7
370
    25
100
AcDbLine
 10
829.1611627907
 20
1010.016158454
 30
0.0
 11
821.3311627907
 21
1010.016158454
 31
0.0
  0
LINE
  5
233
330
1F
100
AcDbEntity
  8
0
  6
Continuous
 62
     7
370
    25
100
AcDbLine
 10
336.6611627907
 20
1010.016158454
 30
0.0
 11
336.6611627907
 21
1020.016158454
 31
0.0
  0
LINE
  5
234
330
1F
100
AcDbEntity
  8
0
  6
Continuous
 62
     7
370
    25
100
AcDbLine
 10
344.4911627907
 20
1010.016158454
 30
0.0
 11
336.6611627907
 21
1010.016158454
 31
0.0
  0
LINE
  5
235
330
1F
100
AcDbEntity
  8
0
  6
Continuous
 62
     7
370
    25
100
AcDbLine
 10
367.3311627907
 20
1010.016158454
 30
0.0
 11
344.4911627907
 21
1010.016158454
 31
0.0
  0
LINE
  5
236
330
1F
100
AcDbEntity
  8
0
  6
Continuous
 62
     7
370
    25
100
AcDbLine
 10
375.1611627907
 20
1010.016158454
 30
0.0
 11
375.1611627907
 21
1020.016158454
 31
0.0
  0
LINE
  5
237
330
1F
100
AcDbEntity
  8
0
  6
Continuous
 62
     7
370
    25
100
AcDbLine
 10
375.1611627907
 20
1010.016158454
 30
0.0
 11
367.3311627907
 21
1010.016158454
 31
0.0
  0
LINE
  5
238
330
1F
100
AcDbEntity
  8
0
  6
Continuous
 62
     7
370
    25
100
AcDbLine
 10
798.4911627907
 20
1010.016158454
 30
0.0
 11
798.4911627907
 21
1020.016158454
 31
0.0
  0
LINE
  5
239
330
1F
100
AcDbEntity
  8
0
  6
Continuous
 62
     7
370
    25
100
AcDbLine
 10
821.3311627907
 20
1010.016158454
 30
0.0
 11
821.3311627907
 21
1020.016158454
 31
0.0
  0
LINE
  5
23A
330
1F
100
AcDbEntity
  8
0
  6
Continuous
 62
     7
370
    25
100
AcDbLine
 10
344.4911627907
 20
1010.016158454
 30
0.0
 11
344.4911627907
 21
1020.016158454
 31
0.0
  0
LINE
  5
23B
330
1F
100
AcDbEntity
  8
0
  6
Continuous
 62
     7
370
    25
100
AcDbLine
 10
367.3311627907
 20
1010.016158454
 30
0.0
 11
367.3311627907
 21
1020.016158454
 31
0.0
  0
LINE
  5
23C
330
1F
100
AcDbEntity
  8
SLD-0
100
AcDbLine
 10
393.4111627907
 20
1060.416158454
 30
0.0
 11
756.4111627907
 21
1060.416158454
 31
0.0
  0
LINE
  5
23D
330
1F
100
AcDbEntity
  8
SLD-0
100
AcDbLine
 10
595.1811627907
 20
1128.629215783
 30
0.0
 11
595.1811627907
 21
1135.903101125
 31
0.0
  0
LINE
  5
23E
330
1F
100
AcDbEntity
  8
SLD-0
100
AcDbLine
 10
591.5442201197
 20
1132.266158454
 30
0.0
 11
598.8181054617
 21
1132.266158454
 31
0.0
  0
DIMENSION
  5
23F
330
1F
100
AcDbEntity
  8
SLD-0
100
AcDbDimension
  2
_D_8
 10
595.1811627907
 20
1373.6103549152
 30
0.0
 11
716.7961627907
 21
1373.6103549152
 31
0.0
 70
   160
  1
<>
 71
     2
 42
-1.0
  3
SLDDIMSTYLE0
100
AcDbAlignedDimension
 13
838.4111627907
 23
1290.016158454
 33
0.0
 14
595.1811627907
 24
1135.903101125
 34
0.0
100
AcDbRotatedDimension
  0
DIMENSION
  5
253
330
1F
100
AcDbEntity
  8
SLD-0
100
AcDbDimension
  2
_D_9
 10
245.3832334652
 20
1132.266158454
 30
0.0
 11
245.3832334652
 21
1192.7699516195
 31
0.0
 70
   160
  1
<>
 71
     2
 42
-1.0
  3
SLDDIMSTYLE0
100
AcDbAlignedDimension
 13
318.4111627907
 23
1020.016158454
 33
0.0
 14
591.5442201197
 24
1132.266158454
 34
0.0
 50
90.0
100
AcDbRotatedDimension
  0
DIMENSION
  5
268
330
1F
100
AcDbEntity
  8
SLD-0
100
AcDbDimension
  2
_D_10
 10
756.4111627907
 20
941.6692582071
 30
0.0
 11
574.9111627907
 21
941.6692582071
 31
0.0
 70
   160
  1
<>
 71
     2
 42
-1.0
  3
SLDDIMSTYLE1
100
AcDbAlignedDimension
 13
393.4111627907
 23
1048.416158454
 33
0.0
 14
756.4111627907
 24
1048.416158454
 34
0.0
100
AcDbRotatedDimension
  0
DIMENSION
  5
27C
330
1F
100
AcDbEntity
  8
SLD-0
100
AcDbDimension
  2
_D_11
 10
838.4111627907
 20
941.6692582071
 30
0.0
 11
918.4111627907
 21
941.6692582071
 31
0.0
 70
   160
  1
<>
 71
     2
 42
-1.0
  3
SLDDIMSTYLE1
100
AcDbAlignedDimension
 13
756.4111627907
 23
1048.416158454
 33
0.0
 14
838.4111627907
 24
1020.016158454
 34
0.0
100
AcDbRotatedDimension
  0
DIMENSION
  5
290
330
1F
100
AcDbEntity
  8
SLD-0
100
AcDbDimension
  2
_D_12
 10
903.1928302245
 20
1020.016158454
 30
0.0
 11
903.1928302245
 21
1122.3601292866
 31
0.0
 70
   160
  1
<>
 71
     2
 42
-1.0
  3
SLDDIMSTYLE0
100
AcDbAlignedDimension
 13
768.4111627907
 23
1060.416158454
 33
0.0
 14
838.4111627907
 24
1020.016158454
 34
0.0
 50
90.0
100
AcDbRotatedDimension
  0
INSERT
  5
2A5
330
1F
100
AcDbEntity
  8
SLD-0
100
AcDbBlockReference
  2
SW_SYMBOL_MOD_COM
 10
579.9617058523
 20
1119.6459883574
 30
0.0
 41
0.0030416748
 42
0.0030416748
 43
0.0030416748
  0
INSERT
  5
2AE
102
{ACAD_REACTORS
330
2AF
102
}
330
1F
100
AcDbEntity
  8
SLD-0
100
AcDbBlockReference
  2
SW_NOTE_0_2
 10
303.2967032967
 20
937.7289377289
 30
0.0
  0
LEADER
  5
2AF
330
1F
100
AcDbEntity
  8
SLD-0
100
AcDbLeader
  3
SLDDIMSTYLE3
 73
     2
 76
     3
 10
386.9316397738
 20
1052.7993493141
 30
0.0
 10
319.2967032967
 20
937.7289377289
 30
0.0
 10
303.2967032967
 20
937.7289377289
 30
0.0
340
2AE
  0
MTEXT
  5
2B0
330
1F
100
AcDbEntity
  8
SLD-0
100
AcDbMText
 10
216.8578292692
 20
947.4168589086
 30
0.0
 40
19.05
 41
0.0
 71
     1
 72
     1
  1
2X
  7
SLDTEXTSTYLE0
 73
     1
 44
1.0
  0
INSERT
  5
2BC
330
1F
100
AcDbEntity
  8
SLD-0
100
AcDbBlockReference
  2
SW_CENTERMARKSYMBOL_4
 10
393.4111627907
 20
1060.416158454
 30
0.0
  0
INSERT
  5
2C8
330
1F
100
AcDbEntity
  8
SLD-0
100
AcDbBlockReference
  2
SW_CENTERMARKSYMBOL_5
 10
756.4111627907
 20
1060.416158454
 30
0.0
  0
LINE
  5
2C9
330
1F
100
AcDbEntity
  8
0
  6
Continuous
 62
     7
370
    25
100
AcDbLine
 10
3209.9915629299
 20
1020.016158454
 30
0.0
 11
2784.9915629299
 21
1020.016158454
 31
0.0
  0
LINE
  5
2CA
330
1F
100
AcDbEntity
  8
0
  6
Continuous
 62
     7
370
    25
100
AcDbLine
 10
2784.9915629299
 20
1020.016158454
 30
0.0
 11
2784.9915629299
 21
1290.016158454
 31
0.0
  0
LINE
  5
2CB
330
1F
100
AcDbEntity
  8
0
  6
Continuous
 62
     7
370
    25
100
AcDbLine
 10
2784.9915629299
 20
1290.016158454
 30
0.0
 11
3209.9915629299
 21
1290.016158454
 31
0.0
  0
LINE
  5
2CC
330
1F
100
AcDbEntity
  8
0
  6
Continuous
 62
     7
370
    25
100
AcDbLine
 10
3209.9915629299
 20
1290.016158454
 30
0.0
 11
3209.9915629299
 21
1020.016158454
 31
0.0
  0
ARC
  5
2CD
330
1F
100
AcDbEntity
  8
0
  6
Continuous
 62
     7
370
    25
100
AcDbCircle
 10
2930.9915629299
 20
1045.516158454
 30
0.0
 40
11.0
100
AcDbArc
 50
180.0
 51
270.0
  0
LINE
  5
2CE
330
1F
100
AcDbEntity
  8
0
  6
Continuous
 62
     7
370
    25
100
AcDbLine
 10
2930.9915629299
 20
1034.516158454
 30
0.0
 11
3063.9915629299
 21
1034.516158454
 31
0.0
  0
ARC
  5
2CF
330
1F
100
AcDbEntity
  8
0
  6
Continuous
 62
     7
370
    25
100
AcDbCircle
 10
3063.9915629299
 20
1045.516158454
 30
0.0
 40
11.00000000000045
100
AcDbArc
 50
270.0
 51
0.0
  0
LINE
  5
2D0
330
1F
100
AcDbEntity
  8
0
  6
Continuous
 62
     7
370
    25
100
AcDbLine
 10
3074.9915629299
 20
1045.516158454
 30
0.0
 11
3074.9915629299
 21
1144.516158454
 31
0.0
  0
ARC
  5
2D1
330
1F
100
AcDbEntity
  8
0
  6
Continuous
 62
     7
370
    25
100
AcDbCircle
 10
3063.9915629299
 20
1144.516158454
 30
0.0
 40
11.00000000000045
100
AcDbArc
 50
0.0
 51
90.0
  0
LINE
  5
2D2
330
1F
100
AcDbEntity
  8
0
  6
Continuous
 62
     7
370
    25
100
AcDbLine
 10
3063.9915629299
 20
1155.516158454
 30
0.0
 11
2930.9915629299
 21
1155.516158454
 31
0.0
  0
ARC
  5
2D3
330
1F
100
AcDbEntity
  8
0
  6
Continuous
 62
     7
370
    25
100
AcDbCircle
 10
2930.9915629299
 20
1144.516158454
 30
0.0
 40
11.00000000000023
100
AcDbArc
 50
90.0
 51
180.0
  0
LINE
  5
2D4
330
1F
100
AcDbEntity
  8
0
  6
Continuous
 62
     7
370
    25
100
AcDbLine
 10
2919.9915629299
 20
1144.516158454
 30
0.0
 11
2919.9915629299
 21
1045.516158454
 31
0.0
  0
ARC
  5
2D5
330
1F
100
AcDbEntity
  8
0
  6
Continuous
 62
     7
370
    25
100
AcDbCircle
 10
2997.4915629299
 20
1129.266158454
 30
0.0
 40
5.000000000000292
100
AcDbArc
 50
174.586687726
 51
5.413312274
  0
ARC
  5
2D6
330
1F
100
AcDbEntity
  8
0
  6
Continuous
 62
     7
370
    25
100
AcDbCircle
 10
2990.8961099508
 20
1129.891158454
 30
0.0
 40
1.625
100
AcDbArc
 50
354.586687726
 51
90.0
  0
LINE
  5
2D7
330
1F
100
AcDbEntity
  8
0
  6
Continuous
 62
     7
370
    25
100
AcDbLine
 10
2990.8961099508
 20
1131.516158454
 30
0.0
 11
2941.1461099508
 21
1131.516158454
 31
0.0
  0
ARC
  5
2D8
330
1F
100
AcDbEntity
  8
0
  6
Continuous
 62
     7
370
    25
100
AcDbCircle
 10
2941.1461099508
 20
1129.891158454
 30
0.0
 40
1.625
100
AcDbArc
 50
90.0
 51
184.4464035239
  0
ARC
  5
2D9
330
1F
100
AcDbEntity
  8
0
  6
Continuous
 62
     7
370
    25
100
AcDbCircle
 10
2934.5410492733
 20
1129.377545324
 30
0.0
 40
5.000000000000544
100
AcDbArc
 50
266.3263474424
 51
4.4464035239
  0
ARC
  5
2DA
330
1F
100
AcDbEntity
  8
0
  6
Continuous
 62
     7
370
    25
100
AcDbCircle
 10
2934.1165629299
 20
1122.766158454
 30
0.0
 40
1.625000000000008
100
AcDbArc
 50
86.3263474424
 51
180.0
  0
LINE
  5
2DB
330
1F
100
AcDbEntity
  8
0
  6
Continuous
 62
     7
370
    25
100
AcDbLine
 10
2932.4915629299
 20
1122.766158454
 30
0.0
 11
2932.4915629299
 21
1067.266158454
 31
0.0
  0
ARC
  5
2DC
330
1F
100
AcDbEntity
  8
0
  6
Continuous
 62
     7
370
    25
100
AcDbCircle
 10
2934.1165629299
 20
1067.266158454
 30
0.0
 40
1.624999999999781
100
AcDbArc
 50
180.0
 51
273.6736525576
  0
ARC
  5
2DD
330
1F
100
AcDbEntity
  8
0
  6
Continuous
 62
     7
370
    25
100
AcDbCircle
 10
2934.5410492733
 20
1060.654771584
 30
0.0
 40
5.000000000000561
100
AcDbArc
 50
355.5535964761
 51
93.6736525576
  0
ARC
  5
2DE
330
1F
100
AcDbEntity
  8
0
  6
Continuous
 62
     7
370
    25
100
AcDbCircle
 10
2941.1461099508
 20
1060.141158454
 30
0.0
 40
1.625
100
AcDbArc
 50
175.5535964761
 51
270.0
  0
LINE
  5
2DF
330
1F
100
AcDbEntity
  8
0
  6
Continuous
 62
     7
370
    25
100
AcDbLine
 10
2941.1461099508
 20
1058.516158454
 30
0.0
 11
2990.8961099508
 21
1058.516158454
 31
0.0
  0
ARC
  5
2E0
330
1F
100
AcDbEntity
  8
0
  6
Continuous
 62
     7
370
    25
100
AcDbCircle
 10
2990.8961099508
 20
1060.141158454
 30
0.0
 40
1.625
100
AcDbArc
 50
270.0
 51
5.413312274
  0
ARC
  5
2E1
330
1F
100
AcDbEntity
  8
0
  6
Continuous
 62
     7
370
    25
100
AcDbCircle
 10
2997.4915629299
 20
1060.766158454
 30
0.0
 40
5.000000000000292
100
AcDbArc
 50
354.586687726
 51
185.413312274
  0
ARC
  5
2E2
330
1F
100
AcDbEntity
  8
0
  6
Continuous
 62
     7
370
    25
100
AcDbCircle
 10
3004.0870159091
 20
1060.141158454
 30
0.0
 40
1.625
100
AcDbArc
 50
174.586687726
 51
270.0
  0
LINE
  5
2E3
330
1F
100
AcDbEntity
  8
0
  6
Continuous
 62
     7
370
    25
100
AcDbLine
 10
3004.0870159091
 20
1058.516158454
 30
0.0
 11
3053.8370159091
 21
1058.516158454
 31
0.0
  0
ARC
  5
2E4
330
1F
100
AcDbEntity
  8
0
  6
Continuous
 62
     7
370
    25
100
AcDbCircle
 10
3053.8370159091
 20
1060.141158454
 30
0.0
 40
1.625
100
AcDbArc
 50
270.0
 51
4.4464035239
  0
ARC
  5
2E5
330
1F
100
AcDbEntity
  8
0
  6
Continuous
 62
     7
370
    25
100
AcDbCircle
 10
3060.4420765865
 20
1060.654771584
 30
0.0
 40
5.000000000000108
100
AcDbArc
 50
86.3263474424
 51
184.4464035239
  0
ARC
  5
2E6
330
1F
100
AcDbEntity
  8
0
  6
Continuous
 62
     7
370
    25
100
AcDbCircle
 10
3060.8665629299
 20
1067.266158454
 30
0.0
 40
1.624999999999811
100
AcDbArc
 50
266.3263474424
 51
0.0
  0
LINE
  5
2E7
330
1F
100
AcDbEntity
  8
0
  6
Continuous
 62
     7
370
    25
100
AcDbLine
 10
3062.4915629299
 20
1067.266158454
 30
0.0
 11
3062.4915629299
 21
1122.766158454
 31
0.0
  0
ARC
  5
2E8
330
1F
100
AcDbEntity
  8
0
  6
Continuous
 62
     7
370
    25
100
AcDbCircle
 10
3060.8665629299
 20
1122.766158454
 30
0.0
 40
1.625000000000038
100
AcDbArc
 50
0.0
 51
93.6736525576
  0
ARC
  5
2E9
330
1F
100
AcDbEntity
  8
0
  6
Continuous
 62
     7
370
    25
100
AcDbCircle
 10
3060.4420765865
 20
1129.377545324
 30
0.0
 40
5.000000000000108
100
AcDbArc
 50
175.5535964761
 51
273.6736525576
  0
ARC
  5
2EA
330
1F
100
AcDbEntity
  8
0
  6
Continuous
 62
     7
370
    25
100
AcDbCircle
 10
3053.8370159091
 20
1129.891158454
 30
0.0
 40
1.625
100
AcDbArc
 50
355.5535964761
 51
90.0
  0
LINE
  5
2EB
330
1F
100
AcDbEntity
  8
0
  6
Continuous
 62
     7
370
    25
100
AcDbLine
 10
3053.8370159091
 20
1131.516158454
 30
0.0
 11
3004.0870159091
 21
1131.516158454
 31
0.0
  0
ARC
  5
2EC
330
1F
100
AcDbEntity
  8
0
  6
Continuous
 62
     7
370
    25
100
AcDbCircle
 10
3004.0870159091
 20
1129.891158454
 30
0.0
 40
1.625
100
AcDbArc
 50
90.0
 51
185.413312274
  0
LINE
  5
2ED
330
1F
100
AcDbEntity
  8
0
  6
Continuous
 62
     7
370
    25
100
AcDbLine
 10
3063.9915629299
 20
1154.416158454
 30
0.0
 11
2930.9915629299
 21
1154.416158454
 31
0.0
  0
ARC
  5
2EE
330
1F
100
AcDbEntity
  8
0
  6
Continuous
 62
     7
370
    25
100
AcDbCircle
 10
3063.9915629299
 20
1144.516158454
 30
0.0
 40
9.900000000000091
100
AcDbArc
 50
0.0
 51
90.0
  0
ARC
  5
2EF
330
1F
100
AcDbEntity
  8
0
  6
Continuous
 62
     7
370
    25
100
AcDbCircle
 10
3063.9915629299
 20
1045.516158454
 30
0.0
 40
9.900000000000091
100
AcDbArc
 50
270.0
 51
0.0
  0
LINE
  5
2F0
330
1F
100
AcDbEntity
  8
0
  6
Continuous
 62
     7
370
    25
100
AcDbLine
 10
2930.9915629299
 20
1035.616158454
 30
0.0
 11
3063.9915629299
 21
1035.616158454
 31
0.0
  0
ARC
  5
2F1
330
1F
100
AcDbEntity
  8
0
  6
Continuous
 62
     7
370
    25
100
AcDbCircle
 10
2930.9915629299
 20
1045.516158454
 30
0.0
 40
9.900000000000091
100
AcDbArc
 50
180.0
 51
270.0
  0
LINE
  5
2F2
330
1F
100
AcDbEntity
  8
0
  6
Continuous
 62
     7
370
    25
100
AcDbLine
 10
2921.0915629299
 20
1144.516158454
 30
0.0
 11
2921.0915629299
 21
1045.516158454
 31
0.0
  0
ARC
  5
2F3
330
1F
100
AcDbEntity
  8
0
  6
Continuous
 62
     7
370
    25
100
AcDbCircle
 10
2930.9915629299
 20
1144.516158454
 30
0.0
 40
9.900000000000091
100
AcDbArc
 50
90.0
 51
180.0
  0
LINE
  5
2F4
330
1F
100
AcDbEntity
  8
0
  6
Continuous
 62
     7
370
    25
100
AcDbLine
 10
3073.8915629299
 20
1045.516158454
 30
0.0
 11
3073.8915629299
 21
1144.516158454
 31
0.0
  0
LINE
  5
2F5
330
1F
100
AcDbEntity
  8
0
  6
Continuous
 62
     7
370
    25
100
AcDbLine
 10
3194.2415629299
 20
1010.016158454
 30
0.0
 11
3194.2415629299
 21
1020.016158454
 31
0.0
  0
LINE
  5
2F6
330
1F
100
AcDbEntity
  8
0
  6
Continuous
 62
     7
370
    25
100
AcDbLine
 10
3194.2415629299
 20
1010.016158454
 30
0.0
 11
3186.4115629299
 21
1010.016158454
 31
0.0
  0
LINE
  5
2F7
330
1F
100
AcDbEntity
  8
0
  6
Continuous
 62
     7
370
    25
100
AcDbLine
 10
3186.4115629299
 20
1010.016158454
 30
0.0
 11
3163.5715629299
 21
1010.016158454
 31
0.0
  0
LINE
  5
2F8
330
1F
100
AcDbEntity
  8
0
  6
Continuous
 62
     7
370
    25
100
AcDbLine
 10
3155.7415629299
 20
1010.016158454
 30
0.0
 11
3155.7415629299
 21
1020.016158454
 31
0.0
  0
LINE
  5
2F9
330
1F
100
AcDbEntity
  8
0
  6
Continuous
 62
     7
370
    25
100
AcDbLine
 10
3163.5715629299
 20
1010.016158454
 30
0.0
 11
3155.7415629299
 21
1010.016158454
 31
0.0
  0
LINE
  5
2FA
330
1F
100
AcDbEntity
  8
0
  6
Continuous
 62
     7
370
    25
100
AcDbLine
 10
2839.2415629299
 20
1010.016158454
 30
0.0
 11
2839.2415629299
 21
1020.016158454
 31
0.0
  0
LINE
  5
2FB
330
1F
100
AcDbEntity
  8
0
  6
Continuous
 62
     7
370
    25
100
AcDbLine
 10
2839.2415629299
 20
1010.016158454
 30
0.0
 11
2831.4115629299
 21
1010.016158454
 31
0.0
  0
LINE
  5
2FC
330
1F
100
AcDbEntity
  8
0
  6
Continuous
 62
     7
370
    25
100
AcDbLine
 10
2831.4115629299
 20
1010.016158454
 30
0.0
 11
2808.5715629299
 21
1010.016158454
 31
0.0
  0
LINE
  5
2FD
330
1F
100
AcDbEntity
  8
0
  6
Continuous
 62
     7
370
    25
100
AcDbLine
 10
2800.7415629299
 20
1010.016158454
 30
0.0
 11
2800.7415629299
 21
1020.016158454
 31
0.0
  0
LINE
  5
2FE
330
1F
100
AcDbEntity
  8
0
  6
Continuous
 62
     7
370
    25
100
AcDbLine
 10
2808.5715629299
 20
1010.016158454
 30
0.0
 11
2800.7415629299
 21
1010.016158454
 31
0.0
  0
LINE
  5
2FF
330
1F
100
AcDbEntity
  8
0
  6
Continuous
 62
     7
370
    25
100
AcDbLine
 10
2949.7415629299
 20
1118.306158454
 30
0.0
 11
2936.9915629299
 21
1118.306158454
 31
0.0
  0
LINE
  5
300
330
1F
100
AcDbEntity
  8
0
  6
Continuous
 62
     7
370
    25
100
AcDbLine
 10
2949.7415629299
 20
1071.726158454
 30
0.0
 11
2949.7415629299
 21
1118.306158454
 31
0.0
  0
LINE
  5
301
330
1F
100
AcDbEntity
  8
0
  6
Continuous
 62
     7
370
    25
100
AcDbLine
 10
2936.9915629299
 20
1071.726158454
 30
0.0
 11
2949.7415629299
 21
1071.726158454
 31
0.0
  0
LINE
  5
302
330
1F
100
AcDbEntity
  8
0
  6
Continuous
 62
     7
370
    25
100
AcDbLine
 10
2936.9915629299
 20
1118.306158454
 30
0.0
 11
2936.9915629299
 21
1071.726158454
 31
0.0
  0
CIRCLE
  5
303
330
1F
100
AcDbEntity
  8
0
  6
Continuous
 62
     7
370
    25
100
AcDbCircle
 10
3019.4915629299
 20
1093.016158454
 30
0.0
 40
8.930000000000291
  0
CIRCLE
  5
304
330
1F
100
AcDbEntity
  8
0
  6
Continuous
 62
     7
370
    25
100
AcDbCircle
 10
2979.4915629299
 20
1093.016158454
 30
0.0
 40
8.929999999999836
  0
CIRCLE
  5
305
330
1F
100
AcDbEntity
  8
0
  6
Continuous
 62
     7
370
    25
100
AcDbCircle
 10
3019.4915629299
 20
1093.016158454
 30
0.0
 40
3.490000000000236
  0
CIRCLE
  5
306
330
1F
100
AcDbEntity
  8
0
  6
Continuous
 62
     7
370
    25
100
AcDbCircle
 10
3019.4915629299
 20
1093.016158454
 30
0.0
 40
6.125000000000455
  0
CIRCLE
  5
307
330
1F
100
AcDbEntity
  8
0
  6
Continuous
 62
     7
370
    25
100
AcDbCircle
 10
2979.4915629299
 20
1093.016158454
 30
0.0
 40
3.489999999999782
  0
CIRCLE
  5
308
330
1F
100
AcDbEntity
  8
0
  6
Continuous
 62
     7
370
    25
100
AcDbCircle
 10
2979.4915629299
 20
1093.016158454
 30
0.0
 40
6.125
  0
LINE
  5
309
330
1F
100
AcDbEntity
  8
0
  6
Continuous
 62
     7
370
    25
100
AcDbLine
 10
3186.4115629299
 20
1010.016158454
 30
0.0
 11
3186.4115629299
 21
1020.016158454
 31
0.0
  0
LINE
  5
30A
330
1F
100
AcDbEntity
  8
0
  6
Continuous
 62
     7
370
    25
100
AcDbLine
 10
3163.5715629299
 20
1010.016158454
 30
0.0
 11
3163.5715629299
 21
1020.016158454
 31
0.0
  0
LINE
  5
30B
330
1F
100
AcDbEntity
  8
0
  6
Continuous
 62
     7
370
    25
100
AcDbLine
 10
2831.4115629299
 20
1010.016158454
 30
0.0
 11
2831.4115629299
 21
1020.016158454
 31
0.0
  0
LINE
  5
30C
330
1F
100
AcDbEntity
  8
0
  6
Continuous
 62
     7
370
    25
100
AcDbLine
 10
2808.5715629299
 20
1010.016158454
 30
0.0
 11
2808.5715629299
 21
1020.016158454
 31
0.0
  0
DIMENSION
  5
30D
330
1F
100
AcDbEntity
  8
SLD-0
100
AcDbDimension
  2
_D_13
 10
3074.9915629299
 20
953.5641280084
 30
0.0
 11
2997.4915629299
 21
953.5641280084
 31
0.0
 70
   160
  1
<>
 71
     2
 42
-1.0
  3
SLDDIMSTYLE1
100
AcDbAlignedDimension
 13
2919.9915629299
 23
1045.516158454
 33
0.0
 14
3074.9915629299
 24
1045.516158454
 34
0.0
100
AcDbRotatedDimension
  0
DIMENSION
  5
321
330
1F
100
AcDbEntity
  8
SLD-0
100
AcDbDimension
  2
_D_14
 10
3289.9915629299
 20
1034.516158454
 30
0.0
 11
3289.9915629299
 21
1095.016158454
 31
0.0
 70
   160
  1
<>
 71
     2
 42
-1.0
  3
SLDDIMSTYLE1
100
AcDbAlignedDimension
 13
3063.9915629299
 23
1155.516158454
 33
0.0
 14
3063.9915629299
 24
1034.516158454
 34
0.0
 50
90.0
100
AcDbRotatedDimension
  0
DIMENSION
  5
335
330
1F
100
AcDbEntity
  8
SLD-0
100
AcDbDimension
  2
_D_15
 10
3289.9915629299
 20
1020.016158454
 30
0.0
 11
3289.9915629299
 21
978.627095237
 31
0.0
 70
   160
  1
<>
 71
     2
 42
-1.0
  3
SLDDIMSTYLE4
100
AcDbAlignedDimension
 13
3063.9915629299
 23
1034.516158454
 33
0.0
 14
3209.9915629299
 24
1020.016158454
 34
0.0
 50
90.0
100
AcDbRotatedDimension
  0
DIMENSION
  5
34B
330
1F
100
AcDbEntity
  8
SLD-0
100
AcDbDimension
  2
_D_16
 10
2919.9915629299
 20
953.5641280084
 30
0.0
 11
2852.4915629299
 21
953.5641280084
 31
0.0
 70
   160
  1
<>
 71
     2
 42
-1.0
  3
SLDDIMSTYLE5
100
AcDbAlignedDimension
 13
2784.9915629299
 23
1020.016158454
 33
0.0
 14
2919.9915629299
 24
1045.516158454
 34
0.0
100
AcDbRotatedDimension
  0
LINE
  5
360
330
1F
100
AcDbEntity
  8
0
  6
Continuous
 62
     7
370
    25
100
AcDbLine
 10
1575.960117891
 20
1619.3838551497
 30
0.0
 11
1150.960117891
 21
1619.3838551497
 31
0.0
  0
CIRCLE
  5
361
330
1F
100
AcDbEntity
  8
0
  6
Continuous
 62
     7
370
    25
100
AcDbCircle
 10
1535.560117891
 20
1701.3838551497
 30
0.0
 40
10.0
  0
CIRCLE
  5
362
330
1F
100
AcDbEntity
  8
0
  6
Continuous
 62
     7
370
    25
100
AcDbCircle
 10
1535.560117891
 20
2064.3838551497
 30
0.0
 40
10.0
  0
LINE
  5
363
330
1F
100
AcDbEntity
  8
0
  6
Continuous
 62
     7
370
    25
100
AcDbLine
 10
1575.960117891
 20
2139.3838551497
 30
0.0
 11
1150.960117891
 21
2139.3838551497
 31
0.0
  0
LINE
  5
364
330
1F
100
AcDbEntity
  8
0
  6
Continuous
 62
     7
370
    25
100
AcDbLine
 10
1150.960117891
 20
1619.3838551497
 30
0.0
 11
1150.960117891
 21
2139.3838551497
 31
0.0
  0
LINE
  5
365
330
1F
100
AcDbEntity
  8
0
  6
Continuous
 62
     7
370
    25
100
AcDbLine
 10
1575.960117891
 20
1619.3838551497
 30
0.0
 11
1575.960117891
 21
2139.3838551497
 31
0.0
  0
CIRCLE
  5
366
330
1F
100
AcDbEntity
  8
0
  6
Continuous
 62
     7
370
    25
100
AcDbCircle
 10
1535.560117891
 20
2064.3838551497
 30
0.0
 40
5.5
  0
CIRCLE
  5
367
330
1F
100
AcDbEntity
  8
0
  6
Continuous
 62
     7
370
    25
100
AcDbCircle
 10
1535.560117891
 20
1701.3838551497
 30
0.0
 40
5.5
  0
LINE
  5
368
330
1F
100
AcDbEntity
  8
SLD-0
100
AcDbLine
 10
1535.560117891
 20
2064.3838551497
 30
0.0
 11
1535.560117891
 21
1701.3838551497
 31
0.0
  0
DIMENSION
  5
369
330
1F
100
AcDbEntity
  8
SLD-0
100
AcDbDimension
  2
_D_17
 10
1895.960117891
 20
1619.3838551497
 30
0.0
 11
1895.960117891
 21
1879.3838551497
 31
0.0
 70
   160
  1
<>
 71
     2
 42
-1.0
  3
SLDDIMSTYLE1
100
AcDbAlignedDimension
 13
1575.960117891
 23
2139.3838551497
 33
0.0
 14
1575.960117891
 24
1619.3838551497
 34
0.0
 50
90.0
100
AcDbRotatedDimension
  0
DIMENSION
  5
37D
330
1F
100
AcDbEntity
  8
SLD-0
100
AcDbDimension
  2
_D_18
 10
1751.960117891
 20
1701.3838551497
 30
0.0
 11
1751.960117891
 21
1882.8838551497
 31
0.0
 70
   160
  1
<>
 71
     2
 42
-1.0
  3
SLDDIMSTYLE1
100
AcDbAlignedDimension
 13
1547.560117891
 23
2064.3838551497
 33
0.0
 14
1547.560117891
 24
1701.3838551497
 34
0.0
 50
90.0
100
AcDbRotatedDimension
  0
DIMENSION
  5
391
330
1F
100
AcDbEntity
  8
SLD-0
100
AcDbDimension
  2
_D_19
 10
1751.960117891
 20
1619.3838551497
 30
0.0
 11
1751.960117891
 21
1539.3838551497
 31
0.0
 70
   160
  1
<>
 71
     2
 42
-1.0
  3
SLDDIMSTYLE1
100
AcDbAlignedDimension
 13
1547.560117891
 23
1701.3838551497
 33
0.0
 14
1575.960117891
 24
1619.3838551497
 34
0.0
 50
90.0
100
AcDbRotatedDimension
  0
DIMENSION
  5
3A6
330
1F
100
AcDbEntity
  8
SLD-0
100
AcDbDimension
  2
_D_20
 10
1575.960117891
 20
1539.3838551497
 30
0.0
 11
1655.960117891
 21
1539.3838551497
 31
0.0
 70
   160
  1
<>
 71
     2
 42
-1.0
  3
SLDDIMSTYLE4
100
AcDbAlignedDimension
 13
1535.560117891
 23
1689.3838551497
 33
0.0
 14
1575.960117891
 24
1619.3838551497
 34
0.0
100
AcDbRotatedDimension
  0
INSERT
  5
3C2
102
{ACAD_REACTORS
330
3C3
102
}
330
1F
100
AcDbEntity
  8
SLD-0
100
AcDbBlockReference
  2
SW_NOTE_0_3
 10
1424.6642246642
 20
1548.2295482295
 30
0.0
  0
LEADER
  5
3C3
330
1F
100
AcDbEntity
  8
SLD-0
100
AcDbLeader
  3
SLDDIMSTYLE3
 73
     2
 76
     3
 10
1528.405575164
 20
1694.3972595289
 30
0.0
 10
1440.6642246642
 20
1548.2295482295
 30
0.0
 10
1424.6642246642
 20
1548.2295482295
 30
0.0
340
3C2
  0
MTEXT
  5
3C4
330
1F
100
AcDbEntity
  8
SLD-0
100
AcDbMText
 10
1335.8238601841
 20
1558.1080867787
 30
0.0
 40
19.05
 41
0.0
 71
     1
 72
     1
  1
2X
  7
SLDTEXTSTYLE0
 73
     1
 44
1.0
  0
INSERT
  5
3D0
330
1F
100
AcDbEntity
  8
SLD-0
100
AcDbBlockReference
  2
SW_CENTERMARKSYMBOL_6
 10
1535.560117891
 20
1701.3838551497
 30
0.0
  0
INSERT
  5
3DC
330
1F
100
AcDbEntity
  8
SLD-0
100
AcDbBlockReference
  2
SW_CENTERMARKSYMBOL_7
 10
1535.560117891
 20
2064.3838551497
 30
0.0
  0
LINE
  5
3DD
330
1F
100
AcDbEntity
  8
0
  6
Continuous
 62
     7
370
    25
100
AcDbLine
 10
1560.210117891
 20
223.6649129352
 30
0.0
 11
1560.210117891
 21
246.5049129352
 31
0.0
  0
ARC
  5
3DE
330
1F
100
AcDbEntity
  8
0
  6
Continuous
 62
     7
370
    25
100
AcDbCircle
 10
1552.380117891
 20
223.6649129352
 30
0.0
 40
7.830000000000013
100
AcDbArc
 50
270.0
 51
0.0
  0
LINE
  5
3DF
330
1F
100
AcDbEntity
  8
0
  6
Continuous
 62
     7
370
    25
100
AcDbLine
 10
1529.540117891
 20
215.8349129352
 30
0.0
 11
1552.380117891
 21
215.8349129352
 31
0.0
  0
ARC
  5
3E0
330
1F
100
AcDbEntity
  8
0
  6
Continuous
 62
     7
370
    25
100
AcDbCircle
 10
1529.540117891
 20
223.6649129352
 30
0.0
 40
7.830000000000013
100
AcDbArc
 50
180.0
 51
270.0
  0
LINE
  5
3E1
330
1F
100
AcDbEntity
  8
0
  6
Continuous
 62
     7
370
    25
100
AcDbLine
 10
1521.710117891
 20
246.5049129352
 30
0.0
 11
1521.710117891
 21
223.6649129352
 31
0.0
  0
ARC
  5
3E2
330
1F
100
AcDbEntity
  8
0
  6
Continuous
 62
     7
370
    25
100
AcDbCircle
 10
1529.540117891
 20
246.5049129352
 30
0.0
 40
7.829999999999956
100
AcDbArc
 50
90.0
 51
180.0
  0
LINE
  5
3E3
330
1F
100
AcDbEntity
  8
0
  6
Continuous
 62
     7
370
    25
100
AcDbLine
 10
1552.380117891
 20
254.3349129352
 30
0.0
 11
1529.540117891
 21
254.3349129352
 31
0.0
  0
ARC
  5
3E4
330
1F
100
AcDbEntity
  8
0
  6
Continuous
 62
     7
370
    25
100
AcDbCircle
 10
1552.380117891
 20
246.5049129352
 30
0.0
 40
7.829999999999956
100
AcDbArc
 50
0.0
 51
90.0
  0
LINE
  5
3E5
330
1F
100
AcDbEntity
  8
0
  6
Continuous
 62
     7
370
    25
100
AcDbLine
 10
1205.210117891
 20
223.6649129352
 30
0.0
 11
1205.210117891
 21
246.5049129352
 31
0.0
  0
ARC
  5
3E6
330
1F
100
AcDbEntity
  8
0
  6
Continuous
 62
     7
370
    25
100
AcDbCircle
 10
1197.380117891
 20
223.6649129352
 30
0.0
 40
7.830000000000013
100
AcDbArc
 50
270.0
 51
0.0
  0
LINE
  5
3E7
330
1F
100
AcDbEntity
  8
0
  6
Continuous
 62
     7
370
    25
100
AcDbLine
 10
1174.540117891
 20
215.8349129352
 30
0.0
 11
1197.380117891
 21
215.8349129352
 31
0.0
  0
ARC
  5
3E8
330
1F
100
AcDbEntity
  8
0
  6
Continuous
 62
     7
370
    25
100
AcDbCircle
 10
1174.540117891
 20
223.6649129352
 30
0.0
 40
7.830000000000013
100
AcDbArc
 50
180.0
 51
270.0
  0
LINE
  5
3E9
330
1F
100
AcDbEntity
  8
0
  6
Continuous
 62
     7
370
    25
100
AcDbLine
 10
1166.710117891
 20
246.5049129352
 30
0.0
 11
1166.710117891
 21
223.6649129352
 31
0.0
  0
ARC
  5
3EA
330
1F
100
AcDbEntity
  8
0
  6
Continuous
 62
     7
370
    25
100
AcDbCircle
 10
1174.540117891
 20
246.5049129352
 30
0.0
 40
7.829999999999956
100
AcDbArc
 50
90.0
 51
180.0
  0
LINE
  5
3EB
330
1F
100
AcDbEntity
  8
0
  6
Continuous
 62
     7
370
    25
100
AcDbLine
 10
1197.380117891
 20
254.3349129352
 30
0.0
 11
1174.540117891
 21
254.3349129352
 31
0.0
  0
ARC
  5
3EC
330
1F
100
AcDbEntity
  8
0
  6
Continuous
 62
     7
370
    25
100
AcDbCircle
 10
1197.380117891
 20
246.5049129352
 30
0.0
 40
7.829999999999956
100
AcDbArc
 50
0.0
 51
90.0
  0
LINE
  5
3ED
330
1F
100
AcDbEntity
  8
0
  6
Continuous
 62
     7
370
    25
100
AcDbLine
 10
1560.210117891
 20
677.6649129352
 30
0.0
 11
1560.210117891
 21
700.5049129352
 31
0.0
  0
ARC
  5
3EE
330
1F
100
AcDbEntity
  8
0
  6
Continuous
 62
     7
370
    25
100
AcDbCircle
 10
1552.380117891
 20
677.6649129352
 30
0.0
 40
7.829999999999927
100
AcDbArc
 50
270.0
 51
0.0
  0
LINE
  5
3EF
330
1F
100
AcDbEntity
  8
0
  6
Continuous
 62
     7
370
    25
100
AcDbLine
 10
1529.540117891
 20
669.8349129352
 30
0.0
 11
1552.380117891
 21
669.8349129352
 31
0.0
  0
ARC
  5
3F0
330
1F
100
AcDbEntity
  8
0
  6
Continuous
 62
     7
370
    25
100
AcDbCircle
 10
1529.540117891
 20
677.6649129352
 30
0.0
 40
7.829999999999927
100
AcDbArc
 50
180.0
 51
270.0
  0
LINE
  5
3F1
330
1F
100
AcDbEntity
  8
0
  6
Continuous
 62
     7
370
    25
100
AcDbLine
 10
1521.710117891
 20
700.5049129352
 30
0.0
 11
1521.710117891
 21
677.6649129352
 31
0.0
  0
ARC
  5
3F2
330
1F
100
AcDbEntity
  8
0
  6
Continuous
 62
     7
370
    25
100
AcDbCircle
 10
1529.540117891
 20
700.5049129352
 30
0.0
 40
7.829999999999927
100
AcDbArc
 50
90.0
 51
180.0
  0
LINE
  5
3F3
330
1F
100
AcDbEntity
  8
0
  6
Continuous
 62
     7
370
    25
100
AcDbLine
 10
1552.380117891
 20
708.3349129352
 30
0.0
 11
1529.540117891
 21
708.3349129352
 31
0.0
  0
ARC
  5
3F4
330
1F
100
AcDbEntity
  8
0
  6
Continuous
 62
     7
370
    25
100
AcDbCircle
 10
1552.380117891
 20
700.5049129352
 30
0.0
 40
7.829999999999927
100
AcDbArc
 50
0.0
 51
90.0
  0
LINE
  5
3F5
330
1F
100
AcDbEntity
  8
0
  6
Continuous
 62
     7
370
    25
100
AcDbLine
 10
1205.210117891
 20
677.6649129352
 30
0.0
 11
1205.210117891
 21
700.5049129352
 31
0.0
  0
ARC
  5
3F6
330
1F
100
AcDbEntity
  8
0
  6
Continuous
 62
     7
370
    25
100
AcDbCircle
 10
1197.380117891
 20
677.6649129352
 30
0.0
 40
7.830000000000155
100
AcDbArc
 50
270.0
 51
0.0
  0
LINE
  5
3F7
330
1F
100
AcDbEntity
  8
0
  6
Continuous
 62
     7
370
    25
100
AcDbLine
 10
1174.540117891
 20
669.8349129352
 30
0.0
 11
1197.380117891
 21
669.8349129352
 31
0.0
  0
ARC
  5
3F8
330
1F
100
AcDbEntity
  8
0
  6
Continuous
 62
     7
370
    25
100
AcDbCircle
 10
1174.540117891
 20
677.6649129352
 30
0.0
 40
7.829999999999927
100
AcDbArc
 50
180.0
 51
270.0
  0
LINE
  5
3F9
330
1F
100
AcDbEntity
  8
0
  6
Continuous
 62
     7
370
    25
100
AcDbLine
 10
1166.710117891
 20
700.5049129352
 30
0.0
 11
1166.710117891
 21
677.6649129352
 31
0.0
  0
ARC
  5
3FA
330
1F
100
AcDbEntity
  8
0
  6
Continuous
 62
     7
370
    25
100
AcDbCircle
 10
1174.540117891
 20
700.5049129352
 30
0.0
 40
7.829999999999927
100
AcDbArc
 50
90.0
 51
180.0
  0
LINE
  5
3FB
330
1F
100
AcDbEntity
  8
0
  6
Continuous
 62
     7
370
    25
100
AcDbLine
 10
1197.380117891
 20
708.3349129352
 30
0.0
 11
1174.540117891
 21
708.3349129352
 31
0.0
  0
ARC
  5
3FC
330
1F
100
AcDbEntity
  8
0
  6
Continuous
 62
     7
370
    25
100
AcDbCircle
 10
1197.380117891
 20
700.5049129352
 30
0.0
 40
7.830000000000155
100
AcDbArc
 50
0.0
 51
90.0
  0
LINE
  5
3FD
330
1F
100
AcDbEntity
  8
0
  6
Continuous
 62
     7
370
    25
100
AcDbLine
 10
1150.960117891
 20
717.5849129352
 30
0.0
 11
1575.960117891
 21
717.5849129352
 31
0.0
  0
LINE
  5
3FE
330
1F
100
AcDbEntity
  8
0
  6
Continuous
 62
     7
370
    25
100
AcDbLine
 10
1150.960117891
 20
197.5849129352
 30
0.0
 11
1575.960117891
 21
197.5849129352
 31
0.0
  0
ARC
  5
3FF
330
1F
100
AcDbEntity
  8
0
  6
Continuous
 62
     7
370
    25
100
AcDbCircle
 10
1524.960117891
 20
705.0849129352
 30
0.0
 40
5.0
100
AcDbArc
 50
90.0
 51
180.0
  0
LINE
  5
400
330
1F
100
AcDbEntity
  8
0
  6
Continuous
 62
     7
370
    25
100
AcDbLine
 10
1519.960117891
 20
705.0849129352
 30
0.0
 11
1519.960117891
 21
673.0849129352
 31
0.0
  0
ARC
  5
401
330
1F
100
AcDbEntity
  8
0
  6
Continuous
 62
     7
370
    25
100
AcDbCircle
 10
1524.960117891
 20
673.0849129352
 30
0.0
 40
5.0
100
AcDbArc
 50
180.0
 51
270.0
  0
LINE
  5
402
330
1F
100
AcDbEntity
  8
0
  6
Continuous
 62
     7
370
    25
100
AcDbLine
 10
1524.960117891
 20
668.0849129352
 30
0.0
 11
1556.960117891
 21
668.0849129352
 31
0.0
  0
ARC
  5
403
330
1F
100
AcDbEntity
  8
0
  6
Continuous
 62
     7
370
    25
100
AcDbCircle
 10
1556.960117891
 20
673.0849129352
 30
0.0
 40
5.0
100
AcDbArc
 50
270.0
 51
0.0
  0
LINE
  5
404
330
1F
100
AcDbEntity
  8
0
  6
Continuous
 62
     7
370
    25
100
AcDbLine
 10
1561.960117891
 20
673.0849129352
 30
0.0
 11
1561.960117891
 21
705.0849129352
 31
0.0
  0
ARC
  5
405
330
1F
100
AcDbEntity
  8
0
  6
Continuous
 62
     7
370
    25
100
AcDbCircle
 10
1556.960117891
 20
705.0849129352
 30
0.0
 40
5.0
100
AcDbArc
 50
0.0
 51
90.0
  0
LINE
  5
406
330
1F
100
AcDbEntity
  8
0
  6
Continuous
 62
     7
370
    25
100
AcDbLine
 10
1556.960117891
 20
710.0849129352
 30
0.0
 11
1524.960117891
 21
710.0849129352
 31
0.0
  0
ARC
  5
407
330
1F
100
AcDbEntity
  8
0
  6
Continuous
 62
     7
370
    25
100
AcDbCircle
 10
1169.960117891
 20
251.0849129352
 30
0.0
 40
5.0
100
AcDbArc
 50
90.0
 51
180.0
  0
LINE
  5
408
330
1F
100
AcDbEntity
  8
0
  6
Continuous
 62
     7
370
    25
100
AcDbLine
 10
1164.960117891
 20
251.0849129352
 30
0.0
 11
1164.960117891
 21
219.0849129352
 31
0.0
  0
ARC
  5
409
330
1F
100
AcDbEntity
  8
0
  6
Continuous
 62
     7
370
    25
100
AcDbCircle
 10
1169.960117891
 20
219.0849129352
 30
0.0
 40
5.0
100
AcDbArc
 50
180.0
 51
270.0
  0
LINE
  5
40A
330
1F
100
AcDbEntity
  8
0
  6
Continuous
 62
     7
370
    25
100
AcDbLine
 10
1169.960117891
 20
214.0849129352
 30
0.0
 11
1201.960117891
 21
214.0849129352
 31
0.0
  0
ARC
  5
40B
330
1F
100
AcDbEntity
  8
0
  6
Continuous
 62
     7
370
    25
100
AcDbCircle
 10
1201.960117891
 20
219.0849129352
 30
0.0
 40
5.000000000000227
100
AcDbArc
 50
270.0
 51
0.0
  0
LINE
  5
40C
330
1F
100
AcDbEntity
  8
0
  6
Continuous
 62
     7
370
    25
100
AcDbLine
 10
1206.960117891
 20
219.0849129352
 30
0.0
 11
1206.960117891
 21
251.0849129352
 31
0.0
  0
ARC
  5
40D
330
1F
100
AcDbEntity
  8
0
  6
Continuous
 62
     7
370
    25
100
AcDbCircle
 10
1201.960117891
 20
251.0849129352
 30
0.0
 40
5.000000000000227
100
AcDbArc
 50
0.0
 51
90.0
  0
LINE
  5
40E
330
1F
100
AcDbEntity
  8
0
  6
Continuous
 62
     7
370
    25
100
AcDbLine
 10
1201.960117891
 20
256.0849129352
 30
0.0
 11
1169.960117891
 21
256.0849129352
 31
0.0
  0
ARC
  5
40F
330
1F
100
AcDbEntity
  8
0
  6
Continuous
 62
     7
370
    25
100
AcDbCircle
 10
1524.960117891
 20
251.0849129352
 30
0.0
 40
5.0
100
AcDbArc
 50
90.0
 51
180.0
  0
LINE
  5
410
330
1F
100
AcDbEntity
  8
0
  6
Continuous
 62
     7
370
    25
100
AcDbLine
 10
1519.960117891
 20
251.0849129352
 30
0.0
 11
1519.960117891
 21
219.0849129352
 31
0.0
  0
ARC
  5
411
330
1F
100
AcDbEntity
  8
0
  6
Continuous
 62
     7
370
    25
100
AcDbCircle
 10
1524.960117891
 20
219.0849129352
 30
0.0
 40
5.0
100
AcDbArc
 50
180.0
 51
270.0
  0
LINE
  5
412
330
1F
100
AcDbEntity
  8
0
  6
Continuous
 62
     7
370
    25
100
AcDbLine
 10
1524.960117891
 20
214.0849129352
 30
0.0
 11
1556.960117891
 21
214.0849129352
 31
0.0
  0
ARC
  5
413
330
1F
100
AcDbEntity
  8
0
  6
Continuous
 62
     7
370
    25
100
AcDbCircle
 10
1556.960117891
 20
219.0849129352
 30
0.0
 40
5.000000000000227
100
AcDbArc
 50
270.0
 51
0.0
  0
LINE
  5
414
330
1F
100
AcDbEntity
  8
0
  6
Continuous
 62
     7
370
    25
100
AcDbLine
 10
1561.960117891
 20
219.0849129352
 30
0.0
 11
1561.960117891
 21
251.0849129352
 31
0.0
  0
ARC
  5
415
330
1F
100
AcDbEntity
  8
0
  6
Continuous
 62
     7
370
    25
100
AcDbCircle
 10
1556.960117891
 20
251.0849129352
 30
0.0
 40
5.000000000000227
100
AcDbArc
 50
0.0
 51
90.0
  0
LINE
  5
416
330
1F
100
AcDbEntity
  8
0
  6
Continuous
 62
     7
370
    25
100
AcDbLine
 10
1556.960117891
 20
256.0849129352
 30
0.0
 11
1524.960117891
 21
256.0849129352
 31
0.0
  0
ARC
  5
417
330
1F
100
AcDbEntity
  8
0
  6
Continuous
 62
     7
370
    25
100
AcDbCircle
 10
1169.960117891
 20
705.0849129352
 30
0.0
 40
5.000000000000227
100
AcDbArc
 50
90.0
 51
180.0
  0
LINE
  5
418
330
1F
100
AcDbEntity
  8
0
  6
Continuous
 62
     7
370
    25
100
AcDbLine
 10
1164.960117891
 20
705.0849129352
 30
0.0
 11
1164.960117891
 21
673.0849129352
 31
0.0
  0
ARC
  5
419
330
1F
100
AcDbEntity
  8
0
  6
Continuous
 62
     7
370
    25
100
AcDbCircle
 10
1169.960117891
 20
673.0849129352
 30
0.0
 40
5.000000000000227
100
AcDbArc
 50
180.0
 51
270.0
  0
LINE
  5
41A
330
1F
100
AcDbEntity
  8
0
  6
Continuous
 62
     7
370
    25
100
AcDbLine
 10
1169.960117891
 20
668.0849129352
 30
0.0
 11
1201.960117891
 21
668.0849129352
 31
0.0
  0
ARC
  5
41B
330
1F
100
AcDbEntity
  8
0
  6
Continuous
 62
     7
370
    25
100
AcDbCircle
 10
1201.960117891
 20
673.0849129352
 30
0.0
 40
5.0
100
AcDbArc
 50
270.0
 51
0.0
  0
LINE
  5
41C
330
1F
100
AcDbEntity
  8
0
  6
Continuous
 62
     7
370
    25
100
AcDbLine
 10
1206.960117891
 20
673.0849129352
 30
0.0
 11
1206.960117891
 21
705.0849129352
 31
0.0
  0
ARC
  5
41D
330
1F
100
AcDbEntity
  8
0
  6
Continuous
 62
     7
370
    25
100
AcDbCircle
 10
1201.960117891
 20
705.0849129352
 30
0.0
 40
5.0
100
AcDbArc
 50
0.0
 51
90.0
  0
LINE
  5
41E
330
1F
100
AcDbEntity
  8
0
  6
Continuous
 62
     7
370
    25
100
AcDbLine
 10
1201.960117891
 20
710.0849129352
 30
0.0
 11
1169.960117891
 21
710.0849129352
 31
0.0
  0
ARC
  5
41F
330
1F
100
AcDbEntity
  8
0
  6
Continuous
 62
     7
370
    25
100
AcDbCircle
 10
1263.960117891
 20
585.5849129352
 30
0.0
 40
32.0
100
AcDbArc
 50
90.0
 51
180.0
  0
LINE
  5
420
330
1F
100
AcDbEntity
  8
0
  6
Continuous
 62
     7
370
    25
100
AcDbLine
 10
1231.960117891
 20
585.5849129352
 30
0.0
 11
1231.960117891
 21
315.5849129352
 31
0.0
  0
ARC
  5
421
330
1F
100
AcDbEntity
  8
0
  6
Continuous
 62
     7
370
    25
100
AcDbCircle
 10
1263.960117891
 20
315.5849129352
 30
0.0
 40
32.0
100
AcDbArc
 50
180.0
 51
270.0
  0
LINE
  5
422
330
1F
100
AcDbEntity
  8
0
  6
Continuous
 62
     7
370
    25
100
AcDbLine
 10
1263.960117891
 20
283.5849129352
 30
0.0
 11
1513.960117891
 21
283.5849129352
 31
0.0
  0
ARC
  5
423
330
1F
100
AcDbEntity
  8
0
  6
Continuous
 62
     7
370
    25
100
AcDbCircle
 10
1513.960117891
 20
315.5849129352
 30
0.0
 40
32.0
100
AcDbArc
 50
270.0
 51
0.0
  0
LINE
  5
424
330
1F
100
AcDbEntity
  8
0
  6
Continuous
 62
     7
370
    25
100
AcDbLine
 10
1545.960117891
 20
315.5849129352
 30
0.0
 11
1545.960117891
 21
585.5849129352
 31
0.0
  0
ARC
  5
425
330
1F
100
AcDbEntity
  8
0
  6
Continuous
 62
     7
370
    25
100
AcDbCircle
 10
1513.960117891
 20
585.5849129352
 30
0.0
 40
32.0
100
AcDbArc
 50
0.0
 51
90.0
  0
LINE
  5
426
330
1F
100
AcDbEntity
  8
0
  6
Continuous
 62
     7
370
    25
100
AcDbLine
 10
1513.960117891
 20
617.5849129352
 30
0.0
 11
1263.960117891
 21
617.5849129352
 31
0.0
  0
CIRCLE
  5
427
330
1F
100
AcDbEntity
  8
0
  6
Continuous
 62
     7
370
    25
100
AcDbCircle
 10
1191.360117891
 20
635.5849129352
 30
0.0
 40
10.0
  0
CIRCLE
  5
428
330
1F
100
AcDbEntity
  8
0
  6
Continuous
 62
     7
370
    25
100
AcDbCircle
 10
1535.560117891
 20
272.5849129352
 30
0.0
 40
10.0
  0
CIRCLE
  5
429
330
1F
100
AcDbEntity
  8
0
  6
Continuous
 62
     7
370
    25
100
AcDbCircle
 10
1191.360117891
 20
272.5849129352
 30
0.0
 40
10.0
  0
CIRCLE
  5
42A
330
1F
100
AcDbEntity
  8
0
  6
Continuous
 62
     7
370
    25
100
AcDbCircle
 10
1535.560117891
 20
635.5849129352
 30
0.0
 40
10.0
  0
LINE
  5
42B
330
1F
100
AcDbEntity
  8
0
  6
Continuous
 62
     7
370
    25
100
AcDbLine
 10
1150.960117891
 20
717.5849129352
 30
0.0
 11
1150.960117891
 21
197.5849129352
 31
0.0
  0
LINE
  5
42C
330
1F
100
AcDbEntity
  8
0
  6
Continuous
 62
     7
370
    25
100
AcDbLine
 10
1575.960117891
 20
717.5849129352
 30
0.0
 11
1575.960117891
 21
197.5849129352
 31
0.0
  0
CIRCLE
  5
42D
330
1F
100
AcDbEntity
  8
0
  6
Continuous
 62
     7
370
    25
100
AcDbCircle
 10
1535.560117891
 20
272.5849129352
 30
0.0
 40
5.500000000000057
  0
CIRCLE
  5
42E
330
1F
100
AcDbEntity
  8
0
  6
Continuous
 62
     7
370
    25
100
AcDbCircle
 10
1191.360117891
 20
272.5849129352
 30
0.0
 40
5.500000000000057
  0
CIRCLE
  5
42F
330
1F
100
AcDbEntity
  8
0
  6
Continuous
 62
     7
370
    25
100
AcDbCircle
 10
1535.560117891
 20
635.5849129352
 30
0.0
 40
5.500000000000114
  0
CIRCLE
  5
430
330
1F
100
AcDbEntity
  8
0
  6
Continuous
 62
     7
370
    25
100
AcDbCircle
 10
1191.360117891
 20
635.5849129352
 30
0.0
 40
5.500000000000114
  0
LINE
  5
431
330
1F
100
AcDbEntity
  8
0
  6
Continuous
 62
     7
370
    25
100
AcDbLine
 10
1513.960117891
 20
615.5849129352
 30
0.0
 11
1263.960117891
 21
615.5849129352
 31
0.0
  0
ARC
  5
432
330
1F
100
AcDbEntity
  8
0
  6
Continuous
 62
     7
370
    25
100
AcDbCircle
 10
1513.960117891
 20
585.5849129352
 30
0.0
 40
30.0
100
AcDbArc
 50
0.0
 51
90.0
  0
LINE
  5
433
330
1F
100
AcDbEntity
  8
0
  6
Continuous
 62
     7
370
    25
100
AcDbLine
 10
1543.960117891
 20
315.5849129352
 30
0.0
 11
1543.960117891
 21
585.5849129352
 31
0.0
  0
LINE
  5
434
330
1F
100
AcDbEntity
  8
0
  6
Continuous
 62
     7
370
    25
100
AcDbLine
 10
1233.960117891
 20
585.5849129352
 30
0.0
 11
1233.960117891
 21
315.5849129352
 31
0.0
  0
ARC
  5
435
330
1F
100
AcDbEntity
  8
0
  6
Continuous
 62
     7
370
    25
100
AcDbCircle
 10
1263.960117891
 20
585.5849129352
 30
0.0
 40
30.00000000000023
100
AcDbArc
 50
90.0
 51
180.0
  0
CIRCLE
  5
436
330
1F
100
AcDbEntity
  8
0
  6
Continuous
 62
     7
370
    25
100
AcDbCircle
 10
1280.960117891
 20
605.5849129352
 30
0.0
 40
5.249999999999886
  0
CIRCLE
  5
437
330
1F
100
AcDbEntity
  8
0
  6
Continuous
 62
     7
370
    25
100
AcDbCircle
 10
1243.960117891
 20
560.5849129352
 30
0.0
 40
5.250000000000114
  0
CIRCLE
  5
438
330
1F
100
AcDbEntity
  8
0
  6
Continuous
 62
     7
370
    25
100
AcDbCircle
 10
1355.960117891
 20
605.5849129352
 30
0.0
 40
5.249999999999886
  0
CIRCLE
  5
439
330
1F
100
AcDbEntity
  8
0
  6
Continuous
 62
     7
370
    25
100
AcDbCircle
 10
1421.960117891
 20
605.5849129352
 30
0.0
 40
5.249999999999886
  0
CIRCLE
  5
43A
330
1F
100
AcDbEntity
  8
0
  6
Continuous
 62
     7
370
    25
100
AcDbCircle
 10
1496.960117891
 20
605.5849129352
 30
0.0
 40
5.249999999999886
  0
CIRCLE
  5
43B
330
1F
100
AcDbEntity
  8
0
  6
Continuous
 62
     7
370
    25
100
AcDbCircle
 10
1533.960117891
 20
560.5849129352
 30
0.0
 40
5.250000000000114
  0
CIRCLE
  5
43C
330
1F
100
AcDbEntity
  8
0
  6
Continuous
 62
     7
370
    25
100
AcDbCircle
 10
1243.960117891
 20
485.5849129352
 30
0.0
 40
5.250000000000057
  0
CIRCLE
  5
43D
330
1F
100
AcDbEntity
  8
0
  6
Continuous
 62
     7
370
    25
100
AcDbCircle
 10
1533.960117891
 20
485.5849129352
 30
0.0
 40
5.250000000000057
  0
CIRCLE
  5
43E
330
1F
100
AcDbEntity
  8
0
  6
Continuous
 62
     7
370
    25
100
AcDbCircle
 10
1243.960117891
 20
415.5849129352
 30
0.0
 40
5.250000000000057
  0
CIRCLE
  5
43F
330
1F
100
AcDbEntity
  8
0
  6
Continuous
 62
     7
370
    25
100
AcDbCircle
 10
1533.960117891
 20
415.5849129352
 30
0.0
 40
5.250000000000057
  0
CIRCLE
  5
440
330
1F
100
AcDbEntity
  8
0
  6
Continuous
 62
     7
370
    25
100
AcDbCircle
 10
1243.960117891
 20
340.5849129352
 30
0.0
 40
5.25
  0
CIRCLE
  5
441
330
1F
100
AcDbEntity
  8
0
  6
Continuous
 62
     7
370
    25
100
AcDbCircle
 10
1533.960117891
 20
340.5849129352
 30
0.0
 40
5.25
  0
CIRCLE
  5
442
330
1F
100
AcDbEntity
  8
0
  6
Continuous
 62
     7
370
    25
100
AcDbCircle
 10
1280.960117891
 20
295.5849129352
 30
0.0
 40
5.25
  0
CIRCLE
  5
443
330
1F
100
AcDbEntity
  8
0
  6
Continuous
 62
     7
370
    25
100
AcDbCircle
 10
1355.960117891
 20
295.5849129352
 30
0.0
 40
5.250000000000114
  0
CIRCLE
  5
444
330
1F
100
AcDbEntity
  8
0
  6
Continuous
 62
     7
370
    25
100
AcDbCircle
 10
1421.960117891
 20
295.5849129352
 30
0.0
 40
5.250000000000114
  0
CIRCLE
  5
445
330
1F
100
AcDbEntity
  8
0
  6
Continuous
 62
     7
370
    25
100
AcDbCircle
 10
1496.960117891
 20
295.5849129352
 30
0.0
 40
5.250000000000057
  0
ARC
  5
446
330
1F
100
AcDbEntity
  8
0
  6
Continuous
 62
     7
370
    25
100
AcDbCircle
 10
1263.960117891
 20
315.5849129352
 30
0.0
 40
30.00000000000023
100
AcDbArc
 50
180.0
 51
270.0
  0
LINE
  5
447
330
1F
100
AcDbEntity
  8
0
  6
Continuous
 62
     7
370
    25
100
AcDbLine
 10
1263.960117891
 20
285.5849129352
 30
0.0
 11
1513.960117891
 21
285.5849129352
 31
0.0
  0
ARC
  5
448
330
1F
100
AcDbEntity
  8
0
  6
Continuous
 62
     7
370
    25
100
AcDbCircle
 10
1513.960117891
 20
315.5849129352
 30
0.0
 40
30.0
100
AcDbArc
 50
270.0
 51
0.0
  0
CIRCLE
  5
449
330
1F
100
AcDbEntity
  8
0
  6
Continuous
 62
     7
370
    25
100
AcDbCircle
 10
1421.960117891
 20
295.5849129352
 30
0.0
 40
4.250000000000114
  0
CIRCLE
  5
44A
330
1F
100
AcDbEntity
  8
0
  6
Continuous
 62
     7
370
    25
100
AcDbCircle
 10
1496.960117891
 20
295.5849129352
 30
0.0
 40
4.250000000000057
  0
CIRCLE
  5
44B
330
1F
100
AcDbEntity
  8
0
  6
Continuous
 62
     7
370
    25
100
AcDbCircle
 10
1280.960117891
 20
295.5849129352
 30
0.0
 40
4.250000000000057
  0
CIRCLE
  5
44C
330
1F
100
AcDbEntity
  8
0
  6
Continuous
 62
     7
370
    25
100
AcDbCircle
 10
1355.960117891
 20
295.5849129352
 30
0.0
 40
4.249999999999943
  0
CIRCLE
  5
44D
330
1F
100
AcDbEntity
  8
0
  6
Continuous
 62
     7
370
    25
100
AcDbCircle
 10
1533.960117891
 20
340.5849129352
 30
0.0
 40
4.250000000000057
  0
CIRCLE
  5
44E
330
1F
100
AcDbEntity
  8
0
  6
Continuous
 62
     7
370
    25
100
AcDbCircle
 10
1243.960117891
 20
340.5849129352
 30
0.0
 40
4.250000000000057
  0
CIRCLE
  5
44F
330
1F
100
AcDbEntity
  8
0
  6
Continuous
 62
     7
370
    25
100
AcDbCircle
 10
1243.960117891
 20
415.5849129352
 30
0.0
 40
4.25
  0
CIRCLE
  5
450
330
1F
100
AcDbEntity
  8
0
  6
Continuous
 62
     7
370
    25
100
AcDbCircle
 10
1533.960117891
 20
415.5849129352
 30
0.0
 40
4.250000000000057
  0
CIRCLE
  5
451
330
1F
100
AcDbEntity
  8
0
  6
Continuous
 62
     7
370
    25
100
AcDbCircle
 10
1533.960117891
 20
485.5849129352
 30
0.0
 40
4.25
  0
CIRCLE
  5
452
330
1F
100
AcDbEntity
  8
0
  6
Continuous
 62
     7
370
    25
100
AcDbCircle
 10
1243.960117891
 20
485.5849129352
 30
0.0
 40
4.250000000000057
  0
CIRCLE
  5
453
330
1F
100
AcDbEntity
  8
0
  6
Continuous
 62
     7
370
    25
100
AcDbCircle
 10
1533.960117891
 20
560.5849129352
 30
0.0
 40
4.250000000000114
  0
CIRCLE
  5
454
330
1F
100
AcDbEntity
  8
0
  6
Continuous
 62
     7
370
    25
100
AcDbCircle
 10
1243.960117891
 20
560.5849129352
 30
0.0
 40
4.250000000000114
  0
CIRCLE
  5
455
330
1F
100
AcDbEntity
  8
0
  6
Continuous
 62
     7
370
    25
100
AcDbCircle
 10
1355.960117891
 20
605.5849129352
 30
0.0
 40
4.249999999999886
  0
CIRCLE
  5
456
330
1F
100
AcDbEntity
  8
0
  6
Continuous
 62
     7
370
    25
100
AcDbCircle
 10
1496.960117891
 20
605.5849129352
 30
0.0
 40
4.250000000000114
  0
CIRCLE
  5
457
330
1F
100
AcDbEntity
  8
0
  6
Continuous
 62
     7
370
    25
100
AcDbCircle
 10
1280.960117891
 20
605.5849129352
 30
0.0
 40
4.249999999999886
  0
CIRCLE
  5
458
330
1F
100
AcDbEntity
  8
0
  6
Continuous
 62
     7
370
    25
100
AcDbCircle
 10
1421.960117891
 20
605.5849129352
 30
0.0
 40
4.250000000000114
  0
LINE
  5
459
330
1F
100
AcDbEntity
  8
SLD-0
100
AcDbLine
 10
1191.360117891
 20
635.5849129352
 30
0.0
 11
1535.560117891
 21
635.5849129352
 31
0.0
  0
LINE
  5
45A
330
1F
100
AcDbEntity
  8
SLD-0
100
AcDbLine
 10
1535.560117891
 20
635.5849129352
 30
0.0
 11
1535.560117891
 21
272.5849129352
 31
0.0
  0
LINE
  5
45B
330
1F
100
AcDbEntity
  8
SLD-0
100
AcDbLine
 10
1535.560117891
 20
272.5849129352
 30
0.0
 11
1191.360117891
 21
272.5849129352
 31
0.0
  0
LINE
  5
45C
330
1F
100
AcDbEntity
  8
SLD-0
100
AcDbLine
 10
1191.360117891
 20
272.5849129352
 30
0.0
 11
1191.360117891
 21
635.5849129352
 31
0.0
  0
DIMENSION
  5
45D
330
1F
100
AcDbEntity
  8
SLD-0
100
AcDbDimension
  2
_D_21
 10
1535.560117891
 20
797.5849129352
 30
0.0
 11
1363.460117891
 21
797.5849129352
 31
0.0
 70
   160
  1
<>
 71
     2
 42
-1.0
  3
SLDDIMSTYLE0
100
AcDbAlignedDimension
 13
1191.360117891
 23
647.5849129352
 33
0.0
 14
1535.560117891
 24
647.5849129352
 34
0.0
100
AcDbRotatedDimension
  0
DIMENSION
  5
471
330
1F
100
AcDbEntity
  8
SLD-0
100
AcDbDimension
  2
_D_22
 10
1575.960117891
 20
797.5849129352
 30
0.0
 11
1655.960117891
 21
797.5849129352
 31
0.0
 70
   160
  1
<>
 71
     2
 42
-1.0
  3
SLDDIMSTYLE0
100
AcDbAlignedDimension
 13
1535.560117891
 23
647.5849129352
 33
0.0
 14
1575.960117891
 24
717.5849129352
 34
0.0
100
AcDbRotatedDimension
  0
DIMENSION
  5
485
330
1F
100
AcDbEntity
  8
SLD-0
100
AcDbDimension
  2
_D_23
 10
1751.960117891
 20
717.5849129352
 30
0.0
 11
1751.960117891
 21
797.5849129352
 31
0.0
 70
   160
  1
<>
 71
     2
 42
-1.0
  3
SLDDIMSTYLE1
100
AcDbAlignedDimension
 13
1547.560117891
 23
635.5849129352
 33
0.0
 14
1575.960117891
 24
717.5849129352
 34
0.0
 50
90.0
100
AcDbRotatedDimension
  0
DIMENSION
  5
49A
330
1F
100
AcDbEntity
  8
SLD-0
100
AcDbDimension
  2
_D_24
 10
1751.960117891
 20
272.5849129352
 30
0.0
 11
1751.960117891
 21
454.0849129352
 31
0.0
 70
   160
  1
<>
 71
     2
 42
-1.0
  3
SLDDIMSTYLE1
100
AcDbAlignedDimension
 13
1547.560117891
 23
635.5849129352
 33
0.0
 14
1547.560117891
 24
272.5849129352
 34
0.0
 50
90.0
100
AcDbRotatedDimension
  0
INSERT
  5
4B6
102
{ACAD_REACTORS
330
4B7
102
}
330
1F
100
AcDbEntity
  8
SLD-0
100
AcDbBlockReference
  2
SW_NOTE_0_4
 10
1086.6910866911
 20
376.0683760684
 30
0.0
  0
LEADER
  5
4B7
330
1F
100
AcDbEntity
  8
SLD-0
100
AcDbLeader
  3
SLDDIMSTYLE3
 73
     2
 76
     3
 10
1185.1608662377
 20
280.4315223265
 30
0.0
 10
1102.6910866911
 20
376.0683760684
 30
0.0
 10
1086.6910866911
 20
376.0683760684
 30
0.0
340
4B6
  0
MTEXT
  5
4B8
330
1F
100
AcDbEntity
  8
SLD-0
100
AcDbMText
 10
996.8363407962
 20
384.9669796485
 30
0.0
 40
19.05
 41
0.0
 71
     1
 72
     1
  1
4X
  7
SLDTEXTSTYLE0
 73
     1
 44
1.0
  0
INSERT
  5
4C4
330
1F
100
AcDbEntity
  8
SLD-0
100
AcDbBlockReference
  2
SW_CENTERMARKSYMBOL_8
 10
1280.960117891
 20
605.5849129352
 30
0.0
  0
INSERT
  5
4D0
330
1F
100
AcDbEntity
  8
SLD-0
100
AcDbBlockReference
  2
SW_CENTERMARKSYMBOL_9
 10
1243.960117891
 20
560.5849129352
 30
0.0
  0
INSERT
  5
4DC
330
1F
100
AcDbEntity
  8
SLD-0
100
AcDbBlockReference
  2
SW_CENTERMARKSYMBOL_10
 10
1355.960117891
 20
605.5849129352
 30
0.0
  0
INSERT
  5
4E8
330
1F
100
AcDbEntity
  8
SLD-0
100
AcDbBlockReference
  2
SW_CENTERMARKSYMBOL_11
 10
1421.960117891
 20
605.5849129352
 30
0.0
  0
INSERT
  5
4F4
330
1F
100
AcDbEntity
  8
SLD-0
100
AcDbBlockReference
  2
SW_CENTERMARKSYMBOL_12
 10
1496.960117891
 20
605.5849129352
 30
0.0
  0
INSERT
  5
500
330
1F
100
AcDbEntity
  8
SLD-0
100
AcDbBlockReference
  2
SW_CENTERMARKSYMBOL_13
 10
1243.960117891
 20
485.5849129352
 30
0.0
  0
INSERT
  5
50C
330
1F
100
AcDbEntity
  8
SLD-0
100
AcDbBlockReference
  2
SW_CENTERMARKSYMBOL_14
 10
1243.960117891
 20
415.5849129352
 30
0.0
  0
INSERT
  5
518
330
1F
100
AcDbEntity
  8
SLD-0
100
AcDbBlockReference
  2
SW_CENTERMARKSYMBOL_15
 10
1243.960117891
 20
340.5849129352
 30
0.0
  0
INSERT
  5
524
330
1F
100
AcDbEntity
  8
SLD-0
100
AcDbBlockReference
  2
SW_CENTERMARKSYMBOL_16
 10
1280.960117891
 20
295.5849129352
 30
0.0
  0
INSERT
  5
530
330
1F
100
AcDbEntity
  8
SLD-0
100
AcDbBlockReference
  2
SW_CENTERMARKSYMBOL_17
 10
1355.960117891
 20
295.5849129352
 30
0.0
  0
INSERT
  5
53C
330
1F
100
AcDbEntity
  8
SLD-0
100
AcDbBlockReference
  2
SW_CENTERMARKSYMBOL_18
 10
1421.960117891
 20
295.5849129352
 30
0.0
  0
INSERT
  5
548
330
1F
100
AcDbEntity
  8
SLD-0
100
AcDbBlockReference
  2
SW_CENTERMARKSYMBOL_19
 10
1496.960117891
 20
295.5849129352
 30
0.0
  0
INSERT
  5
554
330
1F
100
AcDbEntity
  8
SLD-0
100
AcDbBlockReference
  2
SW_CENTERMARKSYMBOL_20
 10
1533.960117891
 20
340.5849129352
 30
0.0
  0
INSERT
  5
560
330
1F
100
AcDbEntity
  8
SLD-0
100
AcDbBlockReference
  2
SW_CENTERMARKSYMBOL_21
 10
1533.960117891
 20
415.5849129352
 30
0.0
  0
INSERT
  5
56C
330
1F
100
AcDbEntity
  8
SLD-0
100
AcDbBlockReference
  2
SW_CENTERMARKSYMBOL_22
 10
1533.960117891
 20
485.5849129352
 30
0.0
  0
INSERT
  5
578
330
1F
100
AcDbEntity
  8
SLD-0
100
AcDbBlockReference
  2
SW_CENTERMARKSYMBOL_23
 10
1533.960117891
 20
560.5849129352
 30
0.0
  0
INSERT
  5
584
330
1F
100
AcDbEntity
  8
SLD-0
100
AcDbBlockReference
  2
SW_CENTERMARKSYMBOL_24
 10
1191.360117891
 20
635.5849129352
 30
0.0
  0
INSERT
  5
590
330
1F
100
AcDbEntity
  8
SLD-0
100
AcDbBlockReference
  2
SW_CENTERMARKSYMBOL_25
 10
1535.560117891
 20
635.5849129352
 30
0.0
  0
INSERT
  5
59C
330
1F
100
AcDbEntity
  8
SLD-0
100
AcDbBlockReference
  2
SW_CENTERMARKSYMBOL_26
 10
1191.360117891
 20
272.5849129352
 30
0.0
  0
INSERT
  5
5A8
330
1F
100
AcDbEntity
  8
SLD-0
100
AcDbBlockReference
  2
SW_CENTERMARKSYMBOL_27
 10
1535.560117891
 20
272.5849129352
 30
0.0
  0
OLE2FRAME
  5
5A9
330
1F
100
AcDbEntity
  8
0
100
AcDbOle2Frame
 70
     2
  3
Picture (Enhanced Metafile)
 10
53.6189424691
 20
124.5345447351
 30
0.0
 11
351.3182445248
 21
61.3572008905
 31
0.0
 71
     3
 72
     0
 73
     1
 90
     5248
310
80554E67BF8139CF4A4087E11EFB35225F4000000000000000006221928717F5
310
754087E11EFB35225F4000000000000000006221928717F57540725E3FC2B8AD
310
4E4000000000000000004E67BF8139CF4A40725E3FC2B8AD4E40000000000000
310
0000000000000100000000010000010000000100000000000100000000140000
310
D0CF11E0A1B11AE1000000000000000000000000000000003E000300FEFF0900
310
0600000000000000000000000100000001000000000000000010000002000000
310
01000000FEFFFFFF0000000000000000FFFFFFFFFFFFFFFFFFFFFFFFFFFFFFFF
310
FFFFFFFFFFFFFFFFFFFFFFFFFFFFFFFFFFFFFFFFFFFFFFFFFFFFFFFFFFFFFFFF
310
FFFFFFFFFFFFFFFFFFFFFFFFFFFFFFFFFFFFFFFFFFFFFFFFFFFFFFFFFFFFFFFF
310
FFFFFFFFFFFFFFFFFFFFFFFFFFFFFFFFFFFFFFFFFFFFFFFFFFFFFFFFFFFFFFFF
310
FFFFFFFFFFFFFFFFFFFFFFFFFFFFFFFFFFFFFFFFFFFFFFFFFFFFFFFFFFFFFFFF
310
FFFFFFFFFFFFFFFFFFFFFFFFFFFFFFFFFFFFFFFFFFFFFFFFFFFFFFFFFFFFFFFF
310
FFFFFFFFFFFFFFFFFFFFFFFFFFFFFFFFFFFFFFFFFFFFFFFFFFFFFFFFFFFFFFFF
310
FFFFFFFFFFFFFFFFFFFFFFFFFFFFFFFFFFFFFFFFFFFFFFFFFFFFFFFFFFFFFFFF
310
FFFFFFFFFFFFFFFFFFFFFFFFFFFFFFFFFFFFFFFFFFFFFFFFFFFFFFFFFFFFFFFF
310
FFFFFFFFFFFFFFFFFFFFFFFFFFFFFFFFFFFFFFFFFFFFFFFFFFFFFFFFFFFFFFFF
310
FFFFFFFFFFFFFFFFFFFFFFFFFFFFFFFFFFFFFFFFFFFFFFFFFFFFFFFFFFFFFFFF
310
FFFFFFFFFFFFFFFFFFFFFFFFFFFFFFFFFFFFFFFFFFFFFFFFFFFFFFFFFFFFFFFF
310
FFFFFFFFFFFFFFFFFFFFFFFFFFFFFFFFFFFFFFFFFFFFFFFFFFFFFFFFFFFFFFFF
310
FFFFFFFFFFFFFFFFFFFFFFFFFFFFFFFFFFFFFFFFFFFFFFFFFFFFFFFFFFFFFFFF
310
FDFFFFFFFEFFFFFFFEFFFFFF0400000005000000060000000700000008000000
310
FEFFFFFFFFFFFFFFFFFFFFFFFFFFFFFFFFFFFFFFFFFFFFFFFFFFFFFFFFFFFFFF
310
FFFFFFFFFFFFFFFFFFFFFFFFFFFFFFFFFFFFFFFFFFFFFFFFFFFFFFFFFFFFFFFF
310
FFFFFFFFFFFFFFFFFFFFFFFFFFFFFFFFFFFFFFFFFFFFFFFFFFFFFFFFFFFFFFFF
310
FFFFFFFFFFFFFFFFFFFFFFFFFFFFFFFFFFFFFFFFFFFFFFFFFFFFFFFFFFFFFFFF
310
FFFFFFFFFFFFFFFFFFFFFFFFFFFFFFFFFFFFFFFFFFFFFFFFFFFFFFFFFFFFFFFF
310
FFFFFFFFFFFFFFFFFFFFFFFFFFFFFFFFFFFFFFFFFFFFFFFFFFFFFFFFFFFFFFFF
310
FFFFFFFFFFFFFFFFFFFFFFFFFFFFFFFFFFFFFFFFFFFFFFFFFFFFFFFFFFFFFFFF
310
FFFFFFFFFFFFFFFFFFFFFFFFFFFFFFFFFFFFFFFFFFFFFFFFFFFFFFFFFFFFFFFF
310
FFFFFFFFFFFFFFFFFFFFFFFFFFFFFFFFFFFFFFFFFFFFFFFFFFFFFFFFFFFFFFFF
310
FFFFFFFFFFFFFFFFFFFFFFFFFFFFFFFFFFFFFFFFFFFFFFFFFFFFFFFFFFFFFFFF
310
FFFFFFFFFFFFFFFFFFFFFFFFFFFFFFFFFFFFFFFFFFFFFFFFFFFFFFFFFFFFFFFF
310
FFFFFFFFFFFFFFFFFFFFFFFFFFFFFFFFFFFFFFFFFFFFFFFFFFFFFFFFFFFFFFFF
310
FFFFFFFFFFFFFFFFFFFFFFFFFFFFFFFFFFFFFFFFFFFFFFFFFFFFFFFFFFFFFFFF
310
FFFFFFFFFFFFFFFFFFFFFFFFFFFFFFFFFFFFFFFFFFFFFFFFFFFFFFFFFFFFFFFF
310
FFFFFFFFFFFFFFFFFFFFFFFFFFFFFFFFFFFFFFFFFFFFFFFFFFFFFFFFFFFFFFFF
310
52006F006F007400200045006E00740072007900000000000000000000000000
310
0000000000000000000000000000000000000000000000000000000000000000
310
16000500FFFFFFFFFFFFFFFF020000001903000000000000C000000000000046
310
00000000000000000000000030C05F922FA3DA0103000000000C000000000000
310
01004F006C006500000000000000000000000000000000000000000000000000
310
0000000000000000000000000000000000000000000000000000000000000000
310
0A000200FFFFFFFFFFFFFFFFFFFFFFFF00000000000000000000000000000000
310
0000000000000000000000000000000000000000000000001400000000000000
310
010043006F006D0070004F0062006A0000000000000000000000000000000000
310
0000000000000000000000000000000000000000000000000000000000000000
310
120002010100000003000000FFFFFFFF00000000000000000000000000000000
310
0000000000000000000000000000000000000000010000005800000000000000
310
43004F004E00540045004E005400530000000000000000000000000000000000
310
0000000000000000000000000000000000000000000000000000000000000000
310
12000200FFFFFFFFFFFFFFFFFFFFFFFF00000000000000000000000000000000
310
000000000000000000000000000000000000000003000000040B000000000000
310
FEFFFFFF02000000FEFFFFFF0400000005000000060000000700000008000000
310
090000000A0000000B0000000C0000000D0000000E0000000F00000010000000
310
1100000012000000130000001400000015000000160000001700000018000000
310
190000001A0000001B0000001C0000001D0000001E0000001F00000020000000
310
2100000022000000230000002400000025000000260000002700000028000000
310
290000002A0000002B0000002C0000002D0000002E0000002F000000FEFFFFFF
310
FFFFFFFFFFFFFFFFFFFFFFFFFFFFFFFFFFFFFFFFFFFFFFFFFFFFFFFFFFFFFFFF
310
FFFFFFFFFFFFFFFFFFFFFFFFFFFFFFFFFFFFFFFFFFFFFFFFFFFFFFFFFFFFFFFF
310
FFFFFFFFFFFFFFFFFFFFFFFFFFFFFFFFFFFFFFFFFFFFFFFFFFFFFFFFFFFFFFFF
310
FFFFFFFFFFFFFFFFFFFFFFFFFFFFFFFFFFFFFFFFFFFFFFFFFFFFFFFFFFFFFFFF
310
FFFFFFFFFFFFFFFFFFFFFFFFFFFFFFFFFFFFFFFFFFFFFFFFFFFFFFFFFFFFFFFF
310
FFFFFFFFFFFFFFFFFFFFFFFFFFFFFFFFFFFFFFFFFFFFFFFFFFFFFFFFFFFFFFFF
310
FFFFFFFFFFFFFFFFFFFFFFFFFFFFFFFFFFFFFFFFFFFFFFFFFFFFFFFFFFFFFFFF
310
FFFFFFFFFFFFFFFFFFFFFFFFFFFFFFFFFFFFFFFFFFFFFFFFFFFFFFFFFFFFFFFF
310
FFFFFFFFFFFFFFFFFFFFFFFFFFFFFFFFFFFFFFFFFFFFFFFFFFFFFFFFFFFFFFFF
310
FFFFFFFFFFFFFFFFFFFFFFFFFFFFFFFFFFFFFFFFFFFFFFFFFFFFFFFFFFFFFFFF
310
0100000200000000000000000000000000000000000000000000000000000000
310
0000000000000000000000000000000000000000000000000000000000000000
310
0100FEFF030A0000FFFFFFFF1903000000000000C0000000000000461C000000
310
506963747572652028456E68616E636564204D65746166696C652900FFFFFFFF
310
0E00000000000000F439B2710000000000000000000000000000000000000000
310
0000000000000000000000000000000000000000000000000000000000000000
310
74000000010000006C000000FD0A000094000000870B0000B200000062570100
310
111200003B680100BB15000020454D46000001008C0A00003800000003000000
310
0D0000005800000000000000000400000003000040010000F000000041006400
310
6F00620065002000530079007300740000000000000000000100000074000000
310
FD0A000094000000870B0000B200000062570100111200003B680100BB150000
310
20454D46000001008C0A000038000000030000000D0000005800000000000000
310
000400000003000040010000F0000000410064006F0062006500200053007900
310
7300740065006D0073000000110000000C00000008000000120000000C000000
310
010000000A0000001000000000000000000000000C0000001000000000000000
310
000000000900000010000000D7040000110100000B000000100000009D010000
310
5B000000130000000C0000000200000027000000180000000100000000000000
310
0000000000000000250000000C000000010000005F0000003400000002000000
310
2C000000000000002C0000000000000005000000000000000000000000000000
310
0000000000000000250000000C000000020000003B000000080000001B000000
310
100000003D210000F20100005800000048010000FC0A000093000000190B0000
310
B30000004B0000004921F9014921F9014921F9014921DA014921DA014921DA01
310
4921D5014621D0014221CD012821BE012821BE012821BE012321BB011D21BB01
310
1821BE01FE20CD01FE20CD01FE20CD01FA20D001F720D501F720DA01F720F801
310
F720F801F720F801F720FE01FA200302FE200602182115021821150218211502
310
1D21170223211702282115024321050243210502432105023721FE013721FE01
310
3721FE013521FD013521FD013521FD0122210902222109022221090221210902
310
1F2109021E2109020621FA010621FA010621FA010521FA010421F9010421F701
310
0421DB010421DB010421DB010421DA010521D9010621D8011E21CA011E21CA01
310
1E21CA011F21CA012121CA012221CA013A21D8013A21D8013A21D8013B21D901
310
3C21DA013C21DB013C21F2013C21F2013C21F2013D000000080000003C000000
310
080000003E000000180000009F8601009F8601006179FEFF6179FEFF13000000
310
0C000000020000003B000000080000001B000000100000002F210000E4010000
310
58000000C4000000050B00009D000000100B0000A90000002A0000002F21EF01
310
2F21EF012F21EF012F21F1012E21F2012C21F3012321F9012321F9012321F901
310
2221FA012121FA012021FA011F21FA011E21FA011D21F9011421F4011421F401
310
1421F4011221F3011121F1011121EF011121E4011121E4011121E4011121E201
310
1221E0011321DF011D21DA011D21DA011D21DA011E21D9011F21D9012021D901
310
2121D9012221D9012321DA012C21DF012C21DF012C21DF012E21E0012F21E201
310
2F21E4013D000000080000003C000000080000003E000000180000009F860100
310
9F8601006179FEFF6179FEFF130000000C000000020000005B00000038000000
310
3D0B0000A3000000430B0000A6000000010000000500000005000000B821F001
310
C821F001C821EB01B821EB01B821F001130000000C000000020000003B000000
310
080000001B0000001000000004220000E70100005800000084010000450B0000
310
9B000000590B0000AA0000005A0000000122E601FD21E501F621E501E421E501
310
E421E501E421E501D921E501D921E301D921E001D921DD01DA21DB01DC21DA01
310
DE21DA01E221D901E921D901EF21D901EF21D901EF21D9010022D9010022DB01
310
0022E0010022E1010022E1010022E1010722E1010722E1010722E1010722DF01
310
0722DF010722DF010722DB010622D8010322D6010022D401FB21D401F321D401
310
E521D401E521D401E521D401D921D401D121D601D121DF01D121E501D321E801
310
D721E901DB21EB01E221EB01EC21EB01F821EB01F821EB01F821EB010022EB01
310
0122ED010122F1010122F5010022F701F621F701E221F701E221F701E221F701
310
DA21F701D921F501D921F201D921EF01D921EF01D921EF01D121EF01D121EF01
310
D121EF01D121F201D121F201D121F201D121FC01DB21FD01E421FD01F521FD01
310
F521FD01F521FD01F921FD01FE21FD010222FB010622FA010922F6010922F201
310
0922EF010922EF010922EF010922EC010722E9010422E7013C00000008000000
310
3E000000180000009F8601009F8601006179FEFF6179FEFF130000000C000000
310
020000005B0000004C000000590B00009B0000006F0B0000AA00000001000000
310
0A0000000A0000002C22E6011722D4010C22D4012822EC012822FC013022FC01
310
3022EC014C22D4014122D4012C22E601130000000C000000020000003B000000
310
080000001B0000001000000082220000E701000058000000780100006F0B0000
310
9B000000830B0000AA000000570000007F22E6017B22E5017422E5016122E501
310
6122E5016122E5015722E5015722E3015722E0015722DB015822D9016622D901
310
6D22D9016D22D9016D22D9017E22D9017E22DB017E22E0017E22E1017E22E101
310
7E22E1018522E1018522E1018522E1018522DF018522DF018522DF018522DB01
310
8422D8018122D6017E22D4017922D4017122D4016322D4016322D4016322D401
310
5722D4014F22D6014F22DF014F22E5015122E8015522E9015922EB015F22EB01
310
6A22EB017622EB017622EB017622EB017E22EB017F22ED017F22F1017F22F501
310
7D22F7017422F7016022F7016022F7016022F7015822F7015722F5015722F201
310
5722EF015722EF015722EF014F22EF014F22EF014F22EF014F22F2014F22F201
310
4F22F2014F22FC015822FD016122FD017322FD017322FD017322FD017722FD01
310
7C22FD018022FB018422FA018622F6018622F2018622EF018622EF018622EF01
310
8622EC018522E9018222E7013C000000080000003E000000180000009F860100
310
9F8601006179FEFF6179FEFF130000000C000000020000005B00000038000000
310
300B0000A6000000340B0000AC00000001000000050000000500000093210202
310
9A2102029A21F3019321F30193210202130000000C000000020000003B000000
310
080000001B000000100000009B210000D40100005800000018010000240B0000
310
9B0000003A0B0000AA0000003F0000008021D4018021D4018021D4017421D401
310
6F21D8016F21E3016F21EE016F21EE016F21EE016F21F8017421FD018021FD01
310
8F21FD018F21FD018F21FD018F21F7018F21F7018F21F7018121F7018121F701
310
8121F7017921F7017621F5017621F0017621E1017621E1017621E1017621DC01
310
7921D9018121D9019A21D9019A21D9019A21D901A121D901A421DC01A421E101
310
A421F001A421F001A421F001A421F401A321F6019E21F7019E21F7019E21F701
310
9E21F7019E21FD019E21FD019E21FD019F21FD019F21FD019F21FD01A421FC01
310
A721FB01A921F801AB21F601AC21F201AC21EE01AC21E301AC21E301AC21E301
310
AC21D801A721D4019B21D4013C000000080000003E000000180000009F860100
310
9F8601006179FEFF6179FEFF130000000C000000020000005B0000006C000000
310
840B00009B000000870B00009F0000000100000012000000120000009222D401
310
9122D8019022D4018E22D4018E22DA018F22DA018F22D6018F22D5019022D601
310
9122DA019122DA019222D6019322D5019322D6019322DA019422DA019422D401
310
9222D401130000000C000000020000005B00000048000000830B00009B000000
310
850B00009F0000000100000009000000090000008A22D5018B22D5018B22DA01
310
8C22DA018C22D5018E22D5018E22D4018A22D4018A22D501280000000C000000
310
01000000280000000C000000020000000E000000140000000000000010000000
310
1400000000000000000000000000000000000000000000000000000000000000
310
0000000000000000000000000000000000000000000000000000000000000000
  1
OLE
  0
ENDSEC
  0
SECTION
  2
OBJECTS
  0
DICTIONARY
  5
C
330
0
100
AcDbDictionary
281
     1
  3
ACAD_GROUP
350
D
  3
ACAD_LAYOUT
350
1A
  3
ACAD_MLINESTYLE
350
17
  3
ACAD_PLOTSETTINGS
350
19
  3
ACAD_PLOTSTYLENAME
350
E
  3
ACAD_SCALELIST
350
47
  3
DWGPROPS
350
5AA
  0
DICTIONARY
  5
D
102
{ACAD_REACTORS
330
C
102
}
330
C
100
AcDbDictionary
281
     1
  0
DICTIONARY
  5
1A
102
{ACAD_REACTORS
330
C
102
}
330
C
100
AcDbDictionary
281
     1
  3
Layout1
350
1E
  3
Layout2
350
26
  3
Model
350
22
  0
DICTIONARY
  5
17
102
{ACAD_REACTORS
330
C
102
}
330
C
100
AcDbDictionary
281
     1
  3
Standard
350
18
  0
DICTIONARY
  5
19
102
{ACAD_REACTORS
330
C
102
}
330
C
100
AcDbDictionary
281
     1
  0
ACDBDICTIONARYWDFLT
  5
E
102
{ACAD_REACTORS
330
C
102
}
330
C
100
AcDbDictionary
281
     1
  3
Normal
350
F
100
AcDbDictionaryWithDefault
340
F
  0
DICTIONARY
  5
47
102
{ACAD_REACTORS
330
C
102
}
330
C
100
AcDbDictionary
281
     1
  3
A0
350
48
  3
A1
350
49
  3
A2
350
4A
  3
A3
350
4B
  3
A4
350
4C
  3
A5
350
4D
  3
A6
350
4E
  3
A7
350
4F
  3
A8
350
50
  3
A9
350
51
  3
B0
350
52
  3
B1
350
53
  3
B2
350
54
  3
B3
350
55
  3
B4
350
56
  3
B5
350
57
  3
B6
350
58
  0
XRECORD
  5
5AA
102
{ACAD_REACTORS
330
C
102
}
330
C
100
AcDbXrecord
280
     1
  1
DWGPROPS COOKIE
  2

  3

  4

  6

  7

  8
Kevin.Castro
  9

300
=
301
=
302
=
303
=
304
=
305
=
306
=
307
=
308
=
309
=
 40
0.0
 41
2460441.967212465
 42
2460441.967217072
  1

 90
        0
  0
LAYOUT
  5
1E
102
{ACAD_REACTORS
330
1A
102
}
330
1A
100
AcDbPlotSettings
  1

  2
none_device
  4

  6

 40
0.0
 41
0.0
 42
0.0
 43
0.0
 44
0.0
 45
0.0
 46
0.0
 47
0.0
 48
0.0
 49
0.0
140
0.0
141
0.0
142
1.0
143
1.0
 70
   688
 72
     1
 73
     0
 74
     5
  7

 75
    16
147
1.0
148
0.0
149
0.0
100
AcDbLayout
  1
Layout1
 70
     1
 71
     1
 10
0.0
 20
0.0
 11
420.0
 21
297.0
 12
0.0
 22
0.0
 32
0.0
 14
1.0000000000E+20
 24
1.0000000000E+20
 34
1.0000000000E+20
 15
-1.0000000000E+20
 25
-1.0000000000E+20
 35
-1.0000000000E+20
146
0.0
 13
0.0
 23
0.0
 33
0.0
 16
1.0
 26
0.0
 36
0.0
 17
0.0
 27
1.0
 37
0.0
 76
     0
330
1B
  0
LAYOUT
  5
26
102
{ACAD_REACTORS
330
1A
102
}
330
1A
100
AcDbPlotSettings
  1

  2
none_device
  4

  6

 40
0.0
 41
0.0
 42
0.0
 43
0.0
 44
0.0
 45
0.0
 46
0.0
 47
0.0
 48
0.0
 49
0.0
140
0.0
141
0.0
142
1.0
143
1.0
 70
   688
 72
     1
 73
     0
 74
     5
  7

 75
    16
147
1.0
148
0.0
149
0.0
100
AcDbLayout
  1
Layout2
 70
     1
 71
     2
 10
0.0
 20
0.0
 11
0.0
 21
0.0
 12
0.0
 22
0.0
 32
0.0
 14
0.0
 24
0.0
 34
0.0
 15
0.0
 25
0.0
 35
0.0
146
0.0
 13
0.0
 23
0.0
 33
0.0
 16
1.0
 26
0.0
 36
0.0
 17
0.0
 27
1.0
 37
0.0
 76
     0
330
23
  0
LAYOUT
  5
22
102
{ACAD_REACTORS
330
1A
102
}
330
1A
100
AcDbPlotSettings
  1

  2
none_device
  4
Letter_(8.50_x_11.00_Inches)
  6

 40
6.35
 41
6.35
 42
6.35000508
 43
6.35000508
 44
215.9
 45
279.4
 46
0.0
 47
0.0
 48
0.0
 49
0.0
140
0.0
141
0.0
142
1.0
143
1.0
 70
  1712
 72
     1
 73
     0
 74
     0
  7

 75
     0
147
1.0
148
0.0
149
0.0
100
AcDbLayout
  1
Model
 70
     1
 71
     0
 10
0.0
 20
0.0
 11
3454.4
 21
2235.2
 12
0.0
 22
0.0
 32
0.0
 14
0.0
 24
0.0
 34
0.0
 15
3454.4
 25
2235.2
 35
0.0
146
0.0
 13
0.0
 23
0.0
 33
0.0
 16
1.0
 26
0.0
 36
0.0
 17
0.0
 27
1.0
 37
0.0
 76
     0
330
1F
331
29
  0
MLINESTYLE
  5
18
102
{ACAD_REACTORS
330
17
102
}
330
17
100
AcDbMlineStyle
  2
Standard
 70
     0
  3

 62
   256
 51
90.0
 52
90.0
 71
     2
 49
0.5
 62
   256
  6
BYLAYER
 49
-0.5
 62
   256
  6
BYLAYER
  0
ACDBPLACEHOLDER
  5
F
102
{ACAD_REACTORS
330
E
102
}
330
E
  0
SCALE
  5
48
102
{ACAD_REACTORS
330
47
102
}
330
47
100
AcDbScale
 70
     0
300
1:1
140
1.0
141
1.0
290
     1
  0
SCALE
  5
49
102
{ACAD_REACTORS
330
47
102
}
330
47
100
AcDbScale
 70
     0
300
1:2
140
1.0
141
2.0
290
     0
  0
SCALE
  5
4A
102
{ACAD_REACTORS
330
47
102
}
330
47
100
AcDbScale
 70
     0
300
1:4
140
1.0
141
4.0
290
     0
  0
SCALE
  5
4B
102
{ACAD_REACTORS
330
47
102
}
330
47
100
AcDbScale
 70
     0
300
1:5
140
1.0
141
5.0
290
     0
  0
SCALE
  5
4C
102
{ACAD_REACTORS
330
47
102
}
330
47
100
AcDbScale
 70
     0
300
1:8
140
1.0
141
8.0
290
     0
  0
SCALE
  5
4D
102
{ACAD_REACTORS
330
47
102
}
330
47
100
AcDbScale
 70
     0
300
1:10
140
1.0
141
10.0
290
     0
  0
SCALE
  5
4E
102
{ACAD_REACTORS
330
47
102
}
330
47
100
AcDbScale
 70
     0
300
1:16
140
1.0
141
16.0
290
     0
  0
SCALE
  5
4F
102
{ACAD_REACTORS
330
47
102
}
330
47
100
AcDbScale
 70
     0
300
1:20
140
1.0
141
20.0
290
     0
  0
SCALE
  5
50
102
{ACAD_REACTORS
330
47
102
}
330
47
100
AcDbScale
 70
     0
300
1:30
140
1.0
141
30.0
290
     0
  0
SCALE
  5
51
102
{ACAD_REACTORS
330
47
102
}
330
47
100
AcDbScale
 70
     0
300
1:40
140
1.0
141
40.0
290
     0
  0
SCALE
  5
52
102
{ACAD_REACTORS
330
47
102
}
330
47
100
AcDbScale
 70
     0
300
1:50
140
1.0
141
50.0
290
     0
  0
SCALE
  5
53
102
{ACAD_REACTORS
330
47
102
}
330
47
100
AcDbScale
 70
     0
300
1:100
140
1.0
141
100.0
290
     0
  0
SCALE
  5
54
102
{ACAD_REACTORS
330
47
102
}
330
47
100
AcDbScale
 70
     0
300
2:1
140
2.0
141
1.0
290
     0
  0
SCALE
  5
55
102
{ACAD_REACTORS
330
47
102
}
330
47
100
AcDbScale
 70
     0
300
4:1
140
4.0
141
1.0
290
     0
  0
SCALE
  5
56
102
{ACAD_REACTORS
330
47
102
}
330
47
100
AcDbScale
 70
     0
300
8:1
140
8.0
141
1.0
290
     0
  0
SCALE
  5
57
102
{ACAD_REACTORS
330
47
102
}
330
47
100
AcDbScale
 70
     0
300
10:1
140
10.0
141
1.0
290
     0
  0
SCALE
  5
58
102
{ACAD_REACTORS
330
47
102
}
330
47
100
AcDbScale
 70
     0
300
100:1
140
100.0
141
1.0
290
     0
  0
ENDSEC
  0
EOF
