999
DXF file: D:\Agile attachment\ECO-113425\fg-901546-2d-B.dxf
999
Pro/ENGINEER 2022014 by Parametric Technology Corporation
  0
SECTION
  2
HEADER
  9
$ACADVER
  1
AC1015
  9
$DWGCODEPAGE
  3
ANSI_1252
  9
$EXTMAX
 10
3022.6
 20
1955.8
 30
0.0
  9
$EXTMIN
 10
0.0
 20
0.0
 30
0.0
  9
$LIMMIN
 10
0.0
 20
0.0
  9
$LIMMAX
 10
3022.6
 20
1955.8
  9
$VIEWCTR
 10
1511.3
 20
977.9
  9
$VIEWSIZE
 40
1955.8
  9
$CLAYER
  8
0
  9
$LTSCALE
 40
166.243
  9
$CELTYPE
  6
BYLAYER
  9
$DIMSCALE
 40
1.0
  9
$DIMASZ
 40
14.0
  9
$DIMEXO
 40
1.5875
  9
$DIMDLI
 40
114.8588
  9
$DIMEXE
 40
3.175
  9
$DIMCEN
 40
27.2034
  9
$DIMLFAC
 40
1.0
  9
$DIMBLK
  1
_FILLED
  9
$DIMALT
 70
1
  9
$DIMALTD
 70
1
  9
$DIMALTTD
 70
2
  9
$DIMALTF
 40
0.0393700787
  9
$DIMTXT
 40
16.002
  9
$DIMTOL
 70
1
  9
$DIMLIM
 70
0
  9
$DIMTFAC
 40
1.0
  9
$DIMTP
 40
0.02
  9
$DIMTM
 40
0.02
  9
$DIMGAP
 40
0.625
  9
$DIMDSEP
 70
46
  9
$AUNITS
 70
0
  9
$PDMODE
 70
3
  9
$PDSIZE
 40
7.9375
  9
$HANDSEED
  5
743
  9
$TILEMODE
 70
1
  9
$MEASUREMENT
 70
1
  9
$INSUNITS
 70
4
  0
ENDSEC
  0
SECTION
  2
CLASSES
  0
CLASS
  1
ACDBDICTIONARYWDFLT
  2
AcDbDictionaryWithDefault
  3
AutoCAD 2000
 90
0
280
0
281
0
  0
CLASS
  1
ACDBPLACEHOLDER
  2
AcDbPlaceHolder
  3
AutoCAD 2000
 90
0
280
0
281
0
  0
CLASS
  1
LAYOUT
  2
AcDbLayout
  3
AutoCAD 2000
 90
0
280
0
281
0
  0
ENDSEC
  0
SECTION
  2
TABLES
  0
TABLE
  2
VPORT
  5
8
100
AcDbSymbolTable
 70
2
  0
VPORT
  5
1F4
100
AcDbSymbolTableRecord
100
AcDbViewportTableRecord
  2
*ACTIVE
 70
0
 10
0.0
 20
0.0
 11
1.0
 21
1.0
 12
1511.3
 22
977.9
 13
0.0
 23
0.0
 14
1.0
 24
1.0
 15
0.0
 25
0.0
 16
0.0
 26
0.0
 36
1.0
 17
0.0
 27
0.0
 37
0.0
 40
1955.8
 41
1.5454545455
 42
50.0
 43
0.0
 44
0.0
 50
0.0
 51
0.0
 71
0
 72
100
 73
1
 74
1
 75
0
 76
0
 77
0
 78
0
  0
ENDTAB
  0
TABLE
  2
LTYPE
  5
5
100
AcDbSymbolTable
 70
6
  0
LTYPE
  5
14
100
AcDbSymbolTableRecord
100
AcDbLinetypeTableRecord
  2
BYBLOCK
 70
0
  3

 72
65
 73
0
 40
0.0
  0
LTYPE
  5
15
100
AcDbSymbolTableRecord
100
AcDbLinetypeTableRecord
  2
BYLAYER
 70
0
  3

 72
65
 73
0
 40
0.0
  0
LTYPE
  5
16
100
AcDbSymbolTableRecord
100
AcDbLinetypeTableRecord
  2
CONTINUOUS
 70
64
  3
Solid line
 72
65
 73
0
 40
0.0
  0
LTYPE
  5
1F5
100
AcDbSymbolTableRecord
100
AcDbLinetypeTableRecord
  2
CENTER
 70
64
  3
____ _ ____ _ ____ _ ____ _ ____ _ ____ _ ____
 72
65
 73
4
 40
0.6
 49
0.375
 74
0
 49
-0.075
 74
0
 49
0.075
 74
0
 49
-0.075
 74
0
  0
LTYPE
  5
1F6
100
AcDbSymbolTableRecord
100
AcDbLinetypeTableRecord
  2
HIDDEN
 70
64
  3
- - - - - - - - - - - - - - - - - - - -
 72
65
 73
2
 40
0.2
 49
0.1
 74
0
 49
-0.1
 74
0
  0
LTYPE
  5
1F7
100
AcDbSymbolTableRecord
100
AcDbLinetypeTableRecord
  2
PHANTOM
 70
64
  3
_____ _ _ _____ _ _ _____ _ _ _____
 72
65
 73
6
 40
0.8
 49
0.45
 74
0
 49
-0.05
 74
0
 49
0.1
 74
0
 49
-0.05
 74
0
 49
0.1
 74
0
 49
-0.05
 74
0
  0
LTYPE
  5
1F8
100
AcDbSymbolTableRecord
100
AcDbLinetypeTableRecord
  2
DOT
 70
64
  3
. . . . . . . . . . . . . . . . . . . .
 72
65
 73
2
 40
0.2
 49
0.1
 74
0
 49
-0.1
 74
0
  0
LTYPE
  5
1F9
100
AcDbSymbolTableRecord
100
AcDbLinetypeTableRecord
  2
DASHED
 70
64
  3
- - - - - - - - - - - - - - - - - - - -
 72
65
 73
2
 40
0.2
 49
0.1
 74
0
 49
-0.1
 74
0
  0
ENDTAB
  0
TABLE
  2
LAYER
  5
2
100
AcDbSymbolTable
 70
36
  0
LAYER
  5
10
100
AcDbSymbolTableRecord
100
AcDbLayerTableRecord
  2
0
 70
0
 62
7
  6
CONTINUOUS
370
-3
390
F
  0
LAYER
  5
1FA
100
AcDbSymbolTableRecord
100
AcDbLayerTableRecord
  2
DEFAULT_1
 70
0
 62
7
  6
CENTER
370
-3
390
F
  0
LAYER
  5
1FB
100
AcDbSymbolTableRecord
100
AcDbLayerTableRecord
  2
DEFAULT_2
 70
0
 62
8
  6
HIDDEN
370
-3
390
F
  0
LAYER
  5
1FC
100
AcDbSymbolTableRecord
100
AcDbLayerTableRecord
  2
DEFAULT_3
 70
0
 62
7
  6
PHANTOM
370
-3
390
F
  0
LAYER
  5
1FD
100
AcDbSymbolTableRecord
100
AcDbLayerTableRecord
  2
1_ALL_PLANES
 70
0
 62
7
  6
CONTINUOUS
370
-3
390
F
  0
LAYER
  5
1FE
100
AcDbSymbolTableRecord
100
AcDbLayerTableRecord
  2
1_DEF_PLANES
 70
0
 62
7
  6
CONTINUOUS
370
-3
390
F
  0
LAYER
  5
1FF
100
AcDbSymbolTableRecord
100
AcDbLayerTableRecord
  2
2_ALL_CSYS
 70
0
 62
7
  6
CONTINUOUS
370
-3
390
F
  0
LAYER
  5
200
100
AcDbSymbolTableRecord
100
AcDbLayerTableRecord
  2
2_DEF_CSYS
 70
0
 62
7
  6
CONTINUOUS
370
-3
390
F
  0
LAYER
  5
201
100
AcDbSymbolTableRecord
100
AcDbLayerTableRecord
  2
3_ALL_AXES
 70
0
 62
7
  6
CONTINUOUS
370
-3
390
F
  0
LAYER
  5
202
100
AcDbSymbolTableRecord
100
AcDbLayerTableRecord
  2
3_AXES_OTHER
 70
0
 62
7
  6
CONTINUOUS
370
-3
390
F
  0
LAYER
  5
203
100
AcDbSymbolTableRecord
100
AcDbLayerTableRecord
  2
3_HOLES
 70
0
 62
7
  6
CONTINUOUS
370
-3
390
F
  0
LAYER
  5
204
100
AcDbSymbolTableRecord
100
AcDbLayerTableRecord
  2
4_ALL_POINTS
 70
0
 62
7
  6
CONTINUOUS
370
-3
390
F
  0
LAYER
  5
205
100
AcDbSymbolTableRecord
100
AcDbLayerTableRecord
  2
5_ALL_CURVES
 70
0
 62
7
  6
CONTINUOUS
370
-3
390
F
  0
LAYER
  5
206
100
AcDbSymbolTableRecord
100
AcDbLayerTableRecord
  2
6_ALL_SURFS
 70
0
 62
7
  6
CONTINUOUS
370
-3
390
F
  0
LAYER
  5
207
100
AcDbSymbolTableRecord
100
AcDbLayerTableRecord
  2
6_COPYGEOM
 70
0
 62
7
  6
CONTINUOUS
370
-3
390
F
  0
LAYER
  5
208
100
AcDbSymbolTableRecord
100
AcDbLayerTableRecord
  2
7_ALL_ROUNDS
 70
0
 62
7
  6
CONTINUOUS
370
-3
390
F
  0
LAYER
  5
209
100
AcDbSymbolTableRecord
100
AcDbLayerTableRecord
  2
7_MERGES
 70
0
 62
7
  6
CONTINUOUS
370
-3
390
F
  0
LAYER
  5
20A
100
AcDbSymbolTableRecord
100
AcDbLayerTableRecord
  2
8_GDT
 70
0
 62
7
  6
CONTINUOUS
370
-3
390
F
  0
LAYER
  5
20B
100
AcDbSymbolTableRecord
100
AcDbLayerTableRecord
  2
8_SET_DATUMS
 70
0
 62
7
  6
CONTINUOUS
370
-3
390
F
  0
LAYER
  5
20C
100
AcDbSymbolTableRecord
100
AcDbLayerTableRecord
  2
9_COSMETICS
 70
0
 62
7
  6
CONTINUOUS
370
-3
390
F
  0
LAYER
  5
20D
100
AcDbSymbolTableRecord
100
AcDbLayerTableRecord
  2
9_THREADS
 70
0
 62
7
  6
CONTINUOUS
370
-3
390
F
  0
ENDTAB
  0
TABLE
  2
STYLE
  5
3
100
AcDbSymbolTable
 70
1
  0
STYLE
  5
11
100
AcDbSymbolTableRecord
100
AcDbTextStyleTableRecord
  2
STANDARD
 70
0
 40
0.0
 41
1.0
 50
0.0
 71
0
 42
0.2
  3
gothic.ttf
  4

1001
ACAD
1000
Century Gothic
1071
34
  0
STYLE
  5
20E
100
AcDbSymbolTableRecord
100
AcDbTextStyleTableRecord
  2
TEXTSTYLE_1
 70
0
 40
0.0
 41
0.8
 50
0.0
 71
0
 42
0.2
  3
gdt
  4

  0
STYLE
  5
20F
100
AcDbSymbolTableRecord
100
AcDbTextStyleTableRecord
  2
TEXTSTYLE_2
 70
0
 40
0.0
 41
1.0
 50
0.0
 71
0
 42
0.2
  3
gothic.ttf
  4

1001
ACAD
1000
Century Gothic
1071
34
  0
STYLE
  5
210
100
AcDbSymbolTableRecord
100
AcDbTextStyleTableRecord
  2
TEXTSTYLE_3
 70
0
 40
0.0
 41
1.0
 50
0.0
 71
0
 42
0.2
  3
ar_wgl_b.ttf
  4

1001
ACAD
1000
Arial WGL
1071
33554466
  0
STYLE
  5
211
100
AcDbSymbolTableRecord
100
AcDbTextStyleTableRecord
  2
TEXTSTYLE_4
 70
0
 40
0.0
 41
1.0
 50
0.0
 71
0
 42
0.2
  3
gdt
  4

  0
ENDTAB
  0
TABLE
  2
VIEW
  5
6
100
AcDbSymbolTable
 70
0
  0
ENDTAB
  0
TABLE
  2
UCS
  5
7
100
AcDbSymbolTable
 70
0
  0
ENDTAB
  0
TABLE
  2
APPID
  5
9
100
AcDbSymbolTable
 70
1
  0
APPID
  5
212
100
AcDbSymbolTableRecord
100
AcDbRegAppTableRecord
  2
ACAD
 70
0
  0
ENDTAB
  0
TABLE
  2
BLOCK_RECORD
  5
1
100
AcDbSymbolTable
 70
0
  0
BLOCK_RECORD
  5
213
100
AcDbSymbolTableRecord
100
AcDbBlockTableRecord
  2
*Model_Space
  0
BLOCK_RECORD
  5
214
100
AcDbSymbolTableRecord
100
AcDbBlockTableRecord
  2
*Paper_Space
  0
BLOCK_RECORD
  5
215
100
AcDbSymbolTableRecord
100
AcDbBlockTableRecord
  2
_FILLED
  0
BLOCK_RECORD
  5
216
100
AcDbSymbolTableRecord
100
AcDbBlockTableRecord
  2
XSEC_FILLED
  0
BLOCK_RECORD
  5
217
100
AcDbSymbolTableRecord
100
AcDbBlockTableRecord
  2
*D0
  0
BLOCK_RECORD
  5
218
100
AcDbSymbolTableRecord
100
AcDbBlockTableRecord
  2
*D1
  0
BLOCK_RECORD
  5
219
100
AcDbSymbolTableRecord
100
AcDbBlockTableRecord
  2
*D2
  0
BLOCK_RECORD
  5
21A
100
AcDbSymbolTableRecord
100
AcDbBlockTableRecord
  2
*D3
  0
BLOCK_RECORD
  5
21B
100
AcDbSymbolTableRecord
100
AcDbBlockTableRecord
  2
*D4
  0
BLOCK_RECORD
  5
21C
100
AcDbSymbolTableRecord
100
AcDbBlockTableRecord
  2
*D5
  0
BLOCK_RECORD
  5
21D
100
AcDbSymbolTableRecord
100
AcDbBlockTableRecord
  2
*D6
  0
BLOCK_RECORD
  5
21E
100
AcDbSymbolTableRecord
100
AcDbBlockTableRecord
  2
*D7
  0
BLOCK_RECORD
  5
21F
100
AcDbSymbolTableRecord
100
AcDbBlockTableRecord
  2
*D8
  0
BLOCK_RECORD
  5
220
100
AcDbSymbolTableRecord
100
AcDbBlockTableRecord
  2
*D9
  0
BLOCK_RECORD
  5
221
100
AcDbSymbolTableRecord
100
AcDbBlockTableRecord
  2
*D10
  0
BLOCK_RECORD
  5
222
100
AcDbSymbolTableRecord
100
AcDbBlockTableRecord
  2
*D11
  0
BLOCK_RECORD
  5
223
100
AcDbSymbolTableRecord
100
AcDbBlockTableRecord
  2
*D12
  0
BLOCK_RECORD
  5
224
100
AcDbSymbolTableRecord
100
AcDbBlockTableRecord
  2
*D13
  0
BLOCK_RECORD
  5
225
100
AcDbSymbolTableRecord
100
AcDbBlockTableRecord
  2
*D14
  0
BLOCK_RECORD
  5
226
100
AcDbSymbolTableRecord
100
AcDbBlockTableRecord
  2
*D15
  0
BLOCK_RECORD
  5
227
100
AcDbSymbolTableRecord
100
AcDbBlockTableRecord
  2
*D16
  0
BLOCK_RECORD
  5
228
100
AcDbSymbolTableRecord
100
AcDbBlockTableRecord
  2
*D17
  0
BLOCK_RECORD
  5
229
100
AcDbSymbolTableRecord
100
AcDbBlockTableRecord
  2
*D18
  0
BLOCK_RECORD
  5
22A
100
AcDbSymbolTableRecord
100
AcDbBlockTableRecord
  2
*D19
  0
BLOCK_RECORD
  5
22B
100
AcDbSymbolTableRecord
100
AcDbBlockTableRecord
  2
*D20
  0
BLOCK_RECORD
  5
22C
100
AcDbSymbolTableRecord
100
AcDbBlockTableRecord
  2
CG_3D_BL2
  0
BLOCK_RECORD
  5
22D
100
AcDbSymbolTableRecord
100
AcDbBlockTableRecord
  2
CG_3D_BL1
  0
BLOCK_RECORD
  5
22E
100
AcDbSymbolTableRecord
100
AcDbBlockTableRecord
  2
CG_3D_BL0
  0
ENDTAB
  0
TABLE
  2
DIMSTYLE
  5
A
100
AcDbSymbolTable
 70
1
100
AcDbDimStyleTable
 71
0
  0
DIMSTYLE
105
22F
100
AcDbSymbolTableRecord
100
AcDbDimStyleTableRecord
  2
STANDARD
 70
0
  3

  4

 40
1.0
 41
14.0
 42
1.5875
 43
0.38
 44
3.175
 45
0.0
 46
0.0
 47
0.02
 48
0.02
140
16.002
141
0.09
142
0.0
143
0.0393700787
144
1.0
145
0.0
146
1.0
147
0.625
 71
1
 72
0
 73
1
 74
1
 75
0
 76
0
 77
0
 78
4
 79
1
170
1
171
1
172
0
173
0
174
0
175
0
176
0
177
0
178
0
270
2
179
2
271
2
272
2
273
2
274
2
275
0
280
0
281
0
282
0
283
1
284
4
285
0
286
0
287
3
288
0
340
11
278
46
341
215
342
215
343
215
344
215
  0
DIMSTYLE
105
230
100
AcDbSymbolTableRecord
100
AcDbDimStyleTableRecord
  2
DIMSTYLE_1
 70
0
  3

  4

 40
1.0
 41
14.0
 42
1.5875
 43
0.38
 44
3.175
 45
0.0
 46
0.0
 47
0.02
 48
0.02
140
16.002
141
0.09
142
0.0
143
0.0393700787
144
1.0
145
0.0
146
1.0
147
1.143
 71
0
 72
0
 73
1
 74
1
 75
0
 76
0
 77
0
 78
4
 79
1
170
1
171
2
172
0
173
0
174
0
175
0
176
0
177
0
178
0
270
2
179
2
271
1
272
1
273
2
274
2
275
0
280
0
281
0
282
0
283
1
284
4
285
0
286
0
287
3
288
0
340
11
278
46
341
215
342
215
343
215
344
215
  0
DIMSTYLE
105
231
100
AcDbSymbolTableRecord
100
AcDbDimStyleTableRecord
  2
DIMSTYLE_2
 70
0
  3

  4

 40
1.0
 41
14.0
 42
1.5875
 43
0.38
 44
3.175
 45
0.0
 46
0.0
 47
0.5
 48
0.5
140
16.002
141
0.09
142
0.0
143
0.0393700787
144
1.0
145
0.0
146
1.0
147
1.143
 71
0
 72
0
 73
1
 74
1
 75
0
 76
0
 77
0
 78
4
 79
1
170
0
171
1
172
0
173
0
174
0
175
0
176
0
177
0
178
0
270
2
179
2
271
0
272
0
273
2
274
2
275
0
280
0
281
0
282
0
283
1
284
4
285
0
286
0
287
3
288
0
340
11
278
46
341
215
342
215
343
215
344
215
  0
ENDTAB
  0
ENDSEC
  0
SECTION
  2
BLOCKS
  0
BLOCK
  5
20
100
AcDbEntity
  8
0
100
AcDbBlockBegin
  2
*Model_Space
 70
0
 10
0.0
 20
0.0
 30
0.0
  3
*Model_Space
  1

  0
ENDBLK
  5
21
100
AcDbEntity
  8
0
100
AcDbBlockEnd
  0
BLOCK
  5
1C
100
AcDbEntity
  8
0
100
AcDbBlockBegin
  2
*Paper_Space
 70
0
 10
0.0
 20
0.0
 30
0.0
  3
*Paper_Space
  1

  0
ENDBLK
  5
1D
100
AcDbEntity
  8
0
100
AcDbBlockEnd
  0
BLOCK
  5
232
100
AcDbEntity
  8
0
100
AcDbBlockBegin
 62
2
  6
CONTINUOUS
  2
CG_3D_BL2
 70
64
 10
262.3341513
 20
838.3566303831
  3
CG_3D_BL2
  1

  0
ARC
  5
233
100
AcDbEntity
  8
0
100
AcDbCircle
 62
7
  6
CONTINUOUS
 10
262.3341513
 20
838.3566303831
 40
14.0
100
AcDbArc
 50
90.0
 51
180.0
  0
ARC
  5
234
100
AcDbEntity
  8
0
100
AcDbCircle
 62
7
  6
CONTINUOUS
 10
262.3341513
 20
838.3566303831
 40
14.0
100
AcDbArc
 50
180.0
 51
270.0
  0
ARC
  5
235
100
AcDbEntity
  8
0
100
AcDbCircle
 62
7
  6
CONTINUOUS
 10
262.3341513
 20
838.3566303831
 40
14.0
100
AcDbArc
 50
270.0
 51
360.0
  0
ARC
  5
236
100
AcDbEntity
  8
0
100
AcDbCircle
 62
7
  6
CONTINUOUS
 10
262.3341513
 20
838.3566303831
 40
14.0
100
AcDbArc
 50
0.0
 51
90.0
  0
LINE
  5
237
100
AcDbEntity
  8
0
100
AcDbLine
 62
7
  6
CONTINUOUS
 10
262.3341513
 20
838.3566303831
 11
276.3341513
 21
838.3566303831
  0
LINE
  5
238
100
AcDbEntity
  8
0
100
AcDbLine
 62
7
  6
CONTINUOUS
 10
262.3341513
 20
838.3566303831
 11
262.3341513
 21
824.3566303831
  0
LINE
  5
239
100
AcDbEntity
  8
0
100
AcDbLine
 62
7
  6
CONTINUOUS
 10
248.3341513
 20
838.3566303831
 11
262.3341513
 21
838.3566303831
  0
LINE
  5
23A
100
AcDbEntity
  8
0
100
AcDbLine
 62
7
  6
CONTINUOUS
 10
262.3341513
 20
852.3566303831
 11
262.3341513
 21
838.3566303831
  0
LINE
  5
23B
100
AcDbEntity
  8
0
100
AcDbLine
 62
2
  6
CONTINUOUS
 10
262.3341513
 20
838.264361152
 11
262.426420531
 21
838.3566303831
  0
LWPOLYLINE
  5
23C
100
AcDbEntity
  8
0
100
AcDbPolyline
 62
7
  6
CONTINUOUS
 90
8
 70
0
 10
262.3341513
 20
838.3566303831
 10
262.3341513
 20
824.3566303831
 10
266.6603892212
 20
825.041839155
 10
270.5631448321
 20
827.0303924619
 10
273.6603892212
 20
830.127636851
 10
275.6489425281
 20
834.0303924619
 10
276.3341513
 20
838.3566303831
 10
262.3341513
 20
838.3566303831
  0
HATCH
  5
23D
100
AcDbEntity
  8
0
100
AcDbHatch
 62
7
  6
CONTINUOUS
 10
0.0
 20
0.0
 30
0.0
210
0.0
220
0.0
230
1.0
  2
SOLID
 70
1
 71
1
 91
1
 92
1
 93
7
 72
1
 10
262.3341513
 20
838.3566303831
 11
262.3341513
 21
824.3566303831
 72
1
 10
262.3341513
 20
824.3566303831
 11
266.6603892212
 21
825.041839155
 72
1
 10
266.6603892212
 20
825.041839155
 11
270.5631448321
 21
827.0303924619
 72
1
 10
270.5631448321
 20
827.0303924619
 11
273.6603892212
 21
830.127636851
 72
1
 10
273.6603892212
 20
830.127636851
 11
275.6489425281
 21
834.0303924619
 72
1
 10
275.6489425281
 20
834.0303924619
 11
276.3341513
 21
838.3566303831
 72
1
 10
276.3341513
 20
838.3566303831
 11
262.3341513
 21
838.3566303831
 97
1
330
23C
 75
0
 76
1
 98
1
 10
0.0
 20
0.0
  0
LWPOLYLINE
  5
23E
100
AcDbEntity
  8
0
100
AcDbPolyline
 62
7
  6
CONTINUOUS
 90
8
 70
0
 10
262.3341513
 20
838.3566303831
 10
248.3341513
 20
838.3566303831
 10
249.0193600718
 20
842.6828683044
 10
251.0079133787
 20
846.5856239152
 10
254.1051577679
 20
849.6828683044
 10
258.0079133787
 20
851.6714216113
 10
262.3341513
 20
852.3566303831
 10
262.3341513
 20
838.3566303831
  0
HATCH
  5
23F
100
AcDbEntity
  8
0
100
AcDbHatch
 62
7
  6
CONTINUOUS
 10
0.0
 20
0.0
 30
0.0
210
0.0
220
0.0
230
1.0
  2
SOLID
 70
1
 71
1
 91
1
 92
1
 93
7
 72
1
 10
262.3341513
 20
838.3566303831
 11
248.3341513
 21
838.3566303831
 72
1
 10
248.3341513
 20
838.3566303831
 11
249.0193600718
 21
842.6828683044
 72
1
 10
249.0193600718
 20
842.6828683044
 11
251.0079133787
 21
846.5856239152
 72
1
 10
251.0079133787
 20
846.5856239152
 11
254.1051577679
 21
849.6828683044
 72
1
 10
254.1051577679
 20
849.6828683044
 11
258.0079133787
 21
851.6714216113
 72
1
 10
258.0079133787
 20
851.6714216113
 11
262.3341513
 21
852.3566303831
 72
1
 10
262.3341513
 20
852.3566303831
 11
262.3341513
 21
838.3566303831
 97
1
330
23E
 75
0
 76
1
 98
1
 10
0.0
 20
0.0
  0
ENDBLK
  5
240
100
AcDbEntity
  8
0
  6
BYBLOCK
 62
0
100
AcDbBlockEnd
  0
BLOCK
  5
241
100
AcDbEntity
  8
0
100
AcDbBlockBegin
 62
2
  6
CONTINUOUS
  2
CG_3D_BL1
 70
64
 10
887.7514368407
 20
838.3683549162
  3
CG_3D_BL1
  1

  0
ARC
  5
242
100
AcDbEntity
  8
0
100
AcDbCircle
 62
7
  6
CONTINUOUS
 10
887.7514368407
 20
838.3683549162
 40
14.0
100
AcDbArc
 50
90.0
 51
180.0
  0
ARC
  5
243
100
AcDbEntity
  8
0
100
AcDbCircle
 62
7
  6
CONTINUOUS
 10
887.7514368407
 20
838.3683549162
 40
14.0
100
AcDbArc
 50
180.0
 51
270.0
  0
ARC
  5
244
100
AcDbEntity
  8
0
100
AcDbCircle
 62
7
  6
CONTINUOUS
 10
887.7514368407
 20
838.3683549162
 40
14.0
100
AcDbArc
 50
270.0
 51
360.0
  0
ARC
  5
245
100
AcDbEntity
  8
0
100
AcDbCircle
 62
7
  6
CONTINUOUS
 10
887.7514368407
 20
838.3683549162
 40
14.0
100
AcDbArc
 50
0.0
 51
90.0
  0
LINE
  5
246
100
AcDbEntity
  8
0
100
AcDbLine
 62
7
  6
CONTINUOUS
 10
887.7514368407
 20
838.3683549162
 11
901.7514368407
 21
838.3683549162
  0
LINE
  5
247
100
AcDbEntity
  8
0
100
AcDbLine
 62
7
  6
CONTINUOUS
 10
887.7514368407
 20
838.3683549162
 11
887.7514368407
 21
824.3683549162
  0
LINE
  5
248
100
AcDbEntity
  8
0
100
AcDbLine
 62
7
  6
CONTINUOUS
 10
873.7514368407
 20
838.3683549162
 11
887.7514368407
 21
838.3683549162
  0
LINE
  5
249
100
AcDbEntity
  8
0
100
AcDbLine
 62
7
  6
CONTINUOUS
 10
887.7514368407
 20
852.3683549162
 11
887.7514368407
 21
838.3683549162
  0
LINE
  5
24A
100
AcDbEntity
  8
0
100
AcDbLine
 62
2
  6
CONTINUOUS
 10
887.7514368407
 20
838.2760856851
 11
887.8437060718
 21
838.3683549162
  0
LWPOLYLINE
  5
24B
100
AcDbEntity
  8
0
100
AcDbPolyline
 62
7
  6
CONTINUOUS
 90
8
 70
0
 10
887.7514368407
 20
838.3683549162
 10
887.7514368407
 20
824.3683549162
 10
892.077674762
 20
825.0535636881
 10
895.9804303728
 20
827.0421169949
 10
899.077674762
 20
830.1393613841
 10
901.0662280688
 20
834.0421169949
 10
901.7514368407
 20
838.3683549162
 10
887.7514368407
 20
838.3683549162
  0
HATCH
  5
24C
100
AcDbEntity
  8
0
100
AcDbHatch
 62
7
  6
CONTINUOUS
 10
0.0
 20
0.0
 30
0.0
210
0.0
220
0.0
230
1.0
  2
SOLID
 70
1
 71
1
 91
1
 92
1
 93
7
 72
1
 10
887.7514368407
 20
838.3683549162
 11
887.7514368407
 21
824.3683549162
 72
1
 10
887.7514368407
 20
824.3683549162
 11
892.077674762
 21
825.0535636881
 72
1
 10
892.077674762
 20
825.0535636881
 11
895.9804303728
 21
827.0421169949
 72
1
 10
895.9804303728
 20
827.0421169949
 11
899.077674762
 21
830.1393613841
 72
1
 10
899.077674762
 20
830.1393613841
 11
901.0662280688
 21
834.0421169949
 72
1
 10
901.0662280688
 20
834.0421169949
 11
901.7514368407
 21
838.3683549162
 72
1
 10
901.7514368407
 20
838.3683549162
 11
887.7514368407
 21
838.3683549162
 97
1
330
24B
 75
0
 76
1
 98
1
 10
0.0
 20
0.0
  0
LWPOLYLINE
  5
24D
100
AcDbEntity
  8
0
100
AcDbPolyline
 62
7
  6
CONTINUOUS
 90
8
 70
0
 10
887.7514368407
 20
838.3683549162
 10
873.7514368407
 20
838.3683549162
 10
874.4366456126
 20
842.6945928374
 10
876.4251989195
 20
846.5973484483
 10
879.5224433086
 20
849.6945928374
 10
883.4251989195
 20
851.6831461443
 10
887.7514368407
 20
852.3683549162
 10
887.7514368407
 20
838.3683549162
  0
HATCH
  5
24E
100
AcDbEntity
  8
0
100
AcDbHatch
 62
7
  6
CONTINUOUS
 10
0.0
 20
0.0
 30
0.0
210
0.0
220
0.0
230
1.0
  2
SOLID
 70
1
 71
1
 91
1
 92
1
 93
7
 72
1
 10
887.7514368407
 20
838.3683549162
 11
873.7514368407
 21
838.3683549162
 72
1
 10
873.7514368407
 20
838.3683549162
 11
874.4366456126
 21
842.6945928374
 72
1
 10
874.4366456126
 20
842.6945928374
 11
876.4251989195
 21
846.5973484483
 72
1
 10
876.4251989195
 20
846.5973484483
 11
879.5224433086
 21
849.6945928374
 72
1
 10
879.5224433086
 20
849.6945928374
 11
883.4251989195
 21
851.6831461443
 72
1
 10
883.4251989195
 20
851.6831461443
 11
887.7514368407
 21
852.3683549162
 72
1
 10
887.7514368407
 20
852.3683549162
 11
887.7514368407
 21
838.3683549162
 97
1
330
24D
 75
0
 76
1
 98
1
 10
0.0
 20
0.0
  0
ENDBLK
  5
24F
100
AcDbEntity
  8
0
  6
BYBLOCK
 62
0
100
AcDbBlockEnd
  0
BLOCK
  5
250
100
AcDbEntity
  8
0
100
AcDbBlockBegin
 62
2
  6
CONTINUOUS
  2
CG_3D_BL0
 70
64
 10
217.280453891
 20
1774.8480530794
  3
CG_3D_BL0
  1

  0
ARC
  5
251
100
AcDbEntity
  8
0
100
AcDbCircle
 62
7
  6
CONTINUOUS
 10
217.280453891
 20
1774.8480530794
 40
11.375
100
AcDbArc
 50
90.0
 51
180.0
  0
ARC
  5
252
100
AcDbEntity
  8
0
100
AcDbCircle
 62
7
  6
CONTINUOUS
 10
217.280453891
 20
1774.8480530794
 40
11.375
100
AcDbArc
 50
180.0
 51
270.0
  0
ARC
  5
253
100
AcDbEntity
  8
0
100
AcDbCircle
 62
7
  6
CONTINUOUS
 10
217.280453891
 20
1774.8480530794
 40
11.375
100
AcDbArc
 50
270.0
 51
360.0
  0
ARC
  5
254
100
AcDbEntity
  8
0
100
AcDbCircle
 62
7
  6
CONTINUOUS
 10
217.280453891
 20
1774.8480530794
 40
11.375
100
AcDbArc
 50
0.0
 51
90.0
  0
LINE
  5
255
100
AcDbEntity
  8
0
100
AcDbLine
 62
7
  6
CONTINUOUS
 10
217.280453891
 20
1774.8480530794
 11
228.655453891
 21
1774.8480530794
  0
LINE
  5
256
100
AcDbEntity
  8
0
100
AcDbLine
 62
7
  6
CONTINUOUS
 10
217.280453891
 20
1774.8480530794
 11
217.280453891
 21
1763.4730530794
  0
LINE
  5
257
100
AcDbEntity
  8
0
100
AcDbLine
 62
7
  6
CONTINUOUS
 10
205.905453891
 20
1774.8480530794
 11
217.280453891
 21
1774.8480530794
  0
LINE
  5
258
100
AcDbEntity
  8
0
100
AcDbLine
 62
7
  6
CONTINUOUS
 10
217.280453891
 20
1786.2230530794
 11
217.280453891
 21
1774.8480530794
  0
LINE
  5
259
100
AcDbEntity
  8
0
100
AcDbLine
 62
2
  6
CONTINUOUS
 10
217.280453891
 20
1774.7730843291
 11
217.3554226413
 21
1774.8480530794
  0
LWPOLYLINE
  5
25A
100
AcDbEntity
  8
0
100
AcDbPolyline
 62
7
  6
CONTINUOUS
 90
8
 70
0
 10
217.280453891
 20
1774.8480530794
 10
217.280453891
 20
1763.4730530794
 10
220.795522202
 20
1764.0297852065
 10
223.9665111358
 20
1765.6454847684
 10
226.483022202
 20
1768.1619958346
 10
228.0987217638
 20
1771.3329847684
 10
228.655453891
 20
1774.8480530794
 10
217.280453891
 20
1774.8480530794
  0
HATCH
  5
25B
100
AcDbEntity
  8
0
100
AcDbHatch
 62
7
  6
CONTINUOUS
 10
0.0
 20
0.0
 30
0.0
210
0.0
220
0.0
230
1.0
  2
SOLID
 70
1
 71
1
 91
1
 92
1
 93
7
 72
1
 10
217.280453891
 20
1774.8480530794
 11
217.280453891
 21
1763.4730530794
 72
1
 10
217.280453891
 20
1763.4730530794
 11
220.795522202
 21
1764.0297852065
 72
1
 10
220.795522202
 20
1764.0297852065
 11
223.9665111358
 21
1765.6454847684
 72
1
 10
223.9665111358
 20
1765.6454847684
 11
226.483022202
 21
1768.1619958346
 72
1
 10
226.483022202
 20
1768.1619958346
 11
228.0987217638
 21
1771.3329847684
 72
1
 10
228.0987217638
 20
1771.3329847684
 11
228.655453891
 21
1774.8480530794
 72
1
 10
228.655453891
 20
1774.8480530794
 11
217.280453891
 21
1774.8480530794
 97
1
330
25A
 75
0
 76
1
 98
1
 10
0.0
 20
0.0
  0
LWPOLYLINE
  5
25C
100
AcDbEntity
  8
0
100
AcDbPolyline
 62
7
  6
CONTINUOUS
 90
8
 70
0
 10
217.280453891
 20
1774.8480530794
 10
205.905453891
 20
1774.8480530794
 10
206.4621860181
 20
1778.3631213904
 10
208.07788558
 20
1781.5341103242
 10
210.5943966462
 20
1784.0506213904
 10
213.76538558
 20
1785.6663209523
 10
217.280453891
 20
1786.2230530794
 10
217.280453891
 20
1774.8480530794
  0
HATCH
  5
25D
100
AcDbEntity
  8
0
100
AcDbHatch
 62
7
  6
CONTINUOUS
 10
0.0
 20
0.0
 30
0.0
210
0.0
220
0.0
230
1.0
  2
SOLID
 70
1
 71
1
 91
1
 92
1
 93
7
 72
1
 10
217.280453891
 20
1774.8480530794
 11
205.905453891
 21
1774.8480530794
 72
1
 10
205.905453891
 20
1774.8480530794
 11
206.4621860181
 21
1778.3631213904
 72
1
 10
206.4621860181
 20
1778.3631213904
 11
208.07788558
 21
1781.5341103242
 72
1
 10
208.07788558
 20
1781.5341103242
 11
210.5943966462
 21
1784.0506213904
 72
1
 10
210.5943966462
 20
1784.0506213904
 11
213.76538558
 21
1785.6663209523
 72
1
 10
213.76538558
 20
1785.6663209523
 11
217.280453891
 21
1786.2230530794
 72
1
 10
217.280453891
 20
1786.2230530794
 11
217.280453891
 21
1774.8480530794
 97
1
330
25C
 75
0
 76
1
 98
1
 10
0.0
 20
0.0
  0
ENDBLK
  5
25E
100
AcDbEntity
  8
0
  6
BYBLOCK
 62
0
100
AcDbBlockEnd
  0
BLOCK
  5
25F
100
AcDbEntity
  8
0
100
AcDbBlockBegin
  2
_FILLED
 70
64
 10
0.0
 20
0.0
  3
_FILLED
  1

  0
SOLID
  5
260
100
AcDbEntity
  8
0
  6
BYBLOCK
 62
0
100
AcDbTrace
 10
0.0
 20
0.0
 11
-1.0
 21
0.1275
 12
-1.0
 22
-0.1275
 13
-1.0
 23
-0.1275
  0
ENDBLK
  5
261
100
AcDbEntity
  8
0
  6
BYBLOCK
 62
0
100
AcDbBlockEnd
  0
BLOCK
  5
262
100
AcDbEntity
  8
0
100
AcDbBlockBegin
  2
XSEC_FILLED
 70
64
 10
0.0
 20
0.0
  3
XSEC_FILLED
  1

  0
SOLID
  5
263
100
AcDbEntity
  8
0
  6
BYBLOCK
 62
0
100
AcDbTrace
 10
0.0
 20
0.0
 11
-1.0
 21
0.166
 12
-1.0
 22
-0.166
 13
-1.0
 23
-0.166
  0
ENDBLK
  5
264
100
AcDbEntity
  8
0
  6
BYBLOCK
 62
0
100
AcDbBlockEnd
  0
BLOCK
  5
265
100
AcDbEntity
  8
0
100
AcDbBlockBegin
 62
2
  6
CONTINUOUS
  2
*D0
 70
65
 10
0.0
 20
0.0
  3
*D0
  1

  0
MTEXT
  5
266
100
AcDbEntity
  8
0
100
AcDbMText
 62
2
  6
CONTINUOUS
  7
STANDARD
 71
2
 72
1
 10
1467.1886628436
 20
727.3932002725
 30
0.0
 11
1.0
 21
0.0
 31
0.0
 73
2
 44
0.9
  1
136,8\P[5.39]\PBOTH ENDS
 40
16.002
 41
119.2714126394
  0
LINE
  5
267
100
AcDbEntity
  8
0
100
AcDbLine
 62
2
  6
CONTINUOUS
 10
1537.2542985313
 20
799.0591032081
 11
1537.2542985313
 21
697.1672002725
  0
LINE
  5
268
100
AcDbEntity
  8
0
100
AcDbLine
 62
2
  6
CONTINUOUS
 10
1400.4542985313
 20
836.1391032081
 11
1400.4542985313
 21
697.1672002725
  0
LINE
  5
269
100
AcDbEntity
  8
0
100
AcDbLine
 62
2
  6
CONTINUOUS
 10
1537.2542985313
 20
719.3922002725
 11
1506.3608449997
 21
719.3922002725
  0
LINE
  5
26A
100
AcDbEntity
  8
0
100
AcDbLine
 62
2
  6
CONTINUOUS
 10
1400.4542985313
 20
719.3922002725
 11
1431.3477520629
 21
719.3922002725
  0
INSERT
  5
26B
100
AcDbEntity
  8
0
100
AcDbBlockReference
 62
2
  6
CONTINUOUS
  2
_FILLED
 10
1537.2542985313
 20
719.3922002725
 41
14.0
 42
14.0
 43
14.0
  0
INSERT
  5
26C
100
AcDbEntity
  8
0
100
AcDbBlockReference
 62
2
  6
CONTINUOUS
  2
_FILLED
 10
1400.4542985313
 20
719.3922002725
 41
14.0
 42
14.0
 43
14.0
 50
180.0
  0
ENDBLK
  5
26D
100
AcDbEntity
  8
0
  6
BYBLOCK
 62
0
100
AcDbBlockEnd
  0
BLOCK
  5
26E
100
AcDbEntity
  8
0
100
AcDbBlockBegin
 62
2
  6
CONTINUOUS
  2
*D1
 70
65
 10
0.0
 20
0.0
  3
*D1
  1

  0
MTEXT
  5
26F
100
AcDbEntity
  8
0
100
AcDbMText
 62
2
  6
CONTINUOUS
  7
STANDARD
 71
2
 72
1
 10
1323.7257763846
 20
824.3748638631
 30
0.0
 11
1.0
 21
0.0
 31
0.0
 73
2
 44
0.9
  1
88,7\P[3.49]\PBOTH ENDS
 40
16.002
 41
119.2714126394
  0
LINE
  5
270
100
AcDbEntity
  8
0
100
AcDbLine
 62
2
  6
CONTINUOUS
 10
1415.7555154783
 20
747.2516032081
 11
1309.3530589125
 21
747.2516032081
  0
LINE
  5
271
100
AcDbEntity
  8
0
100
AcDbLine
 62
2
  6
CONTINUOUS
 10
1500.3617985313
 20
835.9516032081
 11
1309.3530589125
 21
835.9516032081
  0
LINE
  5
272
100
AcDbEntity
  8
0
100
AcDbLine
 62
2
  6
CONTINUOUS
 10
1331.5780589125
 20
747.2516032081
 11
1331.5780589125
 21
719.2516032081
  0
LINE
  5
273
100
AcDbEntity
  8
0
100
AcDbLine
 62
2
  6
CONTINUOUS
 10
1331.5780589125
 20
835.9516032081
 11
1331.5780589125
 21
863.9516032081
  0
INSERT
  5
274
100
AcDbEntity
  8
0
100
AcDbBlockReference
 62
2
  6
CONTINUOUS
  2
_FILLED
 10
1331.5780589125
 20
747.2516032081
 41
14.0
 42
14.0
 43
14.0
 50
90.0
  0
INSERT
  5
275
100
AcDbEntity
  8
0
100
AcDbBlockReference
 62
2
  6
CONTINUOUS
  2
_FILLED
 10
1331.5780589125
 20
835.9516032081
 41
14.0
 42
14.0
 43
14.0
 50
270.0
  0
ENDBLK
  5
276
100
AcDbEntity
  8
0
  6
BYBLOCK
 62
0
100
AcDbBlockEnd
  0
BLOCK
  5
277
100
AcDbEntity
  8
0
100
AcDbBlockBegin
 62
2
  6
CONTINUOUS
  2
*D2
 70
65
 10
0.0
 20
0.0
  3
*D2
  1

  0
MTEXT
  5
278
100
AcDbEntity
  8
0
100
AcDbMText
 62
2
  6
CONTINUOUS
  7
STANDARD
 71
1
 72
1
 10
2143.6631654947
 20
830.7922657464
 30
0.0
 11
1.0
 21
0.0
 31
0.0
 73
2
 44
0.9
  1
47,7\P[1.88]
 40
16.002
 41
59.0110929368
  0
LINE
  5
279
100
AcDbEntity
  8
0
100
AcDbLine
 62
2
  6
CONTINUOUS
 10
2191.69648391
 20
746.6267392968
 11
2064.8995400137
 21
780.6018780165
  0
LINE
  5
27A
100
AcDbEntity
  8
0
100
AcDbLine
 62
2
  6
CONTINUOUS
 10
2355.4044435593
 20
653.3559608805
 11
2052.5481993053
 21
734.5060469511
  0
LINE
  5
27B
100
AcDbEntity
  8
0
100
AcDbLine
 62
2
  6
CONTINUOUS
 10
2086.367241503
 20
774.8496247391
 11
2099.2131654947
 21
822.7912657464
  0
LINE
  5
27C
100
AcDbEntity
  8
0
100
AcDbLine
 62
2
  6
CONTINUOUS
 10
2099.2131654947
 20
822.7912657464
 11
2135.6621654947
 21
822.7912657464
  0
LINE
  5
27D
100
AcDbEntity
  8
0
100
AcDbLine
 62
2
  6
CONTINUOUS
 10
2074.0159007946
 20
728.7537936737
 11
2066.7689675317
 21
701.7078705376
  0
INSERT
  5
27E
100
AcDbEntity
  8
0
100
AcDbBlockReference
 62
2
  6
CONTINUOUS
  2
_FILLED
 10
2086.367241503
 20
774.8496247391
 41
14.0
 42
14.0
 43
14.0
 50
255.0
  0
INSERT
  5
27F
100
AcDbEntity
  8
0
100
AcDbBlockReference
 62
2
  6
CONTINUOUS
  2
_FILLED
 10
2074.0159007946
 20
728.7537936737
 41
14.0
 42
14.0
 43
14.0
 50
75.0
  0
ENDBLK
  5
280
100
AcDbEntity
  8
0
  6
BYBLOCK
 62
0
100
AcDbBlockEnd
  0
BLOCK
  5
281
100
AcDbEntity
  8
0
100
AcDbBlockBegin
 62
2
  6
CONTINUOUS
  2
*D3
 70
65
 10
0.0
 20
0.0
  3
*D3
  1

  0
MTEXT
  5
282
100
AcDbEntity
  8
0
100
AcDbMText
 62
2
  6
CONTINUOUS
  7
STANDARD
 71
2
 72
1
 10
2315.7949029646
 20
782.9921453686
 30
0.0
 11
1.0
 21
0.0
 31
0.0
 73
2
 44
0.9
  1
206,1\P[8.11]
 40
16.002
 41
59.0110929368
  0
LINE
  5
283
100
AcDbEntity
  8
0
100
AcDbLine
 62
2
  6
CONTINUOUS
 10
2205.3064612933
 20
754.4844634027
 11
2223.6982836763
 21
823.1236789796
  0
LINE
  5
284
100
AcDbEntity
  8
0
100
AcDbLine
 62
2
  6
CONTINUOUS
 10
2398.1388539843
 20
678.0286842431
 11
2422.7273001831
 21
769.7940147362
  0
LINE
  5
285
100
AcDbEntity
  8
0
100
AcDbLine
 62
2
  6
CONTINUOUS
 10
2217.9460303989
 20
801.6559774903
 11
2279.9539921839
 21
785.0409942057
  0
LINE
  5
286
100
AcDbEntity
  8
0
100
AcDbLine
 62
2
  6
CONTINUOUS
 10
2416.9750469057
 20
748.3263132469
 11
2354.9670851207
 21
764.9412965315
  0
INSERT
  5
287
100
AcDbEntity
  8
0
100
AcDbBlockReference
 62
2
  6
CONTINUOUS
  2
_FILLED
 10
2217.9460303989
 20
801.6559774903
 41
14.0
 42
14.0
 43
14.0
 50
165.0
  0
INSERT
  5
288
100
AcDbEntity
  8
0
100
AcDbBlockReference
 62
2
  6
CONTINUOUS
  2
_FILLED
 10
2416.9750469057
 20
748.3263132469
 41
14.0
 42
14.0
 43
14.0
 50
345.0
  0
ENDBLK
  5
289
100
AcDbEntity
  8
0
  6
BYBLOCK
 62
0
100
AcDbBlockEnd
  0
BLOCK
  5
28A
100
AcDbEntity
  8
0
100
AcDbBlockBegin
 62
2
  6
CONTINUOUS
  2
*D4
 70
65
 10
0.0
 20
0.0
  3
*D4
  1

  0
MTEXT
  5
28B
100
AcDbEntity
  8
0
100
AcDbMText
 62
2
  6
CONTINUOUS
  7
STANDARD
 71
2
 72
1
 10
715.0796768123
 20
606.2181120282
 30
0.0
 11
1.0
 21
0.0
 31
0.0
 73
2
 44
0.9
  1
206,1\P[8.11]
 40
16.002
 41
59.0110929368
  0
LINE
  5
28C
100
AcDbEntity
  8
0
100
AcDbLine
 62
2
  6
CONTINUOUS
 10
613.7203125
 20
561.3968804768
 11
613.7203125
 21
620.4421120282
  0
LINE
  5
28D
100
AcDbEntity
  8
0
100
AcDbLine
 62
2
  6
CONTINUOUS
 10
819.7703125
 20
440.8068804768
 11
819.7703125
 21
620.4421120282
  0
LINE
  5
28E
100
AcDbEntity
  8
0
100
AcDbLine
 62
2
  6
CONTINUOUS
 10
613.7203125
 20
598.2171120282
 11
679.2387660316
 21
598.2171120282
  0
LINE
  5
28F
100
AcDbEntity
  8
0
100
AcDbLine
 62
2
  6
CONTINUOUS
 10
819.7703125
 20
598.2171120282
 11
754.2518589684
 21
598.2171120282
  0
INSERT
  5
290
100
AcDbEntity
  8
0
100
AcDbBlockReference
 62
2
  6
CONTINUOUS
  2
_FILLED
 10
613.7203125
 20
598.2171120282
 41
14.0
 42
14.0
 43
14.0
 50
180.0
  0
INSERT
  5
291
100
AcDbEntity
  8
0
100
AcDbBlockReference
 62
2
  6
CONTINUOUS
  2
_FILLED
 10
819.7703125
 20
598.2171120282
 41
14.0
 42
14.0
 43
14.0
  0
ENDBLK
  5
292
100
AcDbEntity
  8
0
  6
BYBLOCK
 62
0
100
AcDbBlockEnd
  0
BLOCK
  5
293
100
AcDbEntity
  8
0
100
AcDbBlockBegin
 62
2
  6
CONTINUOUS
  2
*D5
 70
65
 10
0.0
 20
0.0
  3
*D5
  1

  0
MTEXT
  5
294
100
AcDbEntity
  8
0
100
AcDbMText
 62
2
  6
CONTINUOUS
  7
STANDARD
 71
2
 72
1
 10
553.7821052641
 20
505.4570041457
 30
0.0
 11
1.0
 21
0.0
 31
0.0
 73
2
 44
0.9
  1
144,4\P[5.68]
 40
16.002
 41
59.0110929368
  0
LINE
  5
295
100
AcDbEntity
  8
0
100
AcDbLine
 62
2
  6
CONTINUOUS
 10
602.6078125
 20
550.2843804768
 11
533.2227409519
 21
550.2843804768
  0
LINE
  5
296
100
AcDbEntity
  8
0
100
AcDbLine
 62
2
  6
CONTINUOUS
 10
784.8778125
 20
405.9143804768
 11
533.2227409519
 21
405.9143804768
  0
LINE
  5
297
100
AcDbEntity
  8
0
100
AcDbLine
 62
2
  6
CONTINUOUS
 10
555.4477409519
 20
550.2843804768
 11
555.4477409519
 21
513.4580041457
  0
LINE
  5
298
100
AcDbEntity
  8
0
100
AcDbLine
 62
2
  6
CONTINUOUS
 10
555.4477409519
 20
405.9143804768
 11
555.4477409519
 21
453.1084706726
  0
INSERT
  5
299
100
AcDbEntity
  8
0
100
AcDbBlockReference
 62
2
  6
CONTINUOUS
  2
_FILLED
 10
555.4477409519
 20
550.2843804768
 41
14.0
 42
14.0
 43
14.0
 50
90.0
  0
INSERT
  5
29A
100
AcDbEntity
  8
0
100
AcDbBlockReference
 62
2
  6
CONTINUOUS
  2
_FILLED
 10
555.4477409519
 20
405.9143804768
 41
14.0
 42
14.0
 43
14.0
 50
270.0
  0
ENDBLK
  5
29B
100
AcDbEntity
  8
0
  6
BYBLOCK
 62
0
100
AcDbBlockEnd
  0
BLOCK
  5
29C
100
AcDbEntity
  8
0
100
AcDbBlockBegin
 62
2
  6
CONTINUOUS
  2
*D6
 70
65
 10
0.0
 20
0.0
  3
*D6
  1

  0
MTEXT
  5
29D
100
AcDbEntity
  8
0
100
AcDbMText
 62
2
  6
CONTINUOUS
  7
STANDARD
 71
1
 72
1
 10
1829.6276979418
 20
1234.9103885126
 30
0.0
 11
1.0
 21
0.0
 31
0.0
 73
2
 44
0.9
  1
47,7\P[1.88]
 40
16.002
 41
59.0110929368
  0
LINE
  5
29E
100
AcDbEntity
  8
0
100
AcDbLine
 62
2
  6
CONTINUOUS
 10
1778.0641169723
 20
1267.5171670607
 11
1762.6364386269
 21
1209.9402876328
  0
LINE
  5
29F
100
AcDbEntity
  8
0
100
AcDbLine
 62
2
  6
CONTINUOUS
 10
1779.1644024091
 20
1455.9221358698
 11
1716.5617767129
 21
1222.2859560842
  0
LINE
  5
2A0
100
AcDbEntity
  8
0
100
AcDbLine
 62
2
  6
CONTINUOUS
 10
1768.3886919043
 20
1231.4079891221
 11
1745.3513609473
 21
1237.5808233478
  0
LINE
  5
2A1
100
AcDbEntity
  8
0
100
AcDbLine
 62
2
  6
CONTINUOUS
 10
1745.3513609473
 20
1237.5808233478
 11
1785.1776979418
 21
1226.9093885126
  0
LINE
  5
2A2
100
AcDbEntity
  8
0
100
AcDbLine
 62
2
  6
CONTINUOUS
 10
1785.1776979418
 20
1226.9093885126
 11
1821.6266979418
 21
1226.9093885126
  0
LINE
  5
2A3
100
AcDbEntity
  8
0
100
AcDbLine
 62
2
  6
CONTINUOUS
 10
1722.3140299903
 20
1243.7536575735
 11
1745.3513609473
 21
1237.5808233478
  0
INSERT
  5
2A4
100
AcDbEntity
  8
0
100
AcDbBlockReference
 62
2
  6
CONTINUOUS
  2
_FILLED
 10
1768.3886919043
 20
1231.4079891221
 41
14.0
 42
14.0
 43
14.0
 50
345.0
  0
INSERT
  5
2A5
100
AcDbEntity
  8
0
100
AcDbBlockReference
 62
2
  6
CONTINUOUS
  2
_FILLED
 10
1722.3140299903
 20
1243.7536575735
 41
14.0
 42
14.0
 43
14.0
 50
165.0
  0
ENDBLK
  5
2A6
100
AcDbEntity
  8
0
  6
BYBLOCK
 62
0
100
AcDbBlockEnd
  0
BLOCK
  5
2A7
100
AcDbEntity
  8
0
100
AcDbBlockBegin
 62
2
  6
CONTINUOUS
  2
*D7
 70
65
 10
0.0
 20
0.0
  3
*D7
  1

  0
MTEXT
  5
2A8
100
AcDbEntity
  8
0
100
AcDbMText
 62
2
  6
CONTINUOUS
  7
STANDARD
 71
2
 72
1
 10
1866.1538184637
 20
1368.4373180888
 30
0.0
 11
1.0
 21
0.0
 31
0.0
 73
2
 44
0.9
  1
206,1\P[8.11]
 40
16.002
 41
59.0110929368
  0
LINE
  5
2A9
100
AcDbEntity
  8
0
100
AcDbLine
 62
2
  6
CONTINUOUS
 10
1791.6740943556
 20
1275.3748911666
 11
1862.921026994
 21
1256.284333103
  0
LINE
  5
2AA
100
AcDbEntity
  8
0
100
AcDbLine
 62
2
  6
CONTINUOUS
 10
1821.8988128341
 20
1480.5948592323
 11
1916.2506912374
 21
1455.3133496098
  0
LINE
  5
2AB
100
AcDbEntity
  8
0
100
AcDbLine
 62
2
  6
CONTINUOUS
 10
1841.4533255048
 20
1262.0365863804
 11
1855.936551092
 21
1316.0887201294
  0
LINE
  5
2AC
100
AcDbEntity
  8
0
100
AcDbLine
 62
2
  6
CONTINUOUS
 10
1894.7829897481
 20
1461.0656028872
 11
1872.1071771288
 21
1376.4383180888
  0
INSERT
  5
2AD
100
AcDbEntity
  8
0
100
AcDbBlockReference
 62
2
  6
CONTINUOUS
  2
_FILLED
 10
1841.4533255048
 20
1262.0365863804
 41
14.0
 42
14.0
 43
14.0
 50
255.0
  0
INSERT
  5
2AE
100
AcDbEntity
  8
0
100
AcDbBlockReference
 62
2
  6
CONTINUOUS
  2
_FILLED
 10
1894.7829897481
 20
1461.0656028872
 41
14.0
 42
14.0
 43
14.0
 50
75.0
  0
ENDBLK
  5
2AF
100
AcDbEntity
  8
0
  6
BYBLOCK
 62
0
100
AcDbBlockEnd
  0
BLOCK
  5
2B0
100
AcDbEntity
  8
0
100
AcDbBlockBegin
 62
2
  6
CONTINUOUS
  2
*D8
 70
65
 10
0.0
 20
0.0
  3
*D8
  1

  0
MTEXT
  5
2B1
100
AcDbEntity
  8
0
100
AcDbMText
 62
2
  6
CONTINUOUS
  7
STANDARD
 71
2
 72
1
 10
863.7200874049
 20
1188.7541028476
 30
0.0
 11
1.0
 21
0.0
 31
0.0
 73
2
 44
0.9
  1
520,0\P[20.47]
 40
16.002
 41
71.3843866171
  0
LINE
  5
2B2
100
AcDbEntity
  8
0
100
AcDbLine
 62
2
  6
CONTINUOUS
 10
613.7203125
 20
1200.9441575667
 11
613.7203125
 21
1158.5281028476
  0
LINE
  5
2B3
100
AcDbEntity
  8
0
100
AcDbLine
 62
2
  6
CONTINUOUS
 10
1133.7203125
 20
1200.9441575667
 11
1133.7203125
 21
1158.5281028476
  0
LINE
  5
2B4
100
AcDbEntity
  8
0
100
AcDbLine
 62
2
  6
CONTINUOUS
 10
613.7203125
 20
1180.7531028476
 11
827.8791766243
 21
1180.7531028476
  0
LINE
  5
2B5
100
AcDbEntity
  8
0
100
AcDbLine
 62
2
  6
CONTINUOUS
 10
1133.7203125
 20
1180.7531028476
 11
915.2655632414
 21
1180.7531028476
  0
INSERT
  5
2B6
100
AcDbEntity
  8
0
100
AcDbBlockReference
 62
2
  6
CONTINUOUS
  2
_FILLED
 10
613.7203125
 20
1180.7531028476
 41
14.0
 42
14.0
 43
14.0
 50
180.0
  0
INSERT
  5
2B7
100
AcDbEntity
  8
0
100
AcDbBlockReference
 62
2
  6
CONTINUOUS
  2
_FILLED
 10
1133.7203125
 20
1180.7531028476
 41
14.0
 42
14.0
 43
14.0
  0
ENDBLK
  5
2B8
100
AcDbEntity
  8
0
  6
BYBLOCK
 62
0
100
AcDbBlockEnd
  0
BLOCK
  5
2B9
100
AcDbEntity
  8
0
100
AcDbBlockBegin
 62
2
  6
CONTINUOUS
  2
*D9
 70
65
 10
0.0
 20
0.0
  3
*D9
  1

  0
MTEXT
  5
2BA
100
AcDbEntity
  8
0
100
AcDbMText
 62
2
  6
CONTINUOUS
  7
STANDARD
 71
2
 72
1
 10
506.7513585127
 20
873.9765855187
 30
0.0
 11
1.0
 21
0.0
 31
0.0
 73
2
 44
0.9
  1
200,0\P[7.87]
 40
16.002
 41
59.0110929368
  0
LINE
  5
2BB
100
AcDbEntity
  8
0
100
AcDbLine
 62
2
  6
CONTINUOUS
 10
383.0614823135
 20
747.2516032081
 11
530.6419942005
 21
747.2516032081
  0
LINE
  5
2BC
100
AcDbEntity
  8
0
100
AcDbLine
 62
2
  6
CONTINUOUS
 10
383.0614823135
 20
947.2516032081
 11
530.6419942005
 21
947.2516032081
  0
LINE
  5
2BD
100
AcDbEntity
  8
0
100
AcDbLine
 62
2
  6
CONTINUOUS
 10
508.4169942005
 20
747.2516032081
 11
508.4169942005
 21
821.6280541687
  0
LINE
  5
2BE
100
AcDbEntity
  8
0
100
AcDbLine
 62
2
  6
CONTINUOUS
 10
508.4169942005
 20
947.2516032081
 11
508.4169942005
 21
881.9775855187
  0
INSERT
  5
2BF
100
AcDbEntity
  8
0
100
AcDbBlockReference
 62
2
  6
CONTINUOUS
  2
_FILLED
 10
508.4169942005
 20
747.2516032081
 41
14.0
 42
14.0
 43
14.0
 50
270.0
  0
INSERT
  5
2C0
100
AcDbEntity
  8
0
100
AcDbBlockReference
 62
2
  6
CONTINUOUS
  2
_FILLED
 10
508.4169942005
 20
947.2516032081
 41
14.0
 42
14.0
 43
14.0
 50
90.0
  0
ENDBLK
  5
2C1
100
AcDbEntity
  8
0
  6
BYBLOCK
 62
0
100
AcDbBlockEnd
  0
BLOCK
  5
2C2
100
AcDbEntity
  8
0
100
AcDbBlockBegin
 62
2
  6
CONTINUOUS
  2
*D10
 70
65
 10
0.0
 20
0.0
  3
*D10
  1

  0
MTEXT
  5
2C3
100
AcDbEntity
  8
0
100
AcDbMText
 62
2
  6
CONTINUOUS
  7
STANDARD
 71
1
 72
1
 10
479.3663173679
 20
714.8663858676
 30
0.0
 11
1.0
 21
0.0
 31
0.0
 73
2
 44
0.9
  1
91,1\P[3.59]
 40
16.002
 41
59.0110929368
  0
LINE
  5
2C4
100
AcDbEntity
  8
0
100
AcDbLine
 62
2
  6
CONTINUOUS
 10
383.0614823135
 20
747.2516032081
 11
457.1413173679
 21
747.2516032081
  0
LINE
  5
2C5
100
AcDbEntity
  8
0
100
AcDbLine
 62
2
  6
CONTINUOUS
 10
280.9713721107
 20
838.3613672884
 11
457.1413173679
 21
838.3613672884
  0
LINE
  5
2C6
100
AcDbEntity
  8
0
100
AcDbLine
 62
2
  6
CONTINUOUS
 10
434.9163173679
 20
747.2516032081
 11
434.9163173679
 21
792.8064852482
  0
LINE
  5
2C7
100
AcDbEntity
  8
0
100
AcDbLine
 62
2
  6
CONTINUOUS
 10
434.9163173679
 20
792.8064852482
 11
434.9163173679
 21
706.8653858676
  0
LINE
  5
2C8
100
AcDbEntity
  8
0
100
AcDbLine
 62
2
  6
CONTINUOUS
 10
434.9163173679
 20
706.8653858676
 11
471.3653173679
 21
706.8653858676
  0
LINE
  5
2C9
100
AcDbEntity
  8
0
100
AcDbLine
 62
2
  6
CONTINUOUS
 10
434.9163173679
 20
838.3613672884
 11
434.9163173679
 21
792.8064852482
  0
INSERT
  5
2CA
100
AcDbEntity
  8
0
100
AcDbBlockReference
 62
2
  6
CONTINUOUS
  2
_FILLED
 10
434.9163173679
 20
747.2516032081
 41
14.0
 42
14.0
 43
14.0
 50
270.0
  0
INSERT
  5
2CB
100
AcDbEntity
  8
0
100
AcDbBlockReference
 62
2
  6
CONTINUOUS
  2
_FILLED
 10
434.9163173679
 20
838.3613672884
 41
14.0
 42
14.0
 43
14.0
 50
90.0
  0
ENDBLK
  5
2CC
100
AcDbEntity
  8
0
  6
BYBLOCK
 62
0
100
AcDbBlockEnd
  0
BLOCK
  5
2CD
100
AcDbEntity
  8
0
100
AcDbBlockBegin
 62
2
  6
CONTINUOUS
  2
*D11
 70
65
 10
0.0
 20
0.0
  3
*D11
  1

  0
MTEXT
  5
2CE
100
AcDbEntity
  8
0
100
AcDbMText
 62
2
  6
CONTINUOUS
  7
STANDARD
 71
2
 72
1
 10
328.6626565727
 20
1010.613546175
 30
0.0
 11
1.0
 21
0.0
 31
0.0
 73
2
 44
0.9
  1
136,1\P[5.36]
 40
16.002
 41
59.0110929368
  0
LINE
  5
2CF
100
AcDbEntity
  8
0
100
AcDbLine
 62
2
  6
CONTINUOUS
 10
262.2938852604
 20
856.1687606326
 11
262.2938852604
 21
1024.837546175
  0
LINE
  5
2D0
100
AcDbEntity
  8
0
100
AcDbLine
 62
2
  6
CONTINUOUS
 10
398.3626992604
 20
905.9662850851
 11
398.3626992604
 21
941.1445367084
  0
LINE
  5
2D1
100
AcDbEntity
  8
0
100
AcDbLine
 62
2
  6
CONTINUOUS
 10
398.3626992604
 20
955.2055580507
 11
398.3626992604
 21
1024.837546175
  0
LINE
  5
2D2
100
AcDbEntity
  8
0
100
AcDbLine
 62
2
  6
CONTINUOUS
 10
262.2938852604
 20
1002.612546175
 11
292.821745792
 21
1002.612546175
  0
LINE
  5
2D3
100
AcDbEntity
  8
0
100
AcDbLine
 62
2
  6
CONTINUOUS
 10
398.3626992604
 20
1002.612546175
 11
367.8348387288
 21
1002.612546175
  0
INSERT
  5
2D4
100
AcDbEntity
  8
0
100
AcDbBlockReference
 62
2
  6
CONTINUOUS
  2
_FILLED
 10
262.2938852604
 20
1002.612546175
 41
14.0
 42
14.0
 43
14.0
 50
180.0
  0
INSERT
  5
2D5
100
AcDbEntity
  8
0
100
AcDbBlockReference
 62
2
  6
CONTINUOUS
  2
_FILLED
 10
398.3626992604
 20
1002.612546175
 41
14.0
 42
14.0
 43
14.0
  0
ENDBLK
  5
2D6
100
AcDbEntity
  8
0
  6
BYBLOCK
 62
0
100
AcDbBlockEnd
  0
BLOCK
  5
2D7
100
AcDbEntity
  8
0
100
AcDbBlockBegin
 62
2
  6
CONTINUOUS
  2
*D12
 70
65
 10
0.0
 20
0.0
  3
*D12
  1

  0
MTEXT
  5
2D8
100
AcDbEntity
  8
0
100
AcDbMText
 62
2
  6
CONTINUOUS
  7
STANDARD
 71
2
 72
1
 10
742.8380299721
 20
1009.3457494922
 30
0.0
 11
1.0
 21
0.0
 31
0.0
 73
2
 44
0.9
  1
273,9\P[10.79]
 40
16.002
 41
71.3843866171
  0
LINE
  5
2D9
100
AcDbEntity
  8
0
100
AcDbLine
 62
2
  6
CONTINUOUS
 10
613.7203125
 20
957.7131799924
 11
613.7203125
 21
1023.5697494922
  0
LINE
  5
2DA
100
AcDbEntity
  8
0
100
AcDbLine
 62
2
  6
CONTINUOUS
 10
887.6603125
 20
855.4891749728
 11
887.6603125
 21
1023.5697494922
  0
LINE
  5
2DB
100
AcDbEntity
  8
0
100
AcDbLine
 62
2
  6
CONTINUOUS
 10
613.7203125
 20
1001.3447494922
 11
706.9971191914
 21
1001.3447494922
  0
LINE
  5
2DC
100
AcDbEntity
  8
0
100
AcDbLine
 62
2
  6
CONTINUOUS
 10
887.6603125
 20
1001.3447494922
 11
794.3835058086
 21
1001.3447494922
  0
INSERT
  5
2DD
100
AcDbEntity
  8
0
100
AcDbBlockReference
 62
2
  6
CONTINUOUS
  2
_FILLED
 10
613.7203125
 20
1001.3447494922
 41
14.0
 42
14.0
 43
14.0
 50
180.0
  0
INSERT
  5
2DE
100
AcDbEntity
  8
0
100
AcDbBlockReference
 62
2
  6
CONTINUOUS
  2
_FILLED
 10
887.6603125
 20
1001.3447494922
 41
14.0
 42
14.0
 43
14.0
  0
ENDBLK
  5
2DF
100
AcDbEntity
  8
0
  6
BYBLOCK
 62
0
100
AcDbBlockEnd
  0
BLOCK
  5
2E0
100
AcDbEntity
  8
0
100
AcDbBlockBegin
 62
2
  6
CONTINUOUS
  2
*D13
 70
65
 10
0.0
 20
0.0
  3
*D13
  1

  0
MTEXT
  5
2E1
100
AcDbEntity
  8
0
100
AcDbMText
 62
2
  6
CONTINUOUS
  7
STANDARD
 71
2
 72
1
 10
252.636642346
 20
711.3922136028
 30
0.0
 11
1.0
 21
0.0
 31
0.0
 73
2
 44
0.9
  1
275,1\P[10.83]
 40
16.002
 41
71.3843866171
  0
LINE
  5
2E2
100
AcDbEntity
  8
0
100
AcDbLine
 62
2
  6
CONTINUOUS
 10
398.3626992604
 20
836.1391032081
 11
398.3626992604
 21
751.4638108608
  0
LINE
  5
2E3
100
AcDbEntity
  8
0
100
AcDbLine
 62
2
  6
CONTINUOUS
 10
398.3626992604
 20
743.594174432
 11
398.3626992604
 21
681.1662136028
  0
LINE
  5
2E4
100
AcDbEntity
  8
0
100
AcDbLine
 62
2
  6
CONTINUOUS
 10
123.2673730894
 20
873.8153733973
 11
123.2673730894
 21
749.8115888273
  0
LINE
  5
2E5
100
AcDbEntity
  8
0
100
AcDbLine
 62
2
  6
CONTINUOUS
 10
123.2673730894
 20
743.9600441759
 11
123.2673730894
 21
681.1662136028
  0
LINE
  5
2E6
100
AcDbEntity
  8
0
100
AcDbLine
 62
2
  6
CONTINUOUS
 10
398.3626992604
 20
703.3912136028
 11
304.1821181825
 21
703.3912136028
  0
LINE
  5
2E7
100
AcDbEntity
  8
0
100
AcDbLine
 62
2
  6
CONTINUOUS
 10
123.2673730894
 20
703.3912136028
 11
216.7957315654
 21
703.3912136028
  0
INSERT
  5
2E8
100
AcDbEntity
  8
0
100
AcDbBlockReference
 62
2
  6
CONTINUOUS
  2
_FILLED
 10
398.3626992604
 20
703.3912136028
 41
14.0
 42
14.0
 43
14.0
  0
INSERT
  5
2E9
100
AcDbEntity
  8
0
100
AcDbBlockReference
 62
2
  6
CONTINUOUS
  2
_FILLED
 10
123.2673730894
 20
703.3912136028
 41
14.0
 42
14.0
 43
14.0
 50
180.0
  0
ENDBLK
  5
2EA
100
AcDbEntity
  8
0
  6
BYBLOCK
 62
0
100
AcDbBlockEnd
  0
BLOCK
  5
2EB
100
AcDbEntity
  8
0
100
AcDbBlockBegin
 62
2
  6
CONTINUOUS
  2
*D14
 70
65
 10
0.0
 20
0.0
  3
*D14
  1

  0
MTEXT
  5
2EC
100
AcDbEntity
  8
0
100
AcDbMText
 62
2
  6
CONTINUOUS
  7
STANDARD
 71
3
 72
1
 10
2072.4500675861
 20
638.3074710455
 30
0.0
 11
1.0
 21
0.0
 31
0.0
 73
2
 44
0.9
  1
50,8\P[2.00]
 40
16.002
 41
59.0110929368
  0
LINE
  5
2ED
100
AcDbEntity
  8
0
100
AcDbLine
 62
2
  6
CONTINUOUS
 10
2355.4044435593
 20
653.3559608805
 11
2131.8240609637
 21
713.2641438405
  0
LINE
  5
2EE
100
AcDbEntity
  8
0
100
AcDbLine
 62
2
  6
CONTINUOUS
 10
2342.2564360681
 20
604.2869289051
 11
2118.6760534724
 21
664.195111865
  0
LINE
  5
2EF
100
AcDbEntity
  8
0
100
AcDbLine
 62
2
  6
CONTINUOUS
 10
2153.2917624529
 20
707.5118905631
 11
2160.5386957158
 21
734.5578136992
  0
LINE
  5
2F0
100
AcDbEntity
  8
0
100
AcDbLine
 62
2
  6
CONTINUOUS
 10
2140.1437549617
 20
658.4428585876
 11
2132.6046326419
 21
630.3064710455
  0
LINE
  5
2F1
100
AcDbEntity
  8
0
100
AcDbLine
 62
2
  6
CONTINUOUS
 10
2132.6046326419
 20
630.3064710455
 11
2096.1556326419
 21
630.3064710455
  0
INSERT
  5
2F2
100
AcDbEntity
  8
0
100
AcDbBlockReference
 62
2
  6
CONTINUOUS
  2
_FILLED
 10
2153.2917624529
 20
707.5118905631
 41
14.0
 42
14.0
 43
14.0
 50
255.0
  0
INSERT
  5
2F3
100
AcDbEntity
  8
0
100
AcDbBlockReference
 62
2
  6
CONTINUOUS
  2
_FILLED
 10
2140.1437549617
 20
658.4428585876
 41
14.0
 42
14.0
 43
14.0
 50
75.0
  0
ENDBLK
  5
2F4
100
AcDbEntity
  8
0
  6
BYBLOCK
 62
0
100
AcDbBlockEnd
  0
BLOCK
  5
2F5
100
AcDbEntity
  8
0
100
AcDbBlockBegin
 62
2
  6
CONTINUOUS
  2
*D15
 70
65
 10
0.0
 20
0.0
  3
*D15
  1

  0
MTEXT
  5
2F6
100
AcDbEntity
  8
0
100
AcDbMText
 62
2
  6
CONTINUOUS
  7
STANDARD
 71
2
 72
1
 10
2467.4211095463
 20
742.3640257637
 30
0.0
 11
1.0
 21
0.0
 31
0.0
 73
2
 44
0.9
  1
107,9\P[4.25]
 40
16.002
 41
59.0110929368
  0
LINE
  5
2F7
100
AcDbEntity
  8
0
100
AcDbLine
 62
2
  6
CONTINUOUS
 10
2398.1388539843
 20
678.0286842431
 11
2422.7273001831
 21
769.7940147362
  0
LINE
  5
2F8
100
AcDbEntity
  8
0
100
AcDbLine
 62
2
  6
CONTINUOUS
 10
2502.3622506409
 20
650.1021092765
 11
2526.9506968397
 21
741.8674397697
  0
LINE
  5
2F9
100
AcDbEntity
  8
0
100
AcDbLine
 62
2
  6
CONTINUOUS
 10
2416.9750469057
 20
748.3263132469
 11
2389.9291237696
 21
755.5732465098
  0
LINE
  5
2FA
100
AcDbEntity
  8
0
100
AcDbLine
 62
2
  6
CONTINUOUS
 10
2521.1984435623
 20
720.3997382804
 11
2548.2443666984
 21
713.1528050175
  0
INSERT
  5
2FB
100
AcDbEntity
  8
0
100
AcDbBlockReference
 62
2
  6
CONTINUOUS
  2
_FILLED
 10
2416.9750469057
 20
748.3263132469
 41
14.0
 42
14.0
 43
14.0
 50
345.0
  0
INSERT
  5
2FC
100
AcDbEntity
  8
0
100
AcDbBlockReference
 62
2
  6
CONTINUOUS
  2
_FILLED
 10
2521.1984435623
 20
720.3997382804
 41
14.0
 42
14.0
 43
14.0
 50
165.0
  0
ENDBLK
  5
2FD
100
AcDbEntity
  8
0
  6
BYBLOCK
 62
0
100
AcDbBlockEnd
  0
BLOCK
  5
2FE
100
AcDbEntity
  8
0
100
AcDbBlockBegin
 62
2
  6
CONTINUOUS
  2
*D16
 70
65
 10
0.0
 20
0.0
  3
*D16
  1

  0
MTEXT
  5
2FF
100
AcDbEntity
  8
0
100
AcDbMText
 62
2
  6
CONTINUOUS
  7
STANDARD
 71
3
 72
1
 10
1564.6769085666
 20
1252.1065459106
 30
0.0
 11
1.0
 21
0.0
 31
0.0
 73
2
 44
0.9
  1
50,8\P[2.00]
 40
16.002
 41
59.0110929368
  0
LINE
  5
300
100
AcDbEntity
  8
0
100
AcDbLine
 62
2
  6
CONTINUOUS
 10
1779.1644024091
 20
1455.9221358698
 11
1710.1196557334
 21
1198.2436332805
  0
LINE
  5
301
100
AcDbEntity
  8
0
100
AcDbLine
 62
2
  6
CONTINUOUS
 10
1730.0953704336
 20
1469.070143361
 11
1661.0506237579
 21
1211.3916407717
  0
LINE
  5
302
100
AcDbEntity
  8
0
100
AcDbLine
 62
2
  6
CONTINUOUS
 10
1715.8719090108
 20
1219.7113347697
 11
1742.9178321469
 21
1212.4644015069
  0
LINE
  5
303
100
AcDbEntity
  8
0
100
AcDbLine
 62
2
  6
CONTINUOUS
 10
1666.8028770354
 20
1232.859342261
 11
1624.8314736224
 21
1244.1055459106
  0
LINE
  5
304
100
AcDbEntity
  8
0
100
AcDbLine
 62
2
  6
CONTINUOUS
 10
1624.8314736224
 20
1244.1055459106
 11
1588.3824736224
 21
1244.1055459106
  0
INSERT
  5
305
100
AcDbEntity
  8
0
100
AcDbBlockReference
 62
2
  6
CONTINUOUS
  2
_FILLED
 10
1715.8719090108
 20
1219.7113347697
 41
14.0
 42
14.0
 43
14.0
 50
165.0
  0
INSERT
  5
306
100
AcDbEntity
  8
0
100
AcDbBlockReference
 62
2
  6
CONTINUOUS
  2
_FILLED
 10
1666.8028770354
 20
1232.859342261
 41
14.0
 42
14.0
 43
14.0
 50
345.0
  0
ENDBLK
  5
307
100
AcDbEntity
  8
0
  6
BYBLOCK
 62
0
100
AcDbBlockEnd
  0
BLOCK
  5
308
100
AcDbEntity
  8
0
100
AcDbBlockBegin
 62
2
  6
CONTINUOUS
  2
*D17
 70
65
 10
0.0
 20
0.0
  3
*D17
  1

  0
MTEXT
  5
309
100
AcDbEntity
  8
0
100
AcDbMText
 62
2
  6
CONTINUOUS
  7
STANDARD
 71
2
 72
1
 10
1907.0806415437
 20
1521.1783012155
 30
0.0
 11
1.0
 21
0.0
 31
0.0
 73
2
 44
0.9
  1
107,9\P[4.25]
 40
16.002
 41
59.0110929368
  0
LINE
  5
30A
100
AcDbEntity
  8
0
100
AcDbLine
 62
2
  6
CONTINUOUS
 10
1821.8988128341
 20
1480.5948592323
 11
1916.2506912374
 21
1455.3133496098
  0
LINE
  5
30B
100
AcDbEntity
  8
0
100
AcDbLine
 62
2
  6
CONTINUOUS
 10
1849.8253878007
 20
1584.8182558889
 11
1944.177266204
 21
1559.5367462664
  0
LINE
  5
30C
100
AcDbEntity
  8
0
100
AcDbLine
 62
2
  6
CONTINUOUS
 10
1894.7829897481
 20
1461.0656028872
 11
1896.8634071791
 21
1468.8298264404
  0
LINE
  5
30D
100
AcDbEntity
  8
0
100
AcDbLine
 62
2
  6
CONTINUOUS
 10
1922.7095647147
 20
1565.2889995438
 11
1913.0340002087
 21
1529.1793012155
  0
INSERT
  5
30E
100
AcDbEntity
  8
0
100
AcDbBlockReference
 62
2
  6
CONTINUOUS
  2
_FILLED
 10
1894.7829897481
 20
1461.0656028872
 41
14.0
 42
14.0
 43
14.0
 50
255.0
  0
INSERT
  5
30F
100
AcDbEntity
  8
0
100
AcDbBlockReference
 62
2
  6
CONTINUOUS
  2
_FILLED
 10
1922.7095647147
 20
1565.2889995438
 41
14.0
 42
14.0
 43
14.0
 50
75.0
  0
ENDBLK
  5
310
100
AcDbEntity
  8
0
  6
BYBLOCK
 62
0
100
AcDbBlockEnd
  0
BLOCK
  5
311
100
AcDbEntity
  8
0
100
AcDbBlockBegin
 62
2
  6
CONTINUOUS
  2
*D18
 70
65
 10
0.0
 20
0.0
  3
*D18
  1

  0
MTEXT
  5
312
100
AcDbEntity
  8
0
100
AcDbMText
 62
2
  6
CONTINUOUS
  7
STANDARD
 71
2
 72
1
 10
872.0546768123
 20
606.2181120282
 30
0.0
 11
1.0
 21
0.0
 31
0.0
 73
2
 44
0.9
  1
107,9\P[4.25]
 40
16.002
 41
59.0110929368
  0
LINE
  5
313
100
AcDbEntity
  8
0
100
AcDbLine
 62
2
  6
CONTINUOUS
 10
819.7703125
 20
440.8068804768
 11
819.7703125
 21
620.4421120282
  0
LINE
  5
314
100
AcDbEntity
  8
0
100
AcDbLine
 62
2
  6
CONTINUOUS
 10
927.6703125
 20
440.8068804768
 11
927.6703125
 21
620.4421120282
  0
LINE
  5
315
100
AcDbEntity
  8
0
100
AcDbLine
 62
2
  6
CONTINUOUS
 10
819.7703125
 20
598.2171120282
 11
791.7703125
 21
598.2171120282
  0
LINE
  5
316
100
AcDbEntity
  8
0
100
AcDbLine
 62
2
  6
CONTINUOUS
 10
927.6703125
 20
598.2171120282
 11
955.6703125
 21
598.2171120282
  0
INSERT
  5
317
100
AcDbEntity
  8
0
100
AcDbBlockReference
 62
2
  6
CONTINUOUS
  2
_FILLED
 10
819.7703125
 20
598.2171120282
 41
14.0
 42
14.0
 43
14.0
  0
INSERT
  5
318
100
AcDbEntity
  8
0
100
AcDbBlockReference
 62
2
  6
CONTINUOUS
  2
_FILLED
 10
927.6703125
 20
598.2171120282
 41
14.0
 42
14.0
 43
14.0
 50
180.0
  0
ENDBLK
  5
319
100
AcDbEntity
  8
0
  6
BYBLOCK
 62
0
100
AcDbBlockEnd
  0
BLOCK
  5
31A
100
AcDbEntity
  8
0
100
AcDbBlockBegin
 62
2
  6
CONTINUOUS
  2
*D19
 70
65
 10
0.0
 20
0.0
  3
*D19
  1

  0
MTEXT
  5
31B
100
AcDbEntity
  8
0
100
AcDbMText
 62
2
  6
CONTINUOUS
  7
STANDARD
 71
3
 72
1
 10
495.2931758961
 20
323.1536015811
 30
0.0
 11
1.0
 21
0.0
 31
0.0
 73
2
 44
0.9
  1
50,8\P[2.00]
 40
16.002
 41
59.0110929368
  0
LINE
  5
31C
100
AcDbEntity
  8
0
100
AcDbLine
 62
2
  6
CONTINUOUS
 10
784.8778125
 20
405.9143804768
 11
533.2227409519
 21
405.9143804768
  0
LINE
  5
31D
100
AcDbEntity
  8
0
100
AcDbLine
 62
2
  6
CONTINUOUS
 10
784.8778125
 20
355.1143804768
 11
533.2227409519
 21
355.1143804768
  0
LINE
  5
31E
100
AcDbEntity
  8
0
100
AcDbLine
 62
2
  6
CONTINUOUS
 10
555.4477409519
 20
405.9143804768
 11
555.4477409519
 21
433.9143804768
  0
LINE
  5
31F
100
AcDbEntity
  8
0
100
AcDbLine
 62
2
  6
CONTINUOUS
 10
555.4477409519
 20
355.1143804768
 11
555.4477409519
 21
315.1526015811
  0
LINE
  5
320
100
AcDbEntity
  8
0
100
AcDbLine
 62
2
  6
CONTINUOUS
 10
555.4477409519
 20
315.1526015811
 11
518.9987409519
 21
315.1526015811
  0
INSERT
  5
321
100
AcDbEntity
  8
0
100
AcDbBlockReference
 62
2
  6
CONTINUOUS
  2
_FILLED
 10
555.4477409519
 20
405.9143804768
 41
14.0
 42
14.0
 43
14.0
 50
270.0
  0
INSERT
  5
322
100
AcDbEntity
  8
0
100
AcDbBlockReference
 62
2
  6
CONTINUOUS
  2
_FILLED
 10
555.4477409519
 20
355.1143804768
 41
14.0
 42
14.0
 43
14.0
 50
90.0
  0
ENDBLK
  5
323
100
AcDbEntity
  8
0
  6
BYBLOCK
 62
0
100
AcDbBlockEnd
  0
BLOCK
  5
324
100
AcDbEntity
  8
0
100
AcDbBlockBegin
 62
2
  6
CONTINUOUS
  2
*D20
 70
65
 10
0.0
 20
0.0
  3
*D20
  1

  0
MTEXT
  5
325
100
AcDbEntity
  8
0
100
AcDbMText
 62
2
  6
CONTINUOUS
  7
STANDARD
 71
2
 72
1
 10
67.6483695099
 20
821.6747977616
 30
0.0
 11
1.0
 21
0.0
 31
0.0
 73
2
 44
0.9
  1
15\fgdt;{\W1.0;{\fgdt;~}}
 40
16.002
 41
35.4145873606
  0
LINE
  5
326
100
AcDbEntity
  8
0
100
AcDbLine
 62
2
  6
CONTINUOUS
 10
149.0451185035
 20
747.2516032081
 11
50.2127731209
 21
747.2516032081
  0
LINE
  5
327
100
AcDbEntity
  8
0
100
AcDbLine
 62
2
  6
CONTINUOUS
 10
112.5335223448
 20
882.0517467586
 11
35.1942322959
 21
861.3287464468
  0
ARC
  5
328
100
AcDbEntity
  8
0
100
AcDbCircle
 62
2
  6
CONTINUOUS
 10
-390.5474622533
 20
747.2516032081
 40
462.9852353742
100
AcDbArc
 50
0.0
 51
6.2520465269
  0
ARC
  5
329
100
AcDbEntity
  8
0
100
AcDbCircle
 62
2
  6
CONTINUOUS
 10
-390.5474622533
 20
747.2516032081
 40
462.9852353742
100
AcDbArc
 50
10.2548996802
 51
15.0
  0
SOLID
  5
32A
100
AcDbEntity
  8
0
100
AcDbTrace
 62
2
  6
CONTINUOUS
 10
70.4413153831
 20
761.2230162183
 11
72.4377731209
 21
747.2516032081
 12
74.0109073534
 22
761.2769899652
 13
74.0109073534
 23
761.2769899652
  0
SOLID
  5
32B
100
AcDbEntity
  8
0
100
AcDbTrace
 62
2
  6
CONTINUOUS
 10
61.8115019762
 20
853.9406735317
 11
56.6619337851
 21
867.0809997242
 12
58.3495714691
 22
853.0689297826
 13
58.3495714691
 23
853.0689297826
  0
ENDBLK
  5
32C
100
AcDbEntity
  8
0
  6
BYBLOCK
 62
0
100
AcDbBlockEnd
  0
ENDSEC
  0
SECTION
  2
ENTITIES
  0
MTEXT
  5
32D
100
AcDbEntity
  8
0
100
AcDbMText
 62
2
  6
CONTINUOUS
  7
TEXTSTYLE_2
 71
1
 72
1
 10
1590.6828326152
 20
111.8116517465
 30
0.0
 11
1.0
 21
0.0
 31
0.0
 73
2
 44
1.0000002
  1
DRAWN BY
 40
7.0
 41
51.0557620818
  0
MTEXT
  5
32E
100
AcDbEntity
  8
0
100
AcDbMText
 62
2
  6
CONTINUOUS
  7
TEXTSTYLE_2
 71
1
 72
1
 10
1590.7826438891
 20
80.3292341269
 30
0.0
 11
1.0
 21
0.0
 31
0.0
 73
2
 44
1.0000002
  1
MECH ENGINEER
 40
7.0
 41
78.2750929368
  0
MTEXT
  5
32F
100
AcDbEntity
  8
0
100
AcDbMText
 62
2
  6
CONTINUOUS
  7
TEXTSTYLE_2
 71
1
 72
1
 10
1380.4217431312
 20
98.6001081705
 30
0.0
 11
1.0
 21
0.0
 31
0.0
 73
2
 44
1.0000002
  1
DECIMALS          ANGLES
 40
10.36
 41
166.9153903346
  0
MTEXT
  5
330
100
AcDbEntity
  8
0
100
AcDbMText
 62
2
  6
CONTINUOUS
  7
TEXTSTYLE_2
 71
1
 72
1
 10
1139.8115853357
 20
70.8227528687
 30
0.0
 11
1.0
 21
0.0
 31
0.0
 73
2
 44
1.0000002
  1
PROJECTION
 40
10.99
 41
94.4159479554
  0
MTEXT
  5
331
100
AcDbEntity
  8
0
100
AcDbMText
 62
2
  6
CONTINUOUS
  7
TEXTSTYLE_2
 71
2
 72
1
 10
1235.2721597557
 20
112.9409564024
 30
0.0
 11
1.0
 21
0.0
 31
0.0
 73
2
 44
0.81
  1
UNLESS  OTHERWISE  SPECIFIED\PDIMENSIONS ARE IN MM [IN]
 40
10.36
 41
209.4337546468
  0
MTEXT
  5
332
100
AcDbEntity
  8
0
100
AcDbMText
 62
2
  6
CONTINUOUS
  7
TEXTSTYLE_2
 71
1
 72
1
 10
995.6011119774
 20
116.4989070743
 30
0.0
 11
1.0
 21
0.0
 31
0.0
 73
2
 44
1.0000002
  1
CAGE CODE
 40
9.260419
 41
80.0389374535
  0
MTEXT
  5
333
100
AcDbEntity
  8
0
100
AcDbMText
 62
2
  6
CONTINUOUS
  7
TEXTSTYLE_2
 71
1
 72
1
 10
1008.6314563494
 20
100.8755639778
 30
0.0
 11
1.0
 21
0.0
 31
0.0
 73
2
 44
1.0000002
  1
00PW4
 40
12.964581
 41
58.1237348922
  0
MTEXT
  5
334
100
AcDbEntity
  8
0
100
AcDbMText
 62
2
  6
CONTINUOUS
  7
TEXTSTYLE_2
 71
1
 72
1
 10
343.2756563003
 20
81.5395122394
 30
0.0
 11
1.0
 21
0.0
 31
0.0
 73
2
 44
1.0000002
  1
1675 MACARTHUR BOULEVARD\PCOSTA MESA, CA 92626 USA
 40
10.668
 41
220.8950185874
  0
MTEXT
  5
335
100
AcDbEntity
  8
0
100
AcDbMText
 62
2
  6
CONTINUOUS
  7
TEXTSTYLE_2
 71
1
 72
1
 10
342.2859161119
 20
106.18095778
 30
0.0
 11
1.0
 21
0.0
 31
0.0
 73
2
 44
1.0000002
  1
QSC, LLC
 40
17.78
 41
110.9101858736
  0
MTEXT
  5
336
100
AcDbEntity
  8
0
100
AcDbMText
 62
2
  6
CONTINUOUS
  7
TEXTSTYLE_2
 71
2
 72
1
 10
1038.2195642724
 20
76.9722538931
 30
0.0
 11
1.0
 21
0.0
 31
0.0
 73
2
 44
1.0000002
  1
FORM
 40
9.1
 41
36.5691449814
  0
MTEXT
  5
337
100
AcDbEntity
  8
0
100
AcDbMText
 62
2
  6
CONTINUOUS
  7
TEXTSTYLE_2
 71
1
 72
1
 10
590.4728473898
 20
104.3163011318
 30
0.0
 11
1.0
 21
0.0
 31
0.0
 73
2
 44
1.0000002
  3
THIS DOCUMENT CONTAINS CONFIDENTIAL OR PROPRIETARY INFORMATION WHICH \PIS THE PROPERTY OF QSC, LLC, THAT MAY NOT BE DISCLOSED, REPRODUCED OR\P USED WITHOUT EXPRESS WRITTEN CONSENT FROM QSC, LLC. NO PORTION OF THIS \PDOCUMENT MAY BE REPRODUCED,REDISTR
  1
UBUTED, OR OTHERWISE DISCLOSED TO \P                        ANY THIRD PARTY WITHOUT QSC'S WRITTEN PERMISSION.
 40
6.3
 41
350.4345724907
  0
MTEXT
  5
338
100
AcDbEntity
  8
0
100
AcDbMText
 62
2
  6
CONTINUOUS
  7
TEXTSTYLE_2
 71
2
 72
1
 10
1036.2808330205
 20
63.9827182975
 30
0.0
 11
1.0
 21
0.0
 31
0.0
 73
2
 44
1.0000002
  1
QOS40169 B
 40
11.9
 41
97.2791821561
  0
MTEXT
  5
339
100
AcDbEntity
  8
0
100
AcDbMText
 62
2
  6
CONTINUOUS
  7
TEXTSTYLE_2
 71
1
 72
1
 10
1381.0534601174
 20
112.3125465607
 30
0.0
 11
1.0
 21
0.0
 31
0.0
 73
2
 44
1.2
  1
TOLERANCES ARE:
 40
10.36
 41
125.1287732342
  0
MTEXT
  5
33A
100
AcDbEntity
  8
0
100
AcDbMText
 62
2
  6
CONTINUOUS
  7
TEXTSTYLE_2
 71
1
 72
1
 10
1776.4506030409
 20
111.772032014
 30
0.0
 11
1.0
 21
0.0
 31
0.0
 73
2
 44
1.0000002
  1
TECH DIRECTOR
 40
7.0
 41
73.8513011152
  0
MTEXT
  5
33B
100
AcDbEntity
  8
0
100
AcDbMText
 62
2
  6
CONTINUOUS
  7
TEXTSTYLE_2
 71
1
 72
1
 10
1775.6603321143
 20
80.2780022459
 30
0.0
 11
1.0
 21
0.0
 31
0.0
 73
2
 44
1.0000002
  1
MFG ENGINEER
 40
7.0
 41
71.6914498141
  0
MTEXT
  5
33C
100
AcDbEntity
  8
0
100
AcDbMText
 62
2
  6
CONTINUOUS
  7
TEXTSTYLE_2
 71
1
 72
1
 10
1962.8965393554
 20
111.7473188218
 30
0.0
 11
1.0
 21
0.0
 31
0.0
 73
2
 44
1.0000002
  1
REV BY
 40
7.0
 41
32.0855018587
  0
MTEXT
  5
33D
100
AcDbEntity
  8
0
100
AcDbMText
 62
2
  6
CONTINUOUS
  7
TEXTSTYLE_2
 71
1
 72
1
 10
1962.8990264832
 20
80.2574173875
 30
0.0
 11
1.0
 21
0.0
 31
0.0
 73
2
 44
1.0000002
  1
REV DATE
 40
7.0
 41
44.5762081784
  0
MTEXT
  5
33E
100
AcDbEntity
  8
0
100
AcDbMText
 62
2
  6
CONTINUOUS
  7
TEXTSTYLE_2
 71
1
 72
1
 10
2679.7065359704
 20
115.8904485619
 30
0.0
 11
1.0
 21
0.0
 31
0.0
 73
2
 44
1.0000002
  1
DRAWING NUMBER
 40
7.0
 41
89.750929368
  0
MTEXT
  5
33F
100
AcDbEntity
  8
0
100
AcDbMText
 62
2
  6
CONTINUOUS
  7
TEXTSTYLE_2
 71
1
 72
1
 10
2908.1090097897
 20
114.1644176246
 30
0.0
 11
1.0
 21
0.0
 31
0.0
 73
2
 44
1.0000002
  1
REV
 40
7.0
 41
18.0074349442
  0
MTEXT
  5
340
100
AcDbEntity
  8
0
100
AcDbMText
 62
2
  6
CONTINUOUS
  7
TEXTSTYLE_2
 71
1
 72
1
 10
2681.3586834808
 20
66.9328323703
 30
0.0
 11
1.0
 21
0.0
 31
0.0
 73
2
 44
1.0000002
  1
SCALE:  
 40
9.260419
 41
50.0888834387
  0
MTEXT
  5
341
100
AcDbEntity
  8
0
100
AcDbMText
 62
2
  6
CONTINUOUS
  7
TEXTSTYLE_2
 71
1
 72
1
 10
2861.2593326358
 20
67.1697881546
 30
0.0
 11
1.0
 21
0.0
 31
0.0
 73
2
 44
1.0000002
  1
SHEET:
 40
9.260419
 41
38.1777125316
  0
MTEXT
  5
342
100
AcDbEntity
  8
0
100
AcDbMText
 62
2
  6
CONTINUOUS
  7
TEXTSTYLE_3
 71
1
 72
1
 10
299.738145717
 20
94.3858613005
 30
0.0
 11
1.0
 21
0.0
 31
0.0
 73
2
 44
1.0000002
  1
TM
 40
3.99
 41
8.0244981413
  0
MTEXT
  5
343
100
AcDbEntity
  8
0
100
AcDbMText
 62
7
  6
CONTINUOUS
  7
STANDARD
 71
1
 72
1
 10
1753.0214011926
 20
956.564370466
 30
0.0
 11
1.0
 21
0.0
 31
0.0
 73
2
 44
0.9
  1
A
 40
44.45
 41
45.7719330855
  0
LEADER
  5
344
100
AcDbEntity
  8
0
100
AcDbLeader
 62
7
  6
CONTINUOUS
  3
STANDARD
 71
1
 72
0
 73
3
 75
0
 76
2
 10
1807.3858993339
 20
934.339370466
 30
0.0
 10
1881.1408685321
 20
914.5767860315
 30
0.0
1001
ACAD
1000
DSTYLE
1002
{
1070
77
1070
0
1070
341
1005
216
1070
41
1040
44.45
1002
}
  0
MTEXT
  5
345
100
AcDbEntity
  8
0
100
AcDbMText
 62
7
  6
CONTINUOUS
  7
STANDARD
 71
1
 72
1
 10
1688.0537374625
 20
681.5470768045
 30
0.0
 11
1.0
 21
0.0
 31
0.0
 73
2
 44
0.9
  1
A
 40
44.45
 41
45.7719330855
  0
LEADER
  5
346
100
AcDbEntity
  8
0
100
AcDbLeader
 62
7
  6
CONTINUOUS
  3
STANDARD
 71
1
 72
0
 73
3
 75
0
 76
2
 10
1742.4182356037
 20
659.3220768045
 30
0.0
 10
1808.0345368591
 20
641.7402418728
 30
0.0
1001
ACAD
1000
DSTYLE
1002
{
1070
77
1070
0
1070
341
1005
216
1070
41
1040
44.45
1002
}
  0
MTEXT
  5
347
100
AcDbEntity
  8
0
100
AcDbMText
 62
7
  6
CONTINUOUS
  7
STANDARD
 71
1
 72
1
 10
1366.7672820046
 20
982.4103239536
 30
0.0
 11
1.0
 21
0.0
 31
0.0
 73
2
 44
0.9
  1
B
 40
44.45
 41
35.5269516729
  0
LEADER
  5
348
100
AcDbEntity
  8
0
100
AcDbLeader
 62
7
  6
CONTINUOUS
  3
STANDARD
 71
1
 72
0
 73
3
 75
0
 76
2
 10
1384.5307578411
 20
1004.6353239536
 30
0.0
 10
1404.8346661933
 20
1080.4105415164
 30
0.0
1001
ACAD
1000
DSTYLE
1002
{
1070
77
1070
0
1070
341
1005
216
1070
41
1040
44.45
1002
}
  0
MTEXT
  5
349
100
AcDbEntity
  8
0
100
AcDbMText
 62
7
  6
CONTINUOUS
  7
STANDARD
 71
1
 72
1
 10
1703.3937028742
 20
890.5059677797
 30
0.0
 11
1.0
 21
0.0
 31
0.0
 73
2
 44
0.9
  1
B
 40
44.45
 41
35.5269516729
  0
LEADER
  5
34A
100
AcDbEntity
  8
0
100
AcDbLeader
 62
7
  6
CONTINUOUS
  3
STANDARD
 71
1
 72
0
 73
3
 75
0
 76
2
 10
1721.1571787106
 20
912.7309677797
 30
0.0
 10
1741.8874817006
 20
990.0975117946
 30
0.0
1001
ACAD
1000
DSTYLE
1002
{
1070
77
1070
0
1070
341
1005
216
1070
41
1040
44.45
1002
}
  0
DIMENSION
  5
34B
100
AcDbEntity
  8
0
100
AcDbDimension
 62
2
  6
CONTINUOUS
  2
*D0
 10
1400.4542985313
 20
719.3922002725
 11
1468.8542985313
 21
693.2179250044
 70
160
 71
2
 72
2
 41
0.9
 42
136.8
  1
<>\PBOTH ENDS\P[]
  3
DIMSTYLE_1
100
AcDbAlignedDimension
 13
1537.2542985313
 23
800.6466032081
 14
1400.4542985313
 24
837.7266032081
 50
180.0
100
AcDbRotatedDimension
  0
DIMENSION
  5
34C
100
AcDbEntity
  8
0
100
AcDbDimension
 62
2
  6
CONTINUOUS
  2
*D1
 10
1331.5780589125
 20
835.9516032081
 11
1331.5780589125
 21
790.1995885949
 70
160
 71
2
 72
2
 41
0.9
 42
88.7
  1
<>\PBOTH ENDS\P[]
  3
DIMSTYLE_1
100
AcDbAlignedDimension
 13
1417.3430154783
 23
747.2516032081
 14
1501.9492985313
 24
835.9516032081
 50
90.0
100
AcDbRotatedDimension
  0
DIMENSION
  5
34D
100
AcDbEntity
  8
0
100
AcDbDimension
 62
2
  6
CONTINUOUS
  2
*D2
 10
2074.0159007946
 20
728.7537936737
 11
2173.1687119631
 21
810.7897657464
 70
160
 71
1
 72
2
 41
0.9
 42
47.7219159182
  1
<>\P[]
  3
DIMSTYLE_1
100
AcDbAlignedDimension
 13
2193.2298911592
 23
746.2158640627
 14
2356.9378508085
 24
652.9450856464
 50
255.0
100
AcDbRotatedDimension
  0
DIMENSION
  5
34E
100
AcDbEntity
  8
0
100
AcDbDimension
 62
2
  6
CONTINUOUS
  2
*D3
 10
2416.9750469057
 20
748.3263132469
 11
2317.4605386523
 21
762.9896453686
 70
160
 71
2
 72
2
 41
0.9
 42
206.05
  1
<>\P[]
  3
DIMSTYLE_1
100
AcDbAlignedDimension
 13
2204.8955860592
 23
752.9510561535
 14
2397.7279787502
 24
676.4952769939
 50
345.0
100
AcDbRotatedDimension
  0
DIMENSION
  5
34F
100
AcDbEntity
  8
0
100
AcDbDimension
 62
2
  6
CONTINUOUS
  2
*D4
 10
819.7703125
 20
598.2171120282
 11
716.7453125
 21
586.2156120282
 70
160
 71
2
 72
2
 41
0.9
 42
206.05
  1
<>\P[]
  3
DIMSTYLE_1
100
AcDbAlignedDimension
 13
613.7203125
 23
559.8093804768
 14
819.7703125
 24
439.2193804768
100
AcDbRotatedDimension
  0
DIMENSION
  5
350
100
AcDbEntity
  8
0
100
AcDbDimension
 62
2
  6
CONTINUOUS
  2
*D5
 10
555.4477409519
 20
405.9143804768
 11
555.4477409519
 21
485.4545041457
 70
160
 71
2
 72
2
 41
0.9
 42
144.37
  1
<>\P[]
  3
DIMSTYLE_1
100
AcDbAlignedDimension
 13
604.1953125
 23
550.2843804768
 14
786.4653125
 24
405.9143804768
 50
270.0
100
AcDbRotatedDimension
  0
DIMENSION
  5
351
100
AcDbEntity
  8
0
100
AcDbDimension
 62
2
  6
CONTINUOUS
  2
*D6
 10
1722.3140299903
 20
1243.7536575735
 11
1859.1332444102
 21
1214.9078885126
 70
160
 71
1
 72
2
 41
0.9
 42
47.7
  1
<>\P[]
  3
DIMSTYLE_1
100
AcDbAlignedDimension
 13
1778.4749922064
 23
1269.0505743099
 14
1779.5752776432
 24
1457.455543119
 50
165.0
100
AcDbRotatedDimension
  0
DIMENSION
  5
352
100
AcDbEntity
  8
0
100
AcDbDimension
 62
2
  6
CONTINUOUS
  2
*D7
 10
1894.7829897481
 20
1461.0656028872
 11
1867.8194541515
 21
1348.4348180888
 70
160
 71
2
 72
2
 41
0.9
 42
206.05
  1
<>\P[]
  3
DIMSTYLE_1
100
AcDbAlignedDimension
 13
1790.1406871064
 23
1275.7857664007
 14
1820.3654055849
 24
1481.0057344664
 50
75.0
100
AcDbRotatedDimension
  0
DIMENSION
  5
353
100
AcDbEntity
  8
0
100
AcDbDimension
 62
2
  6
CONTINUOUS
  2
*D8
 10
1133.7203125
 20
1180.7531028476
 11
871.5723699328
 21
1168.7516028476
 70
160
 71
2
 72
2
 41
0.9
 42
520.0
  1
<>\P[]
  3
DIMSTYLE_1
100
AcDbAlignedDimension
 13
613.7203125
 23
1156.9406028476
 14
1133.7203125
 24
1156.9406028476
100
AcDbRotatedDimension
  0
DIMENSION
  5
354
100
AcDbEntity
  8
0
100
AcDbDimension
 62
2
  6
CONTINUOUS
  2
*D9
 10
508.4169942005
 20
947.2516032081
 11
508.4169942005
 21
853.9740855187
 70
160
 71
2
 72
2
 41
0.9
 42
200.0
  1
<>\P[]
  3
DIMSTYLE_1
100
AcDbAlignedDimension
 13
381.4739823135
 23
747.2516032081
 14
381.4739823135
 24
947.2516032081
 50
90.0
100
AcDbRotatedDimension
  0
DIMENSION
  5
355
100
AcDbEntity
  8
0
100
AcDbDimension
 62
2
  6
CONTINUOUS
  2
*D10
 10
434.9163173679
 20
838.3613672884
 11
508.8718638363
 21
694.8638858676
 70
160
 71
1
 72
2
 41
0.9
 42
91.1097640803
  1
<>\P[]
  3
DIMSTYLE_1
100
AcDbAlignedDimension
 13
381.4739823135
 23
747.2516032081
 14
279.3838721107
 24
838.3613672884
 50
90.0
100
AcDbRotatedDimension
  0
DIMENSION
  5
356
100
AcDbEntity
  8
0
100
AcDbDimension
 62
2
  6
CONTINUOUS
  2
*D11
 10
398.3626992604
 20
1002.612546175
 11
330.3282922604
 21
990.611046175
 70
160
 71
2
 72
2
 41
0.9
 42
136.068814
  1
<>\P[]
  3
DIMSTYLE_1
100
AcDbAlignedDimension
 13
262.2938852604
 23
854.5812606326
 14
398.3626992604
 24
904.3787850851
100
AcDbRotatedDimension
  0
DIMENSION
  5
357
100
AcDbEntity
  8
0
100
AcDbDimension
 62
2
  6
CONTINUOUS
  2
*D12
 10
887.6603125
 20
1001.3447494922
 11
750.6903125
 21
989.3432494922
 70
160
 71
2
 72
2
 41
0.9
 42
273.94
  1
<>\P[]
  3
DIMSTYLE_1
100
AcDbAlignedDimension
 13
613.7203125
 23
956.1256799924
 14
887.6603125
 24
853.9016749728
100
AcDbRotatedDimension
  0
DIMENSION
  5
358
100
AcDbEntity
  8
0
100
AcDbDimension
 62
2
  6
CONTINUOUS
  2
*D13
 10
123.2673730894
 20
703.3912136028
 11
260.4889248739
 21
691.3897136028
 70
160
 71
2
 72
2
 41
0.9
 42
275.095326171
  1
<>\P[]
  3
DIMSTYLE_1
100
AcDbAlignedDimension
 13
398.3626992604
 23
837.7266032081
 14
123.2673730894
 24
875.4028733973
 50
180.0
100
AcDbRotatedDimension
  0
DIMENSION
  5
359
100
AcDbEntity
  8
0
100
AcDbDimension
 62
2
  6
CONTINUOUS
  2
*D14
 10
2140.1437549617
 20
658.4428585876
 11
2058.6490861735
 21
618.3049710455
 70
160
 71
3
 72
2
 41
0.9
 42
50.8
  1
<>\P[]
  3
DIMSTYLE_1
100
AcDbAlignedDimension
 13
2356.9378508085
 23
652.9450856464
 14
2343.7898433173
 24
603.876053671
 50
255.0
100
AcDbRotatedDimension
  0
DIMENSION
  5
35A
100
AcDbEntity
  8
0
100
AcDbDimension
 62
2
  6
CONTINUOUS
  2
*D15
 10
2521.1984435623
 20
720.3997382804
 11
2469.086745234
 21
722.3615257637
 70
160
 71
2
 72
2
 41
0.9
 42
107.9
  1
<>\P[]
  3
DIMSTYLE_1
100
AcDbAlignedDimension
 13
2397.7279787502
 23
676.4952769939
 14
2501.9513754068
 24
648.5687020273
 50
345.0
100
AcDbRotatedDimension
  0
DIMENSION
  5
35B
100
AcDbEntity
  8
0
100
AcDbDimension
 62
2
  6
CONTINUOUS
  2
*D16
 10
1666.8028770354
 20
1232.859342261
 11
1550.875927154
 21
1232.1040459106
 70
160
 71
3
 72
2
 41
0.9
 42
50.8
  1
<>\P[]
  3
DIMSTYLE_1
100
AcDbAlignedDimension
 13
1779.5752776432
 23
1457.455543119
 14
1730.5062456677
 24
1470.6035506102
 50
165.0
100
AcDbRotatedDimension
  0
DIMENSION
  5
35C
100
AcDbEntity
  8
0
100
AcDbDimension
 62
2
  6
CONTINUOUS
  2
*D17
 10
1922.7095647147
 20
1565.2889995438
 11
1908.7462772314
 21
1501.1758012155
 70
160
 71
2
 72
2
 41
0.9
 42
107.9
  1
<>\P[]
  3
DIMSTYLE_1
100
AcDbAlignedDimension
 13
1820.3654055849
 23
1481.0057344664
 14
1848.2919805515
 24
1585.229131123
 50
75.0
100
AcDbRotatedDimension
  0
DIMENSION
  5
35D
100
AcDbEntity
  8
0
100
AcDbDimension
 62
2
  6
CONTINUOUS
  2
*D18
 10
927.6703125
 20
598.2171120282
 11
873.7203125
 21
586.2156120282
 70
160
 71
2
 72
2
 41
0.9
 42
107.9
  1
<>\P[]
  3
DIMSTYLE_1
100
AcDbAlignedDimension
 13
819.7703125
 23
439.2193804768
 14
927.6703125
 24
439.2193804768
100
AcDbRotatedDimension
  0
DIMENSION
  5
35E
100
AcDbEntity
  8
0
100
AcDbDimension
 62
2
  6
CONTINUOUS
  2
*D19
 10
555.4477409519
 20
355.1143804768
 11
481.4921944835
 21
303.1511015811
 70
160
 71
3
 72
2
 41
0.9
 42
50.8
  1
<>\P[]
  3
DIMSTYLE_1
100
AcDbAlignedDimension
 13
786.4653125
 23
405.9143804768
 14
786.4653125
 24
355.1143804768
 50
270.0
100
AcDbRotatedDimension
  0
DIMENSION
  5
35F
100
AcDbEntity
  8
0
100
AcDbDimension
 62
2
  6
CONTINUOUS
  2
*D20
 10
111.0001150955
 20
881.6408715245
 11
67.6483695099
 21
813.6737977616
 70
162
 71
2
 72
2
 41
0.9
 42
0.2617993878
  3
DIMSTYLE_2
100
AcDb2LineAngularDimension
 13
142.8277661498
 23
747.2516032081
 14
147.4576185035
 24
747.2516032081
 15
106.5280211352
 25
880.4425775593
 16
68.4768702504
 26
807.6833030356
  0
LINE
  5
360
100
AcDbEntity
  8
0
100
AcDbLine
 62
2
  6
CONTINUOUS
 10
2200.3257066808
 20
126.1378071082
 11
2612.6257066808
 21
126.1378071082
  0
LINE
  5
361
100
AcDbEntity
  8
0
100
AcDbLine
 62
2
  6
CONTINUOUS
 10
2200.3257066808
 20
126.1378071082
 11
2200.3257066808
 21
-7.6278178918
  0
LINE
  5
362
100
AcDbEntity
  8
0
100
AcDbLine
 62
2
  6
CONTINUOUS
 10
2200.3257066808
 20
-7.6278178918
 11
2612.6257066808
 21
-7.6278178918
  0
LINE
  5
363
100
AcDbEntity
  8
0
100
AcDbLine
 62
2
  6
CONTINUOUS
 10
2612.6257066808
 20
126.1378071082
 11
2612.6257066808
 21
-7.6278178918
  0
MTEXT
  5
364
100
AcDbEntity
  8
0
100
AcDbMText
 62
2
  6
CONTINUOUS
  7
TEXTSTYLE_2
 71
2
 72
1
 10
2406.4757066808
 20
88.8883272007
 30
0.0
 11
1.0
 21
0.0
 31
0.0
 73
2
 44
0.99999996
  1
LOUDSPEAKER, PL-DC26, 6" \P2-WAY
 40
22.225
 41
406.9901486989
  0
LINE
  5
365
100
AcDbEntity
  8
0
100
AcDbLine
 62
2
  6
CONTINUOUS
 10
2903.8894129657
 20
117.5773936382
 11
2977.1269129657
 21
117.5773936382
  0
LINE
  5
366
100
AcDbEntity
  8
0
100
AcDbLine
 62
2
  6
CONTINUOUS
 10
2903.8894129657
 20
117.5773936382
 11
2903.8894129657
 21
74.8773936382
  0
LINE
  5
367
100
AcDbEntity
  8
0
100
AcDbLine
 62
2
  6
CONTINUOUS
 10
2903.8894129657
 20
74.8773936382
 11
2977.1269129657
 21
74.8773936382
  0
LINE
  5
368
100
AcDbEntity
  8
0
100
AcDbLine
 62
2
  6
CONTINUOUS
 10
2977.1269129657
 20
117.5773936382
 11
2977.1269129657
 21
74.8773936382
  0
MTEXT
  5
369
100
AcDbEntity
  8
0
100
AcDbMText
 62
2
  6
CONTINUOUS
  7
TEXTSTYLE_2
 71
2
 72
1
 10
2940.5081629657
 20
106.1892686382
 30
0.0
 11
1.0
 21
0.0
 31
0.0
 73
2
 44
0.9
  1
B
 40
22.225
 41
17.7634758364
  0
LINE
  5
36A
100
AcDbEntity
  8
0
100
AcDbLine
 62
2
  6
CONTINUOUS
 10
2678.3704956613
 20
118.3721387941
 11
2898.8704956613
 21
118.3721387941
  0
LINE
  5
36B
100
AcDbEntity
  8
0
100
AcDbLine
 62
2
  6
CONTINUOUS
 10
2678.3704956613
 20
118.3721387941
 11
2678.3704956613
 21
74.7315137941
  0
LINE
  5
36C
100
AcDbEntity
  8
0
100
AcDbLine
 62
2
  6
CONTINUOUS
 10
2678.3704956613
 20
74.7315137941
 11
2898.8704956613
 21
74.7315137941
  0
LINE
  5
36D
100
AcDbEntity
  8
0
100
AcDbLine
 62
2
  6
CONTINUOUS
 10
2898.8704956613
 20
118.3721387941
 11
2898.8704956613
 21
74.7315137941
  0
MTEXT
  5
36E
100
AcDbEntity
  8
0
100
AcDbMText
 62
2
  6
CONTINUOUS
  7
TEXTSTYLE_2
 71
2
 72
1
 10
2788.6204956613
 20
103.2783887941
 30
0.0
 11
1.0
 21
0.0
 31
0.0
 73
2
 44
0.9
  1
FG-901546-2D
 40
22.225
 41
206.0563197026
  0
LINE
  5
36F
100
AcDbEntity
  8
0
100
AcDbLine
 62
2
  6
CONTINUOUS
 10
2678.7754911011
 20
72.6561461759
 11
2787.2754911011
 21
72.6561461759
  0
LINE
  5
370
100
AcDbEntity
  8
0
100
AcDbLine
 62
2
  6
CONTINUOUS
 10
2678.7754911011
 20
72.6561461759
 11
2678.7754911011
 21
50.9452086759
  0
LINE
  5
371
100
AcDbEntity
  8
0
100
AcDbLine
 62
2
  6
CONTINUOUS
 10
2678.7754911011
 20
50.9452086759
 11
2787.2754911011
 21
50.9452086759
  0
LINE
  5
372
100
AcDbEntity
  8
0
100
AcDbLine
 62
2
  6
CONTINUOUS
 10
2787.2754911011
 20
72.6561461759
 11
2787.2754911011
 21
50.9452086759
  0
MTEXT
  5
373
100
AcDbEntity
  8
0
100
AcDbMText
 62
2
  6
CONTINUOUS
  7
TEXTSTYLE_2
 71
1
 72
1
 10
2738.7129911011
 20
68.0236774259
 30
0.0
 11
1.0
 21
0.0
 31
0.0
 73
2
 44
0.9
  1
1:7
 40
12.446
 41
24.0591821561
  0
LINE
  5
374
100
AcDbEntity
  8
0
100
AcDbLine
 62
2
  6
CONTINUOUS
 10
1354.9637015418
 20
126.0993076452
 11
1565.2262015418
 21
126.0993076452
  0
LINE
  5
375
100
AcDbEntity
  8
0
100
AcDbLine
 62
2
  6
CONTINUOUS
 10
1354.9637015418
 20
126.0993076452
 11
1354.9637015418
 21
40.5133701452
  0
MTEXT
  5
376
100
AcDbEntity
  8
0
100
AcDbMText
 62
2
  6
CONTINUOUS
  7
TEXTSTYLE_2
 71
1
 72
1
 10
1378.7637015418
 20
71.5211826452
 30
0.0
 11
1.0
 21
0.0
 31
0.0
 73
2
 44
0.9
  1
.X \fgdt;{\W1.0;{\fgdt;`}}\fCentury Gothic; 3.0 [.12]       \fgdt;{\W1.0;{\fgdt;`}}\fCentury Gothic;1\fgdt;{\W1.0;{\fgdt;~}}\P\fCentury Gothic;.XX \fgdt;{\W1.0;{\fgdt;`}}
 40
11.1125
 41
152.4767193309
  0
LINE
  5
377
100
AcDbEntity
  8
0
100
AcDbLine
 62
2
  6
CONTINUOUS
 10
2856.4179508003
 20
71.7723728957
 11
2977.1679508003
 21
71.7723728957
  0
LINE
  5
378
100
AcDbEntity
  8
0
100
AcDbLine
 62
2
  6
CONTINUOUS
 10
2856.4179508003
 20
71.7723728957
 11
2856.4179508003
 21
50.7176853957
  0
LINE
  5
379
100
AcDbEntity
  8
0
100
AcDbLine
 62
2
  6
CONTINUOUS
 10
2856.4179508003
 20
50.7176853957
 11
2977.1679508003
 21
50.7176853957
  0
LINE
  5
37A
100
AcDbEntity
  8
0
100
AcDbLine
 62
2
  6
CONTINUOUS
 10
2977.1679508003
 20
71.7723728957
 11
2977.1679508003
 21
50.7176853957
  0
MTEXT
  5
37B
100
AcDbEntity
  8
0
100
AcDbMText
 62
2
  6
CONTINUOUS
  7
TEXTSTYLE_2
 71
2
 72
1
 10
2940.9429508003
 20
67.7273196457
 30
0.0
 11
1.0
 21
0.0
 31
0.0
 73
2
 44
0.9
  1
1 OF 1
 40
12.964581
 41
54.5572702305
  0
LINE
  5
37C
100
AcDbEntity
  8
0
100
AcDbLine
 62
2
  6
CONTINUOUS
 10
1587.5222420099
 20
113.1404071126
 11
1766.0222420099
 21
113.1404071126
  0
LINE
  5
37D
100
AcDbEntity
  8
0
100
AcDbLine
 62
2
  6
CONTINUOUS
 10
1587.5222420099
 20
113.1404071126
 11
1587.5222420099
 21
84.9763446126
  0
LINE
  5
37E
100
AcDbEntity
  8
0
100
AcDbLine
 62
2
  6
CONTINUOUS
 10
1587.5222420099
 20
84.9763446126
 11
1766.0222420099
 21
84.9763446126
  0
LINE
  5
37F
100
AcDbEntity
  8
0
100
AcDbLine
 62
2
  6
CONTINUOUS
 10
1766.0222420099
 20
113.1404071126
 11
1766.0222420099
 21
84.9763446126
  0
MTEXT
  5
380
100
AcDbEntity
  8
0
100
AcDbMText
 62
2
  6
CONTINUOUS
  7
TEXTSTYLE_2
 71
1
 72
1
 10
1587.9597420099
 20
98.9818133626
 30
0.0
 11
1.0
 21
0.0
 31
0.0
 73
2
 44
0.9
  1
 M. DAVILA
 40
11.1125
 41
83.075232342
  0
LINE
  5
381
100
AcDbEntity
  8
0
100
AcDbLine
 62
2
  6
CONTINUOUS
 10
1587.7096095063
 20
81.4755305927
 11
1766.2096095063
 21
81.4755305927
  0
LINE
  5
382
100
AcDbEntity
  8
0
100
AcDbLine
 62
2
  6
CONTINUOUS
 10
1587.7096095063
 20
81.4755305927
 11
1587.7096095063
 21
53.3114680927
  0
LINE
  5
383
100
AcDbEntity
  8
0
100
AcDbLine
 62
2
  6
CONTINUOUS
 10
1587.7096095063
 20
53.3114680927
 11
1766.2096095063
 21
53.3114680927
  0
LINE
  5
384
100
AcDbEntity
  8
0
100
AcDbLine
 62
2
  6
CONTINUOUS
 10
1766.2096095063
 20
81.4755305927
 11
1766.2096095063
 21
53.3114680927
  0
MTEXT
  5
385
100
AcDbEntity
  8
0
100
AcDbMText
 62
2
  6
CONTINUOUS
  7
TEXTSTYLE_2
 71
1
 72
1
 10
1588.1471095063
 20
67.3169368427
 30
0.0
 11
1.0
 21
0.0
 31
0.0
 73
2
 44
0.9
  1
 B. HAWKINS
 40
11.1125
 41
90.511105948
  0
LINE
  5
386
100
AcDbEntity
  8
0
100
AcDbLine
 62
2
  6
CONTINUOUS
 10
1772.4954150977
 20
112.99722256
 11
1950.9954150977
 21
112.99722256
  0
LINE
  5
387
100
AcDbEntity
  8
0
100
AcDbLine
 62
2
  6
CONTINUOUS
 10
1772.4954150977
 20
112.99722256
 11
1772.4954150977
 21
84.83316006
  0
LINE
  5
388
100
AcDbEntity
  8
0
100
AcDbLine
 62
2
  6
CONTINUOUS
 10
1772.4954150977
 20
84.83316006
 11
1950.9954150977
 21
84.83316006
  0
LINE
  5
389
100
AcDbEntity
  8
0
100
AcDbLine
 62
2
  6
CONTINUOUS
 10
1950.9954150977
 20
112.99722256
 11
1950.9954150977
 21
84.83316006
  0
MTEXT
  5
38A
100
AcDbEntity
  8
0
100
AcDbMText
 62
2
  6
CONTINUOUS
  7
TEXTSTYLE_2
 71
1
 72
1
 10
1772.9329150977
 20
98.83862881
 30
0.0
 11
1.0
 21
0.0
 31
0.0
 73
2
 44
0.9
  1
 R. VAUCHER
 40
11.1125
 41
95.6749070632
  0
LINE
  5
38B
100
AcDbEntity
  8
0
100
AcDbLine
 62
2
  6
CONTINUOUS
 10
1772.4240688005
 20
81.3810354199
 11
1950.9240688005
 21
81.3810354199
  0
LINE
  5
38C
100
AcDbEntity
  8
0
100
AcDbLine
 62
2
  6
CONTINUOUS
 10
1772.4240688005
 20
81.3810354199
 11
1772.4240688005
 21
53.2169729199
  0
LINE
  5
38D
100
AcDbEntity
  8
0
100
AcDbLine
 62
2
  6
CONTINUOUS
 10
1772.4240688005
 20
53.2169729199
 11
1950.9240688005
 21
53.2169729199
  0
LINE
  5
38E
100
AcDbEntity
  8
0
100
AcDbLine
 62
2
  6
CONTINUOUS
 10
1950.9240688005
 20
81.3810354199
 11
1950.9240688005
 21
53.2169729199
  0
MTEXT
  5
38F
100
AcDbEntity
  8
0
100
AcDbMText
 62
2
  6
CONTINUOUS
  7
TEXTSTYLE_2
 71
1
 72
1
 10
1772.8615688005
 20
67.2224416699
 30
0.0
 11
1.0
 21
0.0
 31
0.0
 73
2
 44
0.9
  1
 A. TRAN
 40
11.1125
 41
63.2462360595
  0
LINE
  5
390
100
AcDbEntity
  8
0
100
AcDbLine
 62
2
  6
CONTINUOUS
 10
1960.3768066612
 20
113.1535287466
 11
2138.8768066612
 21
113.1535287466
  0
LINE
  5
391
100
AcDbEntity
  8
0
100
AcDbLine
 62
2
  6
CONTINUOUS
 10
1960.3768066612
 20
113.1535287466
 11
1960.3768066612
 21
84.9894662466
  0
LINE
  5
392
100
AcDbEntity
  8
0
100
AcDbLine
 62
2
  6
CONTINUOUS
 10
1960.3768066612
 20
84.9894662466
 11
2138.8768066612
 21
84.9894662466
  0
LINE
  5
393
100
AcDbEntity
  8
0
100
AcDbLine
 62
2
  6
CONTINUOUS
 10
2138.8768066612
 20
113.1535287466
 11
2138.8768066612
 21
84.9894662466
  0
MTEXT
  5
394
100
AcDbEntity
  8
0
100
AcDbMText
 62
2
  6
CONTINUOUS
  7
TEXTSTYLE_2
 71
1
 72
1
 10
1960.8143066612
 20
98.9949349966
 30
0.0
 11
1.0
 21
0.0
 31
0.0
 73
2
 44
0.9
  1
 MD
 40
11.1125
 41
30.0739776952
  0
LINE
  5
395
100
AcDbEntity
  8
0
100
AcDbLine
 62
2
  6
CONTINUOUS
 10
1959.8128611657
 20
81.5216319585
 11
2138.3128611657
 21
81.5216319585
  0
LINE
  5
396
100
AcDbEntity
  8
0
100
AcDbLine
 62
2
  6
CONTINUOUS
 10
1959.8128611657
 20
81.5216319585
 11
1959.8128611657
 21
53.3575694585
  0
LINE
  5
397
100
AcDbEntity
  8
0
100
AcDbLine
 62
2
  6
CONTINUOUS
 10
1959.8128611657
 20
53.3575694585
 11
2138.3128611657
 21
53.3575694585
  0
LINE
  5
398
100
AcDbEntity
  8
0
100
AcDbLine
 62
2
  6
CONTINUOUS
 10
2138.3128611657
 20
81.5216319585
 11
2138.3128611657
 21
53.3575694585
  0
MTEXT
  5
399
100
AcDbEntity
  8
0
100
AcDbMText
 62
2
  6
CONTINUOUS
  7
TEXTSTYLE_2
 71
1
 72
1
 10
1960.2503611657
 20
67.3630382085
 30
0.0
 11
1.0
 21
0.0
 31
0.0
 73
2
 44
0.9
  1
 28-MAR-2024
 40
11.1125
 41
101.2931226766
  0
MTEXT
  5
39A
100
AcDbEntity
  8
0
100
AcDbMText
 62
2
  6
CONTINUOUS
  7
TEXTSTYLE_2
 71
1
 72
1
 10
2913.9126704127
 20
67.850394764
 30
0.0
 11
1.0
 21
0.0
 31
0.0
 73
2
 44
0.9
  1
1 OF 1
 40
12.964581
 41
54.5572702305
  0
TEXT
  5
39B
100
AcDbEntity
  8
0
100
AcDbText
 62
2
  6
CONTINUOUS
 10
53.8211281343
 20
1862.4701847421
  7
STANDARD
 40
16.002
  1
NOTES: UNLESS OTHERWISE SPECIFIED
 41
1.0
 72
0
100
AcDbText
  0
TEXT
  5
39C
100
AcDbEntity
  8
0
100
AcDbText
 62
2
  6
CONTINUOUS
 10
53.8211281343
 20
1838.4671847421
  7
STANDARD
 40
16.002
  1
 
 41
1.0
 72
0
100
AcDbText
  0
TEXT
  5
39D
100
AcDbEntity
  8
0
100
AcDbText
 62
2
  6
CONTINUOUS
 10
53.8211281343
 20
1814.4641847421
  7
STANDARD
 40
16.002
  1
1.      NET WEIGHT APPROX. 11.5 KG [25.3 LBS]. 
 41
1.0
 72
0
100
AcDbText
  0
TEXT
  5
39E
100
AcDbEntity
  8
0
100
AcDbText
 62
2
  6
CONTINUOUS
 10
53.8211281343
 20
1790.4611847421
  7
STANDARD
 40
16.002
  1
 
 41
1.0
 72
0
100
AcDbText
  0
TEXT
  5
39F
100
AcDbEntity
  8
0
100
AcDbText
 62
2
  6
CONTINUOUS
 10
53.8211281343
 20
1766.4581847421
  7
STANDARD
 40
16.002
  1
2.      SYMBOL      INDICATES CENTER OF GRAVITY.
 41
1.0
 72
0
100
AcDbText
  0
TEXT
  5
3A0
100
AcDbEntity
  8
0
100
AcDbText
 62
2
  6
CONTINUOUS
 10
53.8211281343
 20
1742.4551847421
  7
STANDARD
 40
16.002
  1
 
 41
1.0
 72
0
100
AcDbText
  0
TEXT
  5
3A1
100
AcDbEntity
  8
0
100
AcDbText
 62
2
  6
CONTINUOUS
 10
61.8221281343
 20
1714.4516847421
  7
STANDARD
 40
16.002
  1
3
 41
1.0
 72
0
100
AcDbText
  0
TEXT
  5
3A2
100
AcDbEntity
  8
0
100
AcDbText
 62
2
  6
CONTINUOUS
 10
82.1964218146
 20
1714.4516847421
  7
STANDARD
 40
16.002
  1
    SUSPENSION POINT LOCATION, M8 THREAD.
 41
1.0
 72
0
100
AcDbText
  0
TEXT
  5
3A3
100
AcDbEntity
  8
0
100
AcDbText
 62
2
  6
CONTINUOUS
 10
53.8211281343
 20
1686.4481847421
  7
STANDARD
 40
16.002
  1
 
 41
1.0
 72
0
100
AcDbText
  0
TEXT
  5
3A4
100
AcDbEntity
  8
0
100
AcDbText
 62
2
  6
CONTINUOUS
 10
61.8221281343
 20
1658.4446847421
  7
STANDARD
 40
16.002
  1
4
 41
1.0
 72
0
100
AcDbText
  0
TEXT
  5
3A5
100
AcDbEntity
  8
0
100
AcDbText
 62
2
  6
CONTINUOUS
 10
82.1964218146
 20
1658.4446847421
  7
STANDARD
 40
16.002
  1
     SUSPENSION POINT LOCATION, M6 THREAD.
 41
1.0
 72
0
100
AcDbText
  0
TEXT
  5
3A6
100
AcDbEntity
  8
0
100
AcDbText
 62
2
  6
CONTINUOUS
 10
53.8211281343
 20
1630.4411847421
  7
STANDARD
 40
16.002
  1
 
 41
1.0
 72
0
100
AcDbText
  0
TEXT
  5
3A7
100
AcDbEntity
  8
0
100
AcDbText
 62
2
  6
CONTINUOUS
 10
53.8211281343
 20
1606.4381847421
  7
STANDARD
 40
16.002
  1
5.      GRILLE NOT SHOWN FOR CLARITY. 
 41
1.0
 72
0
100
AcDbText
  0
TEXT
  5
3A8
100
AcDbEntity
  8
0
100
AcDbText
 62
2
  6
CONTINUOUS
 10
1623.701364726
 20
705.8496497203
  7
STANDARD
 40
16.002
  1
3
 41
1.0
 72
0
100
AcDbText
  0
TEXT
  5
3A9
100
AcDbEntity
  8
0
100
AcDbText
 62
2
  6
CONTINUOUS
 10
1644.0756584063
 20
705.8496497203
  7
STANDARD
 40
16.002
  1
 BOTH ENDS
 41
1.0
 72
0
100
AcDbText
  0
LEADER
  5
3AA
100
AcDbEntity
  8
0
100
AcDbLeader
 62
2
  6
CONTINUOUS
  3
STANDARD
 71
1
 72
0
 73
3
 75
0
 76
3
 10
1540.9930336484
 20
827.7649152499
 30
0.0
 10
1571.250364726
 20
713.8506497203
 30
0.0
 10
1615.700364726
 20
713.8506497203
 30
0.0
1001
ACAD
1000
DSTYLE
1002
{
1070
77
1070
0
1002
}
  0
TEXT
  5
3AB
100
AcDbEntity
  8
0
100
AcDbText
 62
2
  6
CONTINUOUS
 10
1201.0507947787
 20
396.42373694
  7
STANDARD
 40
16.002
  1
4
 41
1.0
 72
0
100
AcDbText
  0
TEXT
  5
3AC
100
AcDbEntity
  8
0
100
AcDbText
 62
2
  6
CONTINUOUS
 10
1221.425088459
 20
396.42373694
  7
STANDARD
 40
16.002
  1
 4X
 41
1.0
 72
0
100
AcDbText
  0
LEADER
  5
3AD
100
AcDbEntity
  8
0
100
AcDbLeader
 62
2
  6
CONTINUOUS
  3
STANDARD
 71
1
 72
0
 73
3
 75
0
 76
3
 10
934.5022116109
 20
356.6392262195
 30
0.0
 10
1148.5997947787
 20
404.42473694
 30
0.0
 10
1193.0497947787
 20
404.42473694
 30
0.0
1001
ACAD
1000
DSTYLE
1002
{
1070
77
1070
0
1002
}
  0
MTEXT
  5
3AE
100
AcDbEntity
  8
0
100
AcDbMText
 62
2
  6
CONTINUOUS
  7
STANDARD
 71
3
 72
1
 10
2428.0040402263
 20
395.2212728835
 30
0.0
 11
1.0
 21
0.0
 31
0.0
 73
2
 44
0.9
  1
VIEW \H44.45;A\H16.002;-\H44.45;A
 40
16.002
 41
159.2400594796
  0
TEXT
  5
3AF
100
AcDbEntity
  8
0
100
AcDbText
 62
2
  6
CONTINUOUS
 10
2612.7931445039
 20
673.1621820409
  7
STANDARD
 40
16.002
  1
4
 41
1.0
 72
0
100
AcDbText
  0
TEXT
  5
3B0
100
AcDbEntity
  8
0
100
AcDbText
 62
2
  6
CONTINUOUS
 10
2633.1674381842
 20
673.1621820409
  7
STANDARD
 40
16.002
  1
 4X
 41
1.0
 72
0
100
AcDbText
  0
LEADER
  5
3B1
100
AcDbEntity
  8
0
100
AcDbLeader
 62
2
  6
CONTINUOUS
  3
STANDARD
 71
1
 72
0
 73
3
 75
0
 76
3
 10
2498.9522899734
 20
620.5699695789
 30
0.0
 10
2560.3421445039
 20
681.1631820409
 30
0.0
 10
2604.7921445039
 20
681.1631820409
 30
0.0
1001
ACAD
1000
DSTYLE
1002
{
1070
77
1070
0
1002
}
  0
MTEXT
  5
3B2
100
AcDbEntity
  8
0
100
AcDbMText
 62
2
  6
CONTINUOUS
  7
STANDARD
 71
3
 72
1
 10
1683.6898045768
 20
1121.955850501
 30
0.0
 11
1.0
 21
0.0
 31
0.0
 73
2
 44
0.9
  1
VIEW \H44.45;B\H16.002;-\H44.45;B
 40
16.002
 41
138.7500966543
  0
TEXT
  5
3B3
100
AcDbEntity
  8
0
100
AcDbText
 62
2
  6
CONTINUOUS
 10
1957.5944134594
 20
1620.0202871427
  7
STANDARD
 40
16.002
  1
4
 41
1.0
 72
0
100
AcDbText
  0
TEXT
  5
3B4
100
AcDbEntity
  8
0
100
AcDbText
 62
2
  6
CONTINUOUS
 10
1977.9687071397
 20
1620.0202871427
  7
STANDARD
 40
16.002
  1
 4X
 41
1.0
 72
0
100
AcDbText
  0
LEADER
  5
3B5
100
AcDbEntity
  8
0
100
AcDbLeader
 62
2
  6
CONTINUOUS
  3
STANDARD
 71
1
 72
0
 73
3
 75
0
 76
3
 10
1822.6568838924
 20
1596.357675067
 30
0.0
 10
1905.1434134594
 20
1628.0212871427
 30
0.0
 10
1949.5934134594
 20
1628.0212871427
 30
0.0
1001
ACAD
1000
DSTYLE
1002
{
1070
77
1070
0
1002
}
  0
INSERT
  5
3B6
100
AcDbEntity
  8
0
100
AcDbBlockReference
 62
2
  6
CONTINUOUS
  2
CG_3D_BL0
 10
217.280453891
 20
1774.8480530794
  0
INSERT
  5
3B7
100
AcDbEntity
  8
0
100
AcDbBlockReference
 62
2
  6
CONTINUOUS
  2
CG_3D_BL1
 10
887.7514368407
 20
838.3683549162
  0
INSERT
  5
3B8
100
AcDbEntity
  8
0
100
AcDbBlockReference
 62
2
  6
CONTINUOUS
  2
CG_3D_BL2
 10
262.3341513
 20
838.3566303831
  0
LINE
  5
3B9
100
AcDbEntity
  8
0
100
AcDbLine
 62
7
  6
CONTINUOUS
 10
87.8333773781
 20
69.7251711387
 11
96.2231666812
 21
65.0712788149
  0
LINE
  5
3BA
100
AcDbEntity
  8
0
100
AcDbLine
 62
7
  6
CONTINUOUS
 10
92.0282720297
 20
73.957396606
 11
100.2535556601
 21
69.3947570729
  0
LINE
  5
3BB
100
AcDbEntity
  8
0
100
AcDbLine
 62
7
  6
CONTINUOUS
 10
52.5880370216
 20
65.6173988324
 11
71.7940742987
 21
54.5287880404
  0
LINE
  5
3BC
100
AcDbEntity
  8
0
100
AcDbLine
 62
7
  6
CONTINUOUS
 10
59.5795281075
 20
71.0785990084
 11
73.0278668433
 21
63.3141970191
  0
LINE
  5
3BD
100
AcDbEntity
  8
0
100
AcDbLine
 62
7
  6
CONTINUOUS
 10
66.6532720297
 20
76.1124009097
 11
73.8503952063
 21
71.9571399063
  0
LINE
  5
3BE
100
AcDbEntity
  8
0
100
AcDbLine
 62
7
  6
CONTINUOUS
 10
83.1038392906
 20
87.9845752052
 11
75.9067161139
 21
92.1398362087
  0
LINE
  5
3BF
100
AcDbEntity
  8
0
100
AcDbLine
 62
7
  6
CONTINUOUS
 10
90.1775832128
 20
93.0183771065
 11
76.729244477
 21
100.7827790958
  0
LINE
  5
3C0
100
AcDbEntity
  8
0
100
AcDbLine
 62
7
  6
CONTINUOUS
 10
97.1690742987
 20
98.4795772825
 11
77.9630370216
 21
109.5681880745
  0
LINE
  5
3C1
100
AcDbEntity
  8
0
100
AcDbLine
 62
7
  6
CONTINUOUS
 10
49.5035556601
 20
93.1370988495
 11
49.5035556601
 21
70.9598772654
  0
LINE
  5
3C2
100
AcDbEntity
  8
0
100
AcDbLine
 62
7
  6
CONTINUOUS
 10
57.7288392906
 20
89.8128900467
 11
57.7288392906
 21
74.2840860682
  0
LINE
  5
3C3
100
AcDbEntity
  8
0
100
AcDbLine
 62
7
  6
CONTINUOUS
 10
65.6251115759
 20
86.2037490609
 11
65.6251115759
 21
77.893227054
  0
LINE
  5
3C4
100
AcDbEntity
  8
0
100
AcDbLine
 62
7
  6
CONTINUOUS
 10
84.1319997444
 20
77.893227054
 11
84.1319997444
 21
86.2037490609
  0
LINE
  5
3C5
100
AcDbEntity
  8
0
100
AcDbLine
 62
7
  6
CONTINUOUS
 10
92.0282720297
 20
73.957396606
 11
92.0282720297
 21
89.8128900467
  0
LINE
  5
3C6
100
AcDbEntity
  8
0
100
AcDbLine
 62
7
  6
CONTINUOUS
 10
100.2535556601
 20
69.3947570729
 11
100.2535556601
 21
93.1370988495
  0
LINE
  5
3C7
100
AcDbEntity
  8
0
100
AcDbLine
 62
7
  6
CONTINUOUS
 10
71.7940742987
 20
109.5681880745
 11
52.5880370216
 21
98.4795772825
  0
LINE
  5
3C8
100
AcDbEntity
  8
0
100
AcDbLine
 62
7
  6
CONTINUOUS
 10
73.0278668433
 20
100.7827790958
 11
59.5795281075
 21
93.0183771065
  0
LINE
  5
3C9
100
AcDbEntity
  8
0
100
AcDbLine
 62
7
  6
CONTINUOUS
 10
73.8503952063
 20
92.1398362087
 11
66.6532720297
 21
87.9845752052
  0
LINE
  5
3CA
100
AcDbEntity
  8
0
100
AcDbLine
 62
7
  6
CONTINUOUS
 10
75.9067161139
 20
71.9571399063
 11
83.1038392906
 21
76.1124009097
  0
LINE
  5
3CB
100
AcDbEntity
  8
0
100
AcDbLine
 62
7
  6
CONTINUOUS
 10
76.729244477
 20
63.3141970191
 11
87.8333773781
 21
69.7251711387
  0
LINE
  5
3CC
100
AcDbEntity
  8
0
100
AcDbLine
 62
7
  6
CONTINUOUS
 10
77.9630370216
 20
54.5287880404
 11
96.2231666812
 21
65.0712788149
  0
ARC
  5
3CD
100
AcDbEntity
  8
0
100
AcDbCircle
 62
7
  6
CONTINUOUS
 10
94.0845929373
 20
93.1370988495
 40
6.1689627229
100
AcDbArc
 50
0.0
 51
60.0
  0
ARC
  5
3CE
100
AcDbEntity
  8
0
100
AcDbCircle
 62
7
  6
CONTINUOUS
 10
74.8785556601
 20
104.2257096415
 40
6.1689627229
100
AcDbArc
 50
60.0
 51
120.0
  0
ARC
  5
3CF
100
AcDbEntity
  8
0
100
AcDbCircle
 62
7
  6
CONTINUOUS
 10
55.672518383
 20
93.1370988495
 40
6.1689627229
100
AcDbArc
 50
120.0
 51
180.0
  0
ARC
  5
3D0
100
AcDbEntity
  8
0
100
AcDbCircle
 62
7
  6
CONTINUOUS
 10
55.672518383
 20
70.9598772654
 40
6.1689627229
100
AcDbArc
 50
180.0
 51
240.0
  0
ARC
  5
3D1
100
AcDbEntity
  8
0
100
AcDbCircle
 62
7
  6
CONTINUOUS
 10
74.8785556601
 20
59.8712664734
 40
6.1689627229
100
AcDbArc
 50
240.0
 51
300.0
  0
ARC
  5
3D2
100
AcDbEntity
  8
0
100
AcDbCircle
 62
7
  6
CONTINUOUS
 10
88.326894396
 20
89.8128900467
 40
3.7013776337
100
AcDbArc
 50
0.0
 51
60.0
  0
ARC
  5
3D3
100
AcDbEntity
  8
0
100
AcDbCircle
 62
7
  6
CONTINUOUS
 10
74.8785556601
 20
97.577292036
 40
3.7013776337
100
AcDbArc
 50
60.0
 51
120.0
  0
ARC
  5
3D4
100
AcDbEntity
  8
0
100
AcDbCircle
 62
7
  6
CONTINUOUS
 10
61.4302169243
 20
89.8128900467
 40
3.7013776337
100
AcDbArc
 50
120.0
 51
180.0
  0
ARC
  5
3D5
100
AcDbEntity
  8
0
100
AcDbCircle
 62
7
  6
CONTINUOUS
 10
61.4302169243
 20
74.2840860682
 40
3.7013776337
100
AcDbArc
 50
180.0
 51
240.0
  0
ARC
  5
3D6
100
AcDbEntity
  8
0
100
AcDbCircle
 62
7
  6
CONTINUOUS
 10
74.8785556601
 20
66.5196840789
 40
3.7013776337
100
AcDbArc
 50
240.0
 51
300.0
  0
ARC
  5
3D7
100
AcDbEntity
  8
0
100
AcDbCircle
 62
7
  6
CONTINUOUS
 10
74.8785556601
 20
73.7379660506
 40
2.0563209076
100
AcDbArc
 50
240.0
 51
300.0
  0
ARC
  5
3D8
100
AcDbEntity
  8
0
100
AcDbCircle
 62
7
  6
CONTINUOUS
 10
82.0756788368
 20
77.893227054
 40
2.0563209076
100
AcDbArc
 50
300.0
 51
360.0
  0
ARC
  5
3D9
100
AcDbEntity
  8
0
100
AcDbCircle
 62
7
  6
CONTINUOUS
 10
82.0756788368
 20
86.2037490609
 40
2.0563209076
100
AcDbArc
 50
0.0
 51
60.0
  0
ARC
  5
3DA
100
AcDbEntity
  8
0
100
AcDbCircle
 62
7
  6
CONTINUOUS
 10
74.8785556601
 20
90.3590100643
 40
2.0563209076
100
AcDbArc
 50
60.0
 51
120.0
  0
ARC
  5
3DB
100
AcDbEntity
  8
0
100
AcDbCircle
 62
7
  6
CONTINUOUS
 10
67.6814324835
 20
86.2037490609
 40
2.0563209076
100
AcDbArc
 50
120.0
 51
180.0
  0
ARC
  5
3DC
100
AcDbEntity
  8
0
100
AcDbCircle
 62
7
  6
CONTINUOUS
 10
67.6814324835
 20
77.893227054
 40
2.0563209076
100
AcDbArc
 50
180.0
 51
240.0
  0
HATCH
  5
3DD
100
AcDbEntity
  8
0
100
AcDbHatch
 62
7
  6
CONTINUOUS
 10
0.0
 20
0.0
 30
0.0
210
0.0
220
0.0
230
1.0
  2
XSEC0001
 70
1
 71
1
 91
2
 92
1
 93
24
 72
1
 10
96.2231666812
 20
65.0712788149
 11
77.9630370216
 21
54.5287880404
 72
2
 10
74.8785556601
 20
59.8712664734
 40
6.1689627229
 50
-300.0
 51
-240.0
 73
0
 72
1
 10
71.7940742987
 20
54.5287880404
 11
52.5880370216
 21
65.6173988324
 72
2
 10
55.672518383
 20
70.9598772654
 40
6.1689627229
 50
-240.0
 51
-180.0
 73
0
 72
1
 10
49.5035556601
 20
70.9598772654
 11
49.5035556601
 21
93.1370988495
 72
2
 10
55.672518383
 20
93.1370988495
 40
6.1689627229
 50
-180.0
 51
-120.0
 73
0
 72
1
 10
52.5880370216
 20
98.4795772825
 11
71.7940742987
 21
109.5681880745
 72
2
 10
74.8785556601
 20
104.2257096415
 40
6.1689627229
 50
-120.0
 51
-60.0
 73
0
 72
1
 10
77.9630370216
 20
109.5681880745
 11
97.1690742987
 21
98.4795772825
 72
2
 10
94.0845929373
 20
93.1370988495
 40
6.1689627229
 50
-60.0
 51
0.0
 73
0
 72
1
 10
100.2535556601
 20
93.1370988495
 11
100.2535556601
 21
69.3947570729
 72
1
 10
100.2535556601
 20
69.3947570729
 11
92.0282720297
 21
73.957396606
 72
1
 10
92.0282720297
 20
73.957396606
 11
92.0282720297
 21
89.8128900467
 72
2
 10
88.326894396
 20
89.8128900467
 40
3.7013776337
 50
0.0
 51
60.0
 73
1
 72
1
 10
90.1775832128
 20
93.0183771065
 11
76.729244477
 21
100.7827790958
 72
2
 10
74.8785556601
 20
97.577292036
 40
3.7013776337
 50
60.0
 51
120.0
 73
1
 72
1
 10
73.0278668433
 20
100.7827790958
 11
59.5795281075
 21
93.0183771065
 72
2
 10
61.4302169243
 20
89.8128900467
 40
3.7013776337
 50
120.0
 51
180.0
 73
1
 72
1
 10
57.7288392906
 20
89.8128900467
 11
57.7288392906
 21
74.2840860682
 72
2
 10
61.4302169243
 20
74.2840860682
 40
3.7013776337
 50
180.0
 51
240.0
 73
1
 72
1
 10
59.5795281075
 20
71.0785990084
 11
73.0278668433
 21
63.3141970191
 72
2
 10
74.8785556601
 20
66.5196840789
 40
3.7013776337
 50
240.0
 51
300.0
 73
1
 72
1
 10
76.729244477
 20
63.3141970191
 11
87.8333773781
 21
69.7251711387
 72
1
 10
87.8333773781
 20
69.7251711387
 11
96.2231666812
 21
65.0712788149
 97
36
330
3B9
330
3BA
330
3BB
330
3BC
330
3BD
330
3BE
330
3BF
330
3C0
330
3C1
330
3C2
330
3C3
330
3C4
330
3C5
330
3C6
330
3C7
330
3C8
330
3C9
330
3CA
330
3CB
330
3CC
330
3CD
330
3CE
330
3CF
330
3D0
330
3D1
330
3D2
330
3D3
330
3D4
330
3D5
330
3D6
330
3D7
330
3D8
330
3D9
330
3DA
330
3DB
330
3DC
 92
1
 93
12
 72
2
 10
74.8785556601
 20
73.7379660506
 40
2.0563209076
 50
240.0
 51
300.0
 73
1
 72
1
 10
75.9067161139
 20
71.9571399063
 11
83.1038392906
 21
76.1124009097
 72
2
 10
82.0756788368
 20
77.893227054
 40
2.0563209076
 50
-60.0
 51
0.0
 73
1
 72
1
 10
84.1319997444
 20
77.893227054
 11
84.1319997444
 21
86.2037490609
 72
2
 10
82.0756788368
 20
86.2037490609
 40
2.0563209076
 50
0.0
 51
60.0
 73
1
 72
1
 10
83.1038392906
 20
87.9845752052
 11
75.9067161139
 21
92.1398362087
 72
2
 10
74.8785556601
 20
90.3590100643
 40
2.0563209076
 50
60.0
 51
120.0
 73
1
 72
1
 10
73.8503952063
 20
92.1398362087
 11
66.6532720297
 21
87.9845752052
 72
2
 10
67.6814324835
 20
86.2037490609
 40
2.0563209076
 50
120.0
 51
180.0
 73
1
 72
1
 10
65.6251115759
 20
86.2037490609
 11
65.6251115759
 21
77.893227054
 72
2
 10
67.6814324835
 20
77.893227054
 40
2.0563209076
 50
180.0
 51
240.0
 73
1
 72
1
 10
66.6532720297
 20
76.1124009097
 11
73.8503952063
 21
71.9571399063
 97
36
330
3B9
330
3BA
330
3BB
330
3BC
330
3BD
330
3BE
330
3BF
330
3C0
330
3C1
330
3C2
330
3C3
330
3C4
330
3C5
330
3C6
330
3C7
330
3C8
330
3C9
330
3CA
330
3CB
330
3CC
330
3CD
330
3CE
330
3CF
330
3D0
330
3D1
330
3D2
330
3D3
330
3D4
330
3D5
330
3D6
330
3D7
330
3D8
330
3D9
330
3DA
330
3DB
330
3DC
 75
0
 76
1
 98
1
 10
0.0
 20
0.0
  0
LINE
  5
3DE
100
AcDbEntity
  8
0
100
AcDbLine
 62
7
  6
CONTINUOUS
 10
238.7673319973
 20
79.1170686279
 11
221.9055005548
 21
94.3678970663
  0
LINE
  5
3DF
100
AcDbEntity
  8
0
100
AcDbLine
 62
7
  6
CONTINUOUS
 10
241.399422759
 20
82.687994311
 11
228.4857274592
 21
94.3678970663
  0
LINE
  5
3E0
100
AcDbEntity
  8
0
100
AcDbLine
 62
7
  6
CONTINUOUS
 10
238.7673319973
 20
79.1170686279
 11
238.7673319973
 21
69.198529157
  0
LINE
  5
3E1
100
AcDbEntity
  8
0
100
AcDbLine
 62
7
  6
CONTINUOUS
 10
244.0315135208
 20
79.1170686279
 11
244.0315135208
 21
69.198529157
  0
LINE
  5
3E2
100
AcDbEntity
  8
0
100
AcDbLine
 62
7
  6
CONTINUOUS
 10
244.0315135208
 20
69.198529157
 11
238.7673319973
 21
69.198529157
  0
LINE
  5
3E3
100
AcDbEntity
  8
0
100
AcDbLine
 62
7
  6
CONTINUOUS
 10
228.4857274592
 20
94.3678970663
 11
221.9055005548
 21
94.3678970663
  0
LINE
  5
3E4
100
AcDbEntity
  8
0
100
AcDbLine
 62
7
  6
CONTINUOUS
 10
254.3131180588
 20
94.3678970663
 11
260.8933449632
 21
94.3678970663
  0
LINE
  5
3E5
100
AcDbEntity
  8
0
100
AcDbLine
 62
7
  6
CONTINUOUS
 10
241.399422759
 20
82.687994311
 11
254.3131180588
 21
94.3678970663
  0
LINE
  5
3E6
100
AcDbEntity
  8
0
100
AcDbLine
 62
7
  6
CONTINUOUS
 10
244.0315135208
 20
79.1170686279
 11
260.8933449632
 21
94.3678970663
  0
HATCH
  5
3E7
100
AcDbEntity
  8
0
100
AcDbHatch
 62
7
  6
CONTINUOUS
 10
0.0
 20
0.0
 30
0.0
210
0.0
220
0.0
230
1.0
  2
XSEC0005
 70
1
 71
1
 91
1
 92
1
 93
9
 72
1
 10
221.9055005548
 20
94.3678970663
 11
228.4857274592
 21
94.3678970663
 72
1
 10
228.4857274592
 20
94.3678970663
 11
241.399422759
 21
82.687994311
 72
1
 10
241.399422759
 20
82.687994311
 11
254.3131180588
 21
94.3678970663
 72
1
 10
254.3131180588
 20
94.3678970663
 11
260.8933449632
 21
94.3678970663
 72
1
 10
260.8933449632
 20
94.3678970663
 11
244.0315135208
 21
79.1170686279
 72
1
 10
244.0315135208
 20
79.1170686279
 11
244.0315135208
 21
69.198529157
 72
1
 10
244.0315135208
 20
69.198529157
 11
238.7673319973
 21
69.198529157
 72
1
 10
238.7673319973
 20
69.198529157
 11
238.7673319973
 21
79.1170686279
 72
1
 10
238.7673319973
 20
79.1170686279
 11
221.9055005548
 21
94.3678970663
 97
9
330
3DE
330
3DF
330
3E0
330
3E1
330
3E2
330
3E3
330
3E4
330
3E5
330
3E6
 75
0
 76
1
 98
1
 10
0.0
 20
0.0
  0
LINE
  5
3E8
100
AcDbEntity
  8
0
100
AcDbLine
 62
7
  6
CONTINUOUS
 10
123.6133611707
 20
75.7787560614
 11
123.6133611707
 21
87.7876701619
  0
LINE
  5
3E9
100
AcDbEntity
  8
0
100
AcDbLine
 62
7
  6
CONTINUOUS
 10
128.1372671674
 20
75.8198824796
 11
128.1372671674
 21
87.7465437437
  0
LINE
  5
3EA
100
AcDbEntity
  8
0
100
AcDbLine
 62
7
  6
CONTINUOUS
 10
143.1895362112
 20
69.198529157
 11
143.1895362112
 21
72.982159627
  0
LINE
  5
3EB
100
AcDbEntity
  8
0
100
AcDbLine
 62
7
  6
CONTINUOUS
 10
145.2458571188
 20
66.0729213775
 11
145.2458571188
 21
75.4497447162
  0
LINE
  5
3EC
100
AcDbEntity
  8
0
100
AcDbLine
 62
7
  6
CONTINUOUS
 10
150.0165216245
 20
66.0729213775
 11
150.0165216245
 21
75.4497447162
  0
LINE
  5
3ED
100
AcDbEntity
  8
0
100
AcDbLine
 62
7
  6
CONTINUOUS
 10
152.2373482047
 20
69.198529157
 11
152.2373482047
 21
72.982159627
  0
LINE
  5
3EE
100
AcDbEntity
  8
0
100
AcDbLine
 62
7
  6
CONTINUOUS
 10
156.9257598741
 20
75.8198824796
 11
156.9257598741
 21
87.7465437437
  0
LINE
  5
3EF
100
AcDbEntity
  8
0
100
AcDbLine
 62
7
  6
CONTINUOUS
 10
161.4496658708
 20
75.7787560614
 11
161.4496658708
 21
87.7876701619
  0
LINE
  5
3F0
100
AcDbEntity
  8
0
100
AcDbLine
 62
7
  6
CONTINUOUS
 10
145.2458571188
 20
66.0729213775
 11
150.0165216245
 21
66.0729213775
  0
LINE
  5
3F1
100
AcDbEntity
  8
0
100
AcDbLine
 62
7
  6
CONTINUOUS
 10
152.791199459
 20
69.198529157
 11
152.2373482047
 21
69.198529157
  0
LINE
  5
3F2
100
AcDbEntity
  8
0
100
AcDbLine
 62
7
  6
CONTINUOUS
 10
132.2718275825
 20
69.198529157
 11
143.1895362112
 21
69.198529157
  0
LINE
  5
3F3
100
AcDbEntity
  8
0
100
AcDbLine
 62
7
  6
CONTINUOUS
 10
152.3508673786
 20
72.982159627
 11
152.2373482047
 21
72.982159627
  0
LINE
  5
3F4
100
AcDbEntity
  8
0
100
AcDbLine
 62
7
  6
CONTINUOUS
 10
132.7121596629
 20
72.982159627
 11
143.1895362112
 21
72.982159627
  0
LINE
  5
3F5
100
AcDbEntity
  8
0
100
AcDbLine
 62
7
  6
CONTINUOUS
 10
145.2458571188
 20
75.4497447162
 11
150.0165216245
 21
75.4497447162
  0
LINE
  5
3F6
100
AcDbEntity
  8
0
100
AcDbLine
 62
7
  6
CONTINUOUS
 10
132.7121596629
 20
90.5842665963
 11
152.3508673786
 21
90.5842665963
  0
LINE
  5
3F7
100
AcDbEntity
  8
0
100
AcDbLine
 62
7
  6
CONTINUOUS
 10
132.2718275825
 20
94.3678970663
 11
152.791199459
 21
94.3678970663
  0
ELLIPSE
  5
3F8
100
AcDbEntity
  8
0
100
AcDbEllipse
 62
7
  6
CONTINUOUS
 10
152.3508673786
 20
75.8198824796
 30
0.0
 11
4.5748924954
 21
0.0
 31
0.0
 40
0.6202818657
 41
-1.5707963268
 42
0.0
  0
ELLIPSE
  5
3F9
100
AcDbEntity
  8
0
100
AcDbEllipse
 62
7
  6
CONTINUOUS
 10
152.791199459
 20
75.7787560614
 30
0.0
 11
8.6584664118
 21
0.0
 31
0.0
 40
0.7599760271
 41
4.7123889804
 42
6.2831853072
  0
ELLIPSE
  5
3FA
100
AcDbEntity
  8
0
100
AcDbEllipse
 62
7
  6
CONTINUOUS
 10
132.7121596629
 20
75.8198824796
 30
0.0
 11
4.5748924954
 21
0.0
 31
0.0
 40
0.6202818657
 41
9.4247779608
 42
10.9955742876
  0
ELLIPSE
  5
3FB
100
AcDbEntity
  8
0
100
AcDbEllipse
 62
7
  6
CONTINUOUS
 10
132.7121596629
 20
87.7465437437
 30
0.0
 11
4.5748924954
 21
0.0
 31
0.0
 40
0.6202818657
 41
1.5707963268
 42
3.1415926536
  0
ELLIPSE
  5
3FC
100
AcDbEntity
  8
0
100
AcDbEllipse
 62
7
  6
CONTINUOUS
 10
132.2718275825
 20
75.7787560614
 30
0.0
 11
8.6584664118
 21
0.0
 31
0.0
 40
0.7599760271
 41
3.1415926536
 42
4.7123889804
  0
ELLIPSE
  5
3FD
100
AcDbEntity
  8
0
100
AcDbEllipse
 62
7
  6
CONTINUOUS
 10
132.2718275825
 20
87.7876701619
 30
0.0
 11
8.6584664118
 21
0.0
 31
0.0
 40
0.7599760271
 41
7.853981634
 42
9.4247779608
  0
ELLIPSE
  5
3FE
100
AcDbEntity
  8
0
100
AcDbEllipse
 62
7
  6
CONTINUOUS
 10
152.3508673786
 20
87.7465437437
 30
0.0
 11
-4.5748924954
 21
0.0
 31
0.0
 40
0.6202818657
 41
3.1415926536
 42
4.7123889804
  0
ELLIPSE
  5
3FF
100
AcDbEntity
  8
0
100
AcDbEllipse
 62
7
  6
CONTINUOUS
 10
152.791199459
 20
87.7876701619
 30
0.0
 11
8.6584664118
 21
0.0
 31
0.0
 40
0.7599760271
 41
0.0
 42
1.5707963268
  0
HATCH
  5
400
100
AcDbEntity
  8
0
100
AcDbHatch
 62
7
  6
CONTINUOUS
 10
0.0
 20
0.0
 30
0.0
210
0.0
220
0.0
230
1.0
  2
XSEC0002
 70
1
 71
1
 91
2
 92
1
 93
20
 72
3
 10
132.2718275825
 20
87.7876701619
 11
8.6584664118
 21
0.0
 40
0.7599760271
 50
-180.0
 51
-90.0
 73
0
 72
1
 10
132.2718275825
 20
94.3678970663
 11
152.791199459
 21
94.3678970663
 72
3
 10
152.791199459
 20
87.7876701619
 11
8.6584664118
 21
0.0
 40
0.7599760271
 50
-90.0
 51
0.0
 73
0
 72
1
 10
161.4496658708
 20
87.7876701619
 11
161.4496658708
 21
75.7787560614
 72
3
 10
152.791199459
 20
75.7787560614
 11
8.6584664118
 21
0.0
 40
0.7599760271
 50
0.0
 51
90.0
 73
0
 72
1
 10
152.791199459
 20
69.198529157
 11
152.2373482047
 21
69.198529157
 72
1
 10
152.2373482047
 20
69.198529157
 11
152.2373482047
 21
72.982159627
 72
1
 10
152.2373482047
 20
72.982159627
 11
152.3508673786
 21
72.982159627
 72
3
 10
152.3508673786
 20
75.8198824796
 11
4.5748924954
 21
0.0
 40
0.6202818657
 50
-90.0
 51
0.0
 73
1
 72
1
 10
156.9257598741
 20
75.8198824796
 11
156.9257598741
 21
87.7465437437
 72
3
 10
152.3508673786
 20
87.7465437437
 11
-4.5748924954
 21
0.0
 40
0.6202818657
 50
180.0
 51
-90.0
 73
1
 72
1
 10
152.3508673786
 20
90.5842665963
 11
132.7121596629
 21
90.5842665963
 72
3
 10
132.7121596629
 20
87.7465437437
 11
4.5748924954
 21
0.0
 40
0.6202818657
 50
90.0
 51
180.0
 73
1
 72
1
 10
128.1372671674
 20
87.7465437437
 11
128.1372671674
 21
75.8198824796
 72
3
 10
132.7121596629
 20
75.8198824796
 11
4.5748924954
 21
0.0
 40
0.6202818657
 50
180.0
 51
-90.0
 73
1
 72
1
 10
132.7121596629
 20
72.982159627
 11
143.1895362112
 21
72.982159627
 72
1
 10
143.1895362112
 20
72.982159627
 11
143.1895362112
 21
69.198529157
 72
1
 10
143.1895362112
 20
69.198529157
 11
132.2718275825
 21
69.198529157
 72
3
 10
132.2718275825
 20
75.7787560614
 11
8.6584664118
 21
0.0
 40
0.7599760271
 50
-270.0
 51
-180.0
 73
0
 72
1
 10
123.6133611707
 20
75.7787560614
 11
123.6133611707
 21
87.7876701619
 97
24
330
3E8
330
3E9
330
3EA
330
3EB
330
3EC
330
3ED
330
3EE
330
3EF
330
3F0
330
3F1
330
3F2
330
3F3
330
3F4
330
3F5
330
3F6
330
3F7
330
3F8
330
3F9
330
3FA
330
3FB
330
3FC
330
3FD
330
3FE
330
3FF
 92
1
 93
4
 72
1
 10
145.2458571188
 20
75.4497447162
 11
150.0165216245
 21
75.4497447162
 72
1
 10
150.0165216245
 20
75.4497447162
 11
150.0165216245
 21
66.0729213775
 72
1
 10
150.0165216245
 20
66.0729213775
 11
145.2458571188
 21
66.0729213775
 72
1
 10
145.2458571188
 20
66.0729213775
 11
145.2458571188
 21
75.4497447162
 97
24
330
3E8
330
3E9
330
3EA
330
3EB
330
3EC
330
3ED
330
3EE
330
3EF
330
3F0
330
3F1
330
3F2
330
3F3
330
3F4
330
3F5
330
3F6
330
3F7
330
3F8
330
3F9
330
3FA
330
3FB
330
3FC
330
3FD
330
3FE
330
3FF
 75
0
 76
1
 98
1
 10
0.0
 20
0.0
  0
LINE
  5
401
100
AcDbEntity
  8
0
100
AcDbLine
 62
7
  6
CONTINUOUS
 10
168.6056626293
 20
76.9302957697
 11
168.6056626293
 21
80.0559035493
  0
LINE
  5
402
100
AcDbEntity
  8
0
100
AcDbLine
 62
7
  6
CONTINUOUS
 10
178.8872671674
 20
76.9302957697
 11
178.8872671674
 21
80.0559035493
  0
LINE
  5
403
100
AcDbEntity
  8
0
100
AcDbLine
 62
7
  6
CONTINUOUS
 10
168.6056626293
 20
76.9302957697
 11
178.8872671674
 21
76.9302957697
  0
LINE
  5
404
100
AcDbEntity
  8
0
100
AcDbLine
 62
7
  6
CONTINUOUS
 10
168.6056626293
 20
80.0559035493
 11
178.8872671674
 21
80.0559035493
  0
HATCH
  5
405
100
AcDbEntity
  8
0
100
AcDbHatch
 62
7
  6
CONTINUOUS
 10
0.0
 20
0.0
 30
0.0
210
0.0
220
0.0
230
1.0
  2
XSEC0003
 70
1
 71
1
 91
1
 92
1
 93
4
 72
1
 10
168.6056626293
 20
80.0559035493
 11
178.8872671674
 21
80.0559035493
 72
1
 10
178.8872671674
 20
80.0559035493
 11
178.8872671674
 21
76.9302957697
 72
1
 10
178.8872671674
 20
76.9302957697
 11
168.6056626293
 21
76.9302957697
 72
1
 10
168.6056626293
 20
76.9302957697
 11
168.6056626293
 21
80.0559035493
 97
4
330
401
330
402
330
403
330
404
 75
0
 76
1
 98
1
 10
0.0
 20
0.0
  0
LINE
  5
406
100
AcDbEntity
  8
0
100
AcDbLine
 62
7
  6
CONTINUOUS
 10
184.2337015272
 20
75.7787560614
 11
184.2337015272
 21
77.4238127875
  0
LINE
  5
407
100
AcDbEntity
  8
0
100
AcDbLine
 62
7
  6
CONTINUOUS
 10
184.2337015272
 20
86.471624781
 11
184.2337015272
 21
87.7876701619
  0
LINE
  5
408
100
AcDbEntity
  8
0
100
AcDbLine
 62
7
  6
CONTINUOUS
 10
188.757607524
 20
75.8198824796
 11
188.757607524
 21
77.4238127875
  0
LINE
  5
409
100
AcDbEntity
  8
0
100
AcDbLine
 62
7
  6
CONTINUOUS
 10
188.757607524
 20
86.5127511992
 11
188.757607524
 21
87.7465437437
  0
LINE
  5
40A
100
AcDbEntity
  8
0
100
AcDbLine
 62
7
  6
CONTINUOUS
 10
214.2559867785
 20
77.0536750241
 11
214.2559867785
 21
75.8198824796
  0
LINE
  5
40B
100
AcDbEntity
  8
0
100
AcDbLine
 62
7
  6
CONTINUOUS
 10
214.2559867785
 20
86.1426134358
 11
214.2559867785
 21
87.7465437437
  0
LINE
  5
40C
100
AcDbEntity
  8
0
100
AcDbLine
 62
7
  6
CONTINUOUS
 10
218.7798927752
 20
75.7787560614
 11
218.7798927752
 21
77.0948014423
  0
LINE
  5
40D
100
AcDbEntity
  8
0
100
AcDbLine
 62
7
  6
CONTINUOUS
 10
218.7798927752
 20
86.1426134358
 11
218.7798927752
 21
87.7876701619
  0
LINE
  5
40E
100
AcDbEntity
  8
0
100
AcDbLine
 62
7
  6
CONTINUOUS
 10
192.8921679391
 20
69.198529157
 11
210.1214263634
 21
69.198529157
  0
LINE
  5
40F
100
AcDbEntity
  8
0
100
AcDbLine
 62
7
  6
CONTINUOUS
 10
193.3325000194
 20
72.982159627
 11
209.681094283
 21
72.982159627
  0
LINE
  5
410
100
AcDbEntity
  8
0
100
AcDbLine
 62
7
  6
CONTINUOUS
 10
184.2337015272
 20
77.4238127875
 11
188.757607524
 21
77.4238127875
  0
LINE
  5
411
100
AcDbEntity
  8
0
100
AcDbLine
 62
7
  6
CONTINUOUS
 10
192.8921679391
 20
79.8913978766
 11
209.681094283
 21
79.8913978766
  0
LINE
  5
412
100
AcDbEntity
  8
0
100
AcDbLine
 62
7
  6
CONTINUOUS
 10
193.3325000194
 20
83.6750283467
 11
210.1214263634
 21
83.6750283467
  0
LINE
  5
413
100
AcDbEntity
  8
0
100
AcDbLine
 62
7
  6
CONTINUOUS
 10
214.2559867785
 20
86.1426134358
 11
218.7798927752
 21
86.1426134358
  0
LINE
  5
414
100
AcDbEntity
  8
0
100
AcDbLine
 62
7
  6
CONTINUOUS
 10
193.3325000194
 20
90.5842665963
 11
209.681094283
 21
90.5842665963
  0
LINE
  5
415
100
AcDbEntity
  8
0
100
AcDbLine
 62
7
  6
CONTINUOUS
 10
192.8921679391
 20
94.3678970663
 11
210.1214263634
 21
94.3678970663
  0
ELLIPSE
  5
416
100
AcDbEntity
  8
0
100
AcDbEllipse
 62
7
  6
CONTINUOUS
 10
193.3325000194
 20
75.8198824796
 30
0.0
 11
4.5748924954
 21
0.0
 31
0.0
 40
0.6202818657
 41
9.4247779608
 42
10.9955742876
  0
ELLIPSE
  5
417
100
AcDbEntity
  8
0
100
AcDbEllipse
 62
7
  6
CONTINUOUS
 10
193.3325000194
 20
87.7465437437
 30
0.0
 11
4.5748924954
 21
0.0
 31
0.0
 40
0.6202818657
 41
1.5707963268
 42
3.1415926536
  0
ELLIPSE
  5
418
100
AcDbEntity
  8
0
100
AcDbEllipse
 62
7
  6
CONTINUOUS
 10
209.681094283
 20
75.8198824796
 30
0.0
 11
4.5748924954
 21
-0.0
 31
0.0
 40
0.6202818657
 41
-1.5707963268
 42
0.0
  0
ELLIPSE
  5
419
100
AcDbEntity
  8
0
100
AcDbEllipse
 62
7
  6
CONTINUOUS
 10
209.681094283
 20
87.7465437437
 30
0.0
 11
-4.5748924954
 21
0.0
 31
0.0
 40
0.6202818657
 41
3.1415926536
 42
4.7123889804
  0
ELLIPSE
  5
41A
100
AcDbEntity
  8
0
100
AcDbEllipse
 62
7
  6
CONTINUOUS
 10
209.681094283
 20
77.0536750241
 30
0.0
 11
4.5748924954
 21
0.0
 31
0.0
 40
0.6202818657
 41
0.0
 42
1.5707963268
  0
ELLIPSE
  5
41B
100
AcDbEntity
  8
0
100
AcDbEllipse
 62
7
  6
CONTINUOUS
 10
193.3325000194
 20
86.5127511992
 30
0.0
 11
4.5748924954
 21
0.0
 31
0.0
 40
0.6202818657
 41
3.1415926536
 42
4.7123889804
  0
ELLIPSE
  5
41C
100
AcDbEntity
  8
0
100
AcDbEllipse
 62
7
  6
CONTINUOUS
 10
210.1214263634
 20
75.7787560614
 30
0.0
 11
8.6584664118
 21
0.0
 31
0.0
 40
0.7599760271
 41
4.7123889804
 42
6.2831853072
  0
ELLIPSE
  5
41D
100
AcDbEntity
  8
0
100
AcDbEllipse
 62
7
  6
CONTINUOUS
 10
192.8921679391
 20
75.7787560614
 30
0.0
 11
8.6584664118
 21
0.0
 31
0.0
 40
0.7599760271
 41
3.1415926536
 42
4.7123889804
  0
ELLIPSE
  5
41E
100
AcDbEntity
  8
0
100
AcDbEllipse
 62
7
  6
CONTINUOUS
 10
210.1214263634
 20
87.7876701619
 30
0.0
 11
8.6584664118
 21
0.0
 31
0.0
 40
0.7599760271
 41
0.0
 42
1.5707963268
  0
ELLIPSE
  5
41F
100
AcDbEntity
  8
0
100
AcDbEllipse
 62
7
  6
CONTINUOUS
 10
192.8921679391
 20
86.471624781
 30
0.0
 11
8.6584664118
 21
0.0
 31
0.0
 40
0.7599760271
 41
9.4247779608
 42
10.9955742876
  0
ELLIPSE
  5
420
100
AcDbEntity
  8
0
100
AcDbEllipse
 62
7
  6
CONTINUOUS
 10
210.1214263634
 20
77.0948014423
 30
0.0
 11
8.6584664118
 21
0.0
 31
0.0
 40
0.7599760271
 41
6.2831853072
 42
7.853981634
  0
ELLIPSE
  5
421
100
AcDbEntity
  8
0
100
AcDbEllipse
 62
7
  6
CONTINUOUS
 10
192.8921679391
 20
87.7876701619
 30
0.0
 11
8.6584664118
 21
0.0
 31
0.0
 40
0.7599760271
 41
7.853981634
 42
9.4247779608
  0
HATCH
  5
422
100
AcDbEntity
  8
0
100
AcDbHatch
 62
7
  6
CONTINUOUS
 10
0.0
 20
0.0
 30
0.0
210
0.0
220
0.0
230
1.0
  2
XSEC0004
 70
1
 71
1
 91
1
 92
1
 93
28
 72
1
 10
184.2337015272
 20
77.4238127875
 11
188.757607524
 21
77.4238127875
 72
1
 10
188.757607524
 20
77.4238127875
 11
188.757607524
 21
75.8198824796
 72
3
 10
193.3325000194
 20
75.8198824796
 11
4.5748924954
 21
0.0
 40
0.6202818657
 50
180.0
 51
-90.0
 73
1
 72
1
 10
193.3325000194
 20
72.982159627
 11
209.681094283
 21
72.982159627
 72
3
 10
209.681094283
 20
75.8198824796
 11
4.5748924954
 21
-0.0
 40
0.6202818657
 50
-90.0
 51
0.0
 73
1
 72
1
 10
214.2559867785
 20
75.8198824796
 11
214.2559867785
 21
77.0536750241
 72
3
 10
209.681094283
 20
77.0536750241
 11
4.5748924954
 21
0.0
 40
0.6202818657
 50
0.0
 51
90.0
 73
1
 72
1
 10
209.681094283
 20
79.8913978766
 11
192.8921679391
 21
79.8913978766
 72
3
 10
192.8921679391
 20
86.471624781
 11
8.6584664118
 21
0.0
 40
0.7599760271
 50
-270.0
 51
-180.0
 73
0
 72
1
 10
184.2337015272
 20
86.471624781
 11
184.2337015272
 21
87.7876701619
 72
3
 10
192.8921679391
 20
87.7876701619
 11
8.6584664118
 21
0.0
 40
0.7599760271
 50
-180.0
 51
-90.0
 73
0
 72
1
 10
192.8921679391
 20
94.3678970663
 11
210.1214263634
 21
94.3678970663
 72
3
 10
210.1214263634
 20
87.7876701619
 11
8.6584664118
 21
0.0
 40
0.7599760271
 50
-90.0
 51
0.0
 73
0
 72
1
 10
218.7798927752
 20
87.7876701619
 11
218.7798927752
 21
86.1426134358
 72
1
 10
218.7798927752
 20
86.1426134358
 11
214.2559867785
 21
86.1426134358
 72
1
 10
214.2559867785
 20
86.1426134358
 11
214.2559867785
 21
87.7465437437
 72
3
 10
209.681094283
 20
87.7465437437
 11
-4.5748924954
 21
0.0
 40
0.6202818657
 50
180.0
 51
-90.0
 73
1
 72
1
 10
209.681094283
 20
90.5842665963
 11
193.3325000194
 21
90.5842665963
 72
3
 10
193.3325000194
 20
87.7465437437
 11
4.5748924954
 21
0.0
 40
0.6202818657
 50
90.0
 51
180.0
 73
1
 72
1
 10
188.757607524
 20
87.7465437437
 11
188.757607524
 21
86.5127511992
 72
3
 10
193.3325000194
 20
86.5127511992
 11
4.5748924954
 21
0.0
 40
0.6202818657
 50
180.0
 51
-90.0
 73
1
 72
1
 10
193.3325000194
 20
83.6750283467
 11
210.1214263634
 21
83.6750283467
 72
3
 10
210.1214263634
 20
77.0948014423
 11
8.6584664118
 21
0.0
 40
0.7599760271
 50
-90.0
 51
0.0
 73
0
 72
1
 10
218.7798927752
 20
77.0948014423
 11
218.7798927752
 21
75.7787560614
 72
3
 10
210.1214263634
 20
75.7787560614
 11
8.6584664118
 21
0.0
 40
0.7599760271
 50
0.0
 51
90.0
 73
0
 72
1
 10
210.1214263634
 20
69.198529157
 11
192.8921679391
 21
69.198529157
 72
3
 10
192.8921679391
 20
75.7787560614
 11
8.6584664118
 21
0.0
 40
0.7599760271
 50
-270.0
 51
-180.0
 73
0
 72
1
 10
184.2337015272
 20
75.7787560614
 11
184.2337015272
 21
77.4238127875
 97
28
330
406
330
407
330
408
330
409
330
40A
330
40B
330
40C
330
40D
330
40E
330
40F
330
410
330
411
330
412
330
413
330
414
330
415
330
416
330
417
330
418
330
419
330
41A
330
41B
330
41C
330
41D
330
41E
330
41F
330
420
330
421
 75
0
 76
1
 98
1
 10
0.0
 20
0.0
  0
LINE
  5
423
100
AcDbEntity
  8
0
100
AcDbLine
 62
7
  6
CONTINUOUS
 10
263.0319187071
 20
75.7787560614
 11
263.0319187071
 21
77.4238127875
  0
LINE
  5
424
100
AcDbEntity
  8
0
100
AcDbLine
 62
7
  6
CONTINUOUS
 10
263.0319187071
 20
86.471624781
 11
263.0319187071
 21
87.7876701619
  0
LINE
  5
425
100
AcDbEntity
  8
0
100
AcDbLine
 62
7
  6
CONTINUOUS
 10
267.5558247039
 20
75.8198824796
 11
267.5558247039
 21
77.4238127875
  0
LINE
  5
426
100
AcDbEntity
  8
0
100
AcDbLine
 62
7
  6
CONTINUOUS
 10
267.5558247039
 20
86.5127511992
 11
267.5558247039
 21
87.7465437437
  0
LINE
  5
427
100
AcDbEntity
  8
0
100
AcDbLine
 62
7
  6
CONTINUOUS
 10
293.0542039584
 20
77.0536750241
 11
293.0542039584
 21
75.8198824796
  0
LINE
  5
428
100
AcDbEntity
  8
0
100
AcDbLine
 62
7
  6
CONTINUOUS
 10
293.0542039584
 20
86.1426134358
 11
293.0542039584
 21
87.7465437437
  0
LINE
  5
429
100
AcDbEntity
  8
0
100
AcDbLine
 62
7
  6
CONTINUOUS
 10
297.5781099551
 20
75.7787560614
 11
297.5781099551
 21
77.0948014423
  0
LINE
  5
42A
100
AcDbEntity
  8
0
100
AcDbLine
 62
7
  6
CONTINUOUS
 10
297.5781099551
 20
86.1426134358
 11
297.5781099551
 21
87.7876701619
  0
LINE
  5
42B
100
AcDbEntity
  8
0
100
AcDbLine
 62
7
  6
CONTINUOUS
 10
271.690385119
 20
69.198529157
 11
288.9196435433
 21
69.198529157
  0
LINE
  5
42C
100
AcDbEntity
  8
0
100
AcDbLine
 62
7
  6
CONTINUOUS
 10
272.1307171993
 20
72.982159627
 11
288.4793114629
 21
72.982159627
  0
LINE
  5
42D
100
AcDbEntity
  8
0
100
AcDbLine
 62
7
  6
CONTINUOUS
 10
263.0319187071
 20
77.4238127875
 11
267.5558247039
 21
77.4238127875
  0
LINE
  5
42E
100
AcDbEntity
  8
0
100
AcDbLine
 62
7
  6
CONTINUOUS
 10
271.690385119
 20
79.8913978766
 11
288.4793114629
 21
79.8913978766
  0
LINE
  5
42F
100
AcDbEntity
  8
0
100
AcDbLine
 62
7
  6
CONTINUOUS
 10
272.1307171993
 20
83.6750283467
 11
288.9196435433
 21
83.6750283467
  0
LINE
  5
430
100
AcDbEntity
  8
0
100
AcDbLine
 62
7
  6
CONTINUOUS
 10
293.0542039584
 20
86.1426134358
 11
297.5781099551
 21
86.1426134358
  0
LINE
  5
431
100
AcDbEntity
  8
0
100
AcDbLine
 62
7
  6
CONTINUOUS
 10
272.1307171993
 20
90.5842665963
 11
288.4793114629
 21
90.5842665963
  0
LINE
  5
432
100
AcDbEntity
  8
0
100
AcDbLine
 62
7
  6
CONTINUOUS
 10
271.690385119
 20
94.3678970663
 11
288.9196435433
 21
94.3678970663
  0
ELLIPSE
  5
433
100
AcDbEntity
  8
0
100
AcDbEllipse
 62
7
  6
CONTINUOUS
 10
272.1307171993
 20
75.8198824796
 30
0.0
 11
4.5748924954
 21
0.0
 31
0.0
 40
0.6202818657
 41
9.4247779608
 42
10.9955742876
  0
ELLIPSE
  5
434
100
AcDbEntity
  8
0
100
AcDbEllipse
 62
7
  6
CONTINUOUS
 10
272.1307171993
 20
87.7465437437
 30
0.0
 11
4.5748924954
 21
0.0
 31
0.0
 40
0.6202818657
 41
1.5707963268
 42
3.1415926536
  0
ELLIPSE
  5
435
100
AcDbEntity
  8
0
100
AcDbEllipse
 62
7
  6
CONTINUOUS
 10
288.4793114629
 20
75.8198824796
 30
0.0
 11
4.5748924954
 21
-0.0
 31
0.0
 40
0.6202818657
 41
-1.5707963268
 42
0.0
  0
ELLIPSE
  5
436
100
AcDbEntity
  8
0
100
AcDbEllipse
 62
7
  6
CONTINUOUS
 10
288.4793114629
 20
87.7465437437
 30
0.0
 11
-4.5748924954
 21
0.0
 31
0.0
 40
0.6202818657
 41
3.1415926536
 42
4.7123889804
  0
ELLIPSE
  5
437
100
AcDbEntity
  8
0
100
AcDbEllipse
 62
7
  6
CONTINUOUS
 10
288.4793114629
 20
77.0536750241
 30
0.0
 11
4.5748924954
 21
0.0
 31
0.0
 40
0.6202818657
 41
0.0
 42
1.5707963268
  0
ELLIPSE
  5
438
100
AcDbEntity
  8
0
100
AcDbEllipse
 62
7
  6
CONTINUOUS
 10
272.1307171993
 20
86.5127511992
 30
0.0
 11
4.5748924954
 21
0.0
 31
0.0
 40
0.6202818657
 41
3.1415926536
 42
4.7123889804
  0
ELLIPSE
  5
439
100
AcDbEntity
  8
0
100
AcDbEllipse
 62
7
  6
CONTINUOUS
 10
288.9196435433
 20
75.7787560614
 30
0.0
 11
8.6584664118
 21
0.0
 31
0.0
 40
0.7599760271
 41
4.7123889804
 42
6.2831853072
  0
ELLIPSE
  5
43A
100
AcDbEntity
  8
0
100
AcDbEllipse
 62
7
  6
CONTINUOUS
 10
271.690385119
 20
75.7787560614
 30
0.0
 11
8.6584664118
 21
0.0
 31
0.0
 40
0.7599760271
 41
3.1415926536
 42
4.7123889804
  0
ELLIPSE
  5
43B
100
AcDbEntity
  8
0
100
AcDbEllipse
 62
7
  6
CONTINUOUS
 10
288.9196435433
 20
87.7876701619
 30
0.0
 11
8.6584664118
 21
0.0
 31
0.0
 40
0.7599760271
 41
0.0
 42
1.5707963268
  0
ELLIPSE
  5
43C
100
AcDbEntity
  8
0
100
AcDbEllipse
 62
7
  6
CONTINUOUS
 10
271.690385119
 20
87.7876701619
 30
0.0
 11
8.6584664118
 21
0.0
 31
0.0
 40
0.7599760271
 41
7.853981634
 42
9.4247779608
  0
ELLIPSE
  5
43D
100
AcDbEntity
  8
0
100
AcDbEllipse
 62
7
  6
CONTINUOUS
 10
271.690385119
 20
86.471624781
 30
0.0
 11
8.6584664118
 21
0.0
 31
0.0
 40
0.7599760271
 41
9.4247779608
 42
10.9955742876
  0
ELLIPSE
  5
43E
100
AcDbEntity
  8
0
100
AcDbEllipse
 62
7
  6
CONTINUOUS
 10
288.9196435433
 20
77.0948014423
 30
0.0
 11
8.6584664118
 21
0.0
 31
0.0
 40
0.7599760271
 41
6.2831853072
 42
7.853981634
  0
HATCH
  5
43F
100
AcDbEntity
  8
0
100
AcDbHatch
 62
7
  6
CONTINUOUS
 10
0.0
 20
0.0
 30
0.0
210
0.0
220
0.0
230
1.0
  2
XSEC0006
 70
1
 71
1
 91
1
 92
1
 93
28
 72
1
 10
263.0319187071
 20
77.4238127875
 11
267.5558247039
 21
77.4238127875
 72
1
 10
267.5558247039
 20
77.4238127875
 11
267.5558247039
 21
75.8198824796
 72
3
 10
272.1307171993
 20
75.8198824796
 11
4.5748924954
 21
0.0
 40
0.6202818657
 50
180.0
 51
-90.0
 73
1
 72
1
 10
272.1307171993
 20
72.982159627
 11
288.4793114629
 21
72.982159627
 72
3
 10
288.4793114629
 20
75.8198824796
 11
4.5748924954
 21
-0.0
 40
0.6202818657
 50
-90.0
 51
0.0
 73
1
 72
1
 10
293.0542039584
 20
75.8198824796
 11
293.0542039584
 21
77.0536750241
 72
3
 10
288.4793114629
 20
77.0536750241
 11
4.5748924954
 21
0.0
 40
0.6202818657
 50
0.0
 51
90.0
 73
1
 72
1
 10
288.4793114629
 20
79.8913978766
 11
271.690385119
 21
79.8913978766
 72
3
 10
271.690385119
 20
86.471624781
 11
8.6584664118
 21
0.0
 40
0.7599760271
 50
-270.0
 51
-180.0
 73
0
 72
1
 10
263.0319187071
 20
86.471624781
 11
263.0319187071
 21
87.7876701619
 72
3
 10
271.690385119
 20
87.7876701619
 11
8.6584664118
 21
0.0
 40
0.7599760271
 50
-180.0
 51
-90.0
 73
0
 72
1
 10
271.690385119
 20
94.3678970663
 11
288.9196435433
 21
94.3678970663
 72
3
 10
288.9196435433
 20
87.7876701619
 11
8.6584664118
 21
0.0
 40
0.7599760271
 50
-90.0
 51
0.0
 73
0
 72
1
 10
297.5781099551
 20
87.7876701619
 11
297.5781099551
 21
86.1426134358
 72
1
 10
297.5781099551
 20
86.1426134358
 11
293.0542039584
 21
86.1426134358
 72
1
 10
293.0542039584
 20
86.1426134358
 11
293.0542039584
 21
87.7465437437
 72
3
 10
288.4793114629
 20
87.7465437437
 11
-4.5748924954
 21
0.0
 40
0.6202818657
 50
180.0
 51
-90.0
 73
1
 72
1
 10
288.4793114629
 20
90.5842665963
 11
272.1307171993
 21
90.5842665963
 72
3
 10
272.1307171993
 20
87.7465437437
 11
4.5748924954
 21
0.0
 40
0.6202818657
 50
90.0
 51
180.0
 73
1
 72
1
 10
267.5558247039
 20
87.7465437437
 11
267.5558247039
 21
86.5127511992
 72
3
 10
272.1307171993
 20
86.5127511992
 11
4.5748924954
 21
0.0
 40
0.6202818657
 50
180.0
 51
-90.0
 73
1
 72
1
 10
272.1307171993
 20
83.6750283467
 11
288.9196435433
 21
83.6750283467
 72
3
 10
288.9196435433
 20
77.0948014423
 11
8.6584664118
 21
0.0
 40
0.7599760271
 50
-90.0
 51
0.0
 73
0
 72
1
 10
297.5781099551
 20
77.0948014423
 11
297.5781099551
 21
75.7787560614
 72
3
 10
288.9196435433
 20
75.7787560614
 11
8.6584664118
 21
0.0
 40
0.7599760271
 50
0.0
 51
90.0
 73
0
 72
1
 10
288.9196435433
 20
69.198529157
 11
271.690385119
 21
69.198529157
 72
3
 10
271.690385119
 20
75.7787560614
 11
8.6584664118
 21
0.0
 40
0.7599760271
 50
-270.0
 51
-180.0
 73
0
 72
1
 10
263.0319187071
 20
75.7787560614
 11
263.0319187071
 21
77.4238127875
 97
28
330
423
330
424
330
425
330
426
330
427
330
428
330
429
330
42A
330
42B
330
42C
330
42D
330
42E
330
42F
330
430
330
431
330
432
330
433
330
434
330
435
330
436
330
437
330
438
330
439
330
43A
330
43B
330
43C
330
43D
330
43E
 75
0
 76
1
 98
1
 10
0.0
 20
0.0
  0
LWPOLYLINE
  5
440
100
AcDbEntity
  8
0
100
AcDbPolyline
 62
7
  6
CONTINUOUS
 90
2
 70
0
 43
1.7499999922
 10
1289.6868601808
 20
61.3877443338
 10
1316.3568601815
 20
56.9427443338
  0
LWPOLYLINE
  5
441
100
AcDbEntity
  8
0
100
AcDbPolyline
 62
7
  6
CONTINUOUS
 90
2
 70
0
 43
1.7499999922
 10
1289.6868601808
 20
70.2777443338
 10
1316.3568601815
 20
74.7227443338
  0
LWPOLYLINE
  5
442
100
AcDbEntity
  8
0
100
AcDbPolyline
 62
7
  6
CONTINUOUS
 90
2
 70
0
 43
0.6999999788
 10
1260.3854201808
 20
65.8327443338
 10
1283.4283001815
 20
65.8327443338
  0
LWPOLYLINE
  5
443
100
AcDbEntity
  8
0
100
AcDbPolyline
 62
7
  6
CONTINUOUS
 90
2
 70
0
 43
0.6999999788
 10
1286.3766547382
 20
65.8327443338
 10
1319.077259734
 20
65.8327443338
  0
LWPOLYLINE
  5
444
100
AcDbEntity
  8
0
100
AcDbPolyline
 62
7
  6
CONTINUOUS
 90
2
 70
0
 43
1.7499999922
 10
2977.1
 20
126.0
 10
45.5
 20
126.0
  0
LWPOLYLINE
  5
445
100
AcDbEntity
  8
0
100
AcDbPolyline
 62
7
  6
CONTINUOUS
 90
2
 70
0
 43
0.6999999788
 10
1271.9068601808
 20
54.3113043338
 10
1271.9068601808
 20
77.3541843338
  0
LWPOLYLINE
  5
446
100
AcDbEntity
  8
0
100
AcDbPolyline
 62
7
  6
CONTINUOUS
 90
2
 70
0
 43
1.7499999922
 10
1289.6868601808
 20
70.2777443338
 10
1289.6868601808
 20
61.3877443338
  0
LWPOLYLINE
  5
447
100
AcDbEntity
  8
0
100
AcDbPolyline
 62
7
  6
CONTINUOUS
 90
2
 70
0
 43
1.7499999922
 10
1316.3568601815
 20
74.7227443338
 10
1316.3568601815
 20
56.9427443338
  0
LWPOLYLINE
  5
448
100
AcDbEntity
  8
0
100
AcDbPolyline
 62
2
  6
CONTINUOUS
 90
5
 70
0
 10
53.8211281343
 20
1650.4436847421
 10
82.1964218146
 20
1650.4436847421
 10
82.1964218146
 20
1682.4476847421
 10
53.8211281343
 20
1682.4476847421
 10
53.8211281343
 20
1650.4436847421
  0
LWPOLYLINE
  5
449
100
AcDbEntity
  8
0
100
AcDbPolyline
 62
2
  6
CONTINUOUS
 90
5
 70
0
 10
53.8211281343
 20
1706.4506847421
 10
82.1964218146
 20
1706.4506847421
 10
82.1964218146
 20
1738.4546847421
 10
53.8211281343
 20
1738.4546847421
 10
53.8211281343
 20
1706.4506847421
  0
LWPOLYLINE
  5
44A
100
AcDbEntity
  8
0
100
AcDbPolyline
 62
7
  6
CONTINUOUS
 90
2
 70
0
 43
1.7499999922
 10
45.5
 20
1910.3
 10
2977.1
 20
1910.3
  0
LINE
  5
44B
100
AcDbEntity
  8
0
100
AcDbLine
 62
7
  6
CONTINUOUS
 10
613.7203125
 20
947.2516032081
 11
613.7203125
 21
747.2516032081
  0
LINE
  5
44C
100
AcDbEntity
  8
0
100
AcDbLine
 62
7
  6
CONTINUOUS
 10
619.6203125
 20
947.2516032081
 11
619.6203125
 21
747.2516032081
  0
LINE
  5
44D
100
AcDbEntity
  8
0
100
AcDbLine
 62
7
  6
CONTINUOUS
 10
631.6613125
 20
754.9785823852
 11
631.6613125
 21
939.524624031
  0
LINE
  5
44E
100
AcDbEntity
  8
0
100
AcDbLine
 62
7
  6
CONTINUOUS
 10
653.4003125
 20
762.6816032081
 11
653.4003125
 21
928.0148386701
  0
LINE
  5
44F
100
AcDbEntity
  8
0
100
AcDbLine
 62
7
  6
CONTINUOUS
 10
666.0121184364
 20
924.8701780431
 11
666.0121184364
 21
769.633028373
  0
LINE
  5
450
100
AcDbEntity
  8
0
100
AcDbLine
 62
7
  6
CONTINUOUS
 10
735.6050311258
 20
855.7368845823
 11
731.5903125
 21
894.2516032081
  0
LINE
  5
451
100
AcDbEntity
  8
0
100
AcDbLine
 62
7
  6
CONTINUOUS
 10
731.5903125
 20
800.2516032081
 11
731.5903125
 21
894.2516032081
  0
LINE
  5
452
100
AcDbEntity
  8
0
100
AcDbLine
 62
7
  6
CONTINUOUS
 10
735.6050311258
 20
838.7663218338
 11
731.5903125
 21
800.2516032081
  0
LINE
  5
453
100
AcDbEntity
  8
0
100
AcDbLine
 62
7
  6
CONTINUOUS
 10
752.5755938742
 20
838.7663218338
 11
756.5903125
 21
800.2516032081
  0
LINE
  5
454
100
AcDbEntity
  8
0
100
AcDbLine
 62
7
  6
CONTINUOUS
 10
756.5903125
 20
894.2516032081
 11
756.5903125
 21
800.2516032081
  0
LINE
  5
455
100
AcDbEntity
  8
0
100
AcDbLine
 62
7
  6
CONTINUOUS
 10
752.5755938742
 20
855.7368845823
 11
756.5903125
 21
894.2516032081
  0
LINE
  5
456
100
AcDbEntity
  8
0
100
AcDbLine
 62
7
  6
CONTINUOUS
 10
756.5903125
 20
894.2516032081
 11
822.1685065636
 21
924.8701780431
  0
LINE
  5
457
100
AcDbEntity
  8
0
100
AcDbLine
 62
7
  6
CONTINUOUS
 10
1058.3615246521
 20
750.0516032081
 11
1074.6424130561
 21
750.1368505195
  0
LINE
  5
458
100
AcDbEntity
  8
0
100
AcDbLine
 62
7
  6
CONTINUOUS
 10
613.7203125
 20
747.2516032081
 11
1133.7203125
 21
747.2516032081
  0
LINE
  5
459
100
AcDbEntity
  8
0
100
AcDbLine
 62
9
  6
CONTINUOUS
 10
1133.7203125
 20
747.9025264237
 11
1127.8203125
 21
747.9025264237
  0
LINE
  5
45A
100
AcDbEntity
  8
0
100
AcDbLine
 62
9
  6
CONTINUOUS
 10
619.6203125
 20
747.9025264237
 11
613.7203125
 21
747.9025264237
  0
LINE
  5
45B
100
AcDbEntity
  8
0
100
AcDbLine
 62
7
  6
CONTINUOUS
 10
619.6203125
 20
750.0516032081
 11
1127.8203125
 21
750.0516032081
  0
LINE
  5
45C
100
AcDbEntity
  8
0
100
AcDbLine
 62
7
  6
CONTINUOUS
 10
619.6203125
 20
750.1368505195
 11
851.9982119439
 21
750.1368505195
  0
LINE
  5
45D
100
AcDbEntity
  8
0
100
AcDbLine
 62
7
  6
CONTINUOUS
 10
1074.6424130561
 20
750.1368505195
 11
1127.8203125
 21
750.1368505195
  0
LINE
  5
45E
100
AcDbEntity
  8
0
100
AcDbLine
 62
7
  6
CONTINUOUS
 10
836.4418627578
 20
753.0516032081
 11
1090.1987622422
 21
753.0516032081
  0
LINE
  5
45F
100
AcDbEntity
  8
0
100
AcDbLine
 62
7
  6
CONTINUOUS
 10
631.6613125
 20
754.9785823852
 11
828.7227511618
 21
754.9785823852
  0
LINE
  5
460
100
AcDbEntity
  8
0
100
AcDbLine
 62
7
  6
CONTINUOUS
 10
868.2791003479
 20
750.0516032081
 11
851.9982119439
 21
750.1368505195
  0
LINE
  5
461
100
AcDbEntity
  8
0
100
AcDbLine
 62
7
  6
CONTINUOUS
 10
756.5903125
 20
800.2516032081
 11
822.1685065636
 21
769.633028373
  0
LINE
  5
462
100
AcDbEntity
  8
0
100
AcDbLine
 62
7
  6
CONTINUOUS
 10
899.4192590456
 20
757.4516032081
 11
903.6618997328
 21
757.4516032081
  0
LINE
  5
463
100
AcDbEntity
  8
0
100
AcDbLine
 62
7
  6
CONTINUOUS
 10
1022.9787252672
 20
757.4516032081
 11
1027.2213659544
 21
757.4516032081
  0
LINE
  5
464
100
AcDbEntity
  8
0
100
AcDbLine
 62
7
  6
CONTINUOUS
 10
631.6613125
 20
762.6816032081
 11
653.4003125
 21
762.6816032081
  0
LINE
  5
465
100
AcDbEntity
  8
0
100
AcDbLine
 62
9
  6
CONTINUOUS
 10
1133.7203125
 20
763.1006043527
 11
1127.8203125
 21
763.1006043527
  0
LINE
  5
466
100
AcDbEntity
  8
0
100
AcDbLine
 62
9
  6
CONTINUOUS
 10
619.6203125
 20
763.1006043527
 11
613.7203125
 21
763.1006043527
  0
LINE
  5
467
100
AcDbEntity
  8
0
100
AcDbLine
 62
7
  6
CONTINUOUS
 10
619.6203125
 20
765.1868491462
 11
631.6613125
 21
765.1868491462
  0
LINE
  5
468
100
AcDbEntity
  8
0
100
AcDbLine
 62
7
  6
CONTINUOUS
 10
1106.6291640538
 20
765.1868491462
 11
1127.8203125
 21
765.1868491462
  0
LINE
  5
469
100
AcDbEntity
  8
0
100
AcDbLine
 62
9
  6
CONTINUOUS
 10
1133.7203125
 20
765.4663052006
 11
1127.8203125
 21
765.4663052006
  0
LINE
  5
46A
100
AcDbEntity
  8
0
100
AcDbLine
 62
9
  6
CONTINUOUS
 10
619.6203125
 20
765.4663052006
 11
613.7203125
 21
765.4663052006
  0
LINE
  5
46B
100
AcDbEntity
  8
0
100
AcDbLine
 62
7
  6
CONTINUOUS
 10
666.0121184364
 20
769.633028373
 11
822.1685065636
 21
769.633028373
  0
LINE
  5
46C
100
AcDbEntity
  8
0
100
AcDbLine
 62
7
  6
CONTINUOUS
 10
822.1685065636
 20
769.633028373
 11
822.1685065636
 21
924.8701780431
  0
LINE
  5
46D
100
AcDbEntity
  8
0
100
AcDbLine
 62
7
  6
CONTINUOUS
 10
828.7227511618
 20
754.9785823852
 11
828.7227511618
 21
939.524624031
  0
LINE
  5
46E
100
AcDbEntity
  8
0
100
AcDbLine
 62
7
  6
CONTINUOUS
 10
836.4418627578
 20
753.0516032081
 11
836.4418627578
 21
750.1368505195
  0
LINE
  5
46F
100
AcDbEntity
  8
0
100
AcDbLine
 62
7
  6
CONTINUOUS
 10
756.5903125
 20
800.2516032081
 11
731.5903125
 21
800.2516032081
  0
LINE
  5
470
100
AcDbEntity
  8
0
100
AcDbLine
 62
7
  6
CONTINUOUS
 10
844.5203125
 20
747.2516032081
 11
844.5203125
 21
750.0516032081
  0
LINE
  5
471
100
AcDbEntity
  8
0
100
AcDbLine
 62
7
  6
CONTINUOUS
 10
851.9982119439
 20
753.0516032081
 11
851.9982119439
 21
750.1368505195
  0
LINE
  5
472
100
AcDbEntity
  8
0
100
AcDbLine
 62
7
  6
CONTINUOUS
 10
731.5903125
 20
800.2516032081
 11
666.0121184364
 21
769.633028373
  0
LINE
  5
473
100
AcDbEntity
  8
0
100
AcDbLine
 62
7
  6
CONTINUOUS
 10
731.5903125
 20
894.2516032081
 11
666.0121184364
 21
924.8701780431
  0
LINE
  5
474
100
AcDbEntity
  8
3_ALL_AXES
100
AcDbLine
 62
7
  6
CENTER
 10
883.47731787
 20
838.3613672884
 11
893.0241842023
 21
838.3613672884
  0
LINE
  5
475
100
AcDbEntity
  8
0
100
AcDbLine
 62
7
  6
CONTINUOUS
 10
840.715672537
 20
947.2516032081
 11
841.3564622202
 21
944.7757819914
  0
LINE
  5
476
100
AcDbEntity
  8
3_AXES_OTHER
100
AcDbLine
 62
7
  6
CENTER
 10
887.6603125
 20
833.4758059634
 11
887.6603125
 21
844.3766749728
  0
LINE
  5
477
100
AcDbEntity
  8
0
100
AcDbLine
 62
7
  6
CONTINUOUS
 10
865.1991537112
 20
944.4516032081
 11
865.115250068
 21
944.7757819914
  0
LINE
  5
478
100
AcDbEntity
  8
0
100
AcDbLine
 62
7
  6
CONTINUOUS
 10
1084.8786371857
 20
944.398288403
 11
970.3203125
 21
913.7024778172
  0
LINE
  5
479
100
AcDbEntity
  8
0
100
AcDbLine
 62
7
  6
CONTINUOUS
 10
1084.4002591367
 20
947.2516032081
 11
1074.8344205187
 21
944.7757819914
  0
LINE
  5
47A
100
AcDbEntity
  8
0
100
AcDbLine
 62
7
  6
CONTINUOUS
 10
1071.1215827736
 20
944.398288403
 11
968.9064560714
 21
917.9430669149
  0
LINE
  5
47B
100
AcDbEntity
  8
0
100
AcDbLine
 62
7
  6
CONTINUOUS
 10
968.9064560714
 20
920.8408443938
 11
1061.3839535757
 21
944.7757819914
  0
LINE
  5
47C
100
AcDbEntity
  8
0
100
AcDbLine
 62
7
  6
CONTINUOUS
 10
731.5903125
 20
894.2516032081
 11
756.5903125
 21
894.2516032081
  0
LINE
  5
47D
100
AcDbEntity
  8
0
100
AcDbLine
 62
7
  6
CONTINUOUS
 10
653.4003125
 20
910.0783197288
 11
631.6613125
 21
910.0783197288
  0
LINE
  5
47E
100
AcDbEntity
  8
0
100
AcDbLine
 62
7
  6
CONTINUOUS
 10
970.3203125
 20
913.7024778172
 11
956.3203125
 21
913.7024778172
  0
LINE
  5
47F
100
AcDbEntity
  8
0
100
AcDbLine
 62
7
  6
CONTINUOUS
 10
899.4192590456
 20
923.0516032081
 11
903.6618997328
 21
923.0516032081
  0
LINE
  5
480
100
AcDbEntity
  8
0
100
AcDbLine
 62
7
  6
CONTINUOUS
 10
1022.9787252672
 20
923.0516032081
 11
1027.2213659544
 21
923.0516032081
  0
LINE
  5
481
100
AcDbEntity
  8
0
100
AcDbLine
 62
7
  6
CONTINUOUS
 10
956.3203125
 20
753.0516032081
 11
956.3203125
 21
804.8412260307
  0
LINE
  5
482
100
AcDbEntity
  8
0
100
AcDbLine
 62
7
  6
CONTINUOUS
 10
956.3203125
 20
875.6619803855
 11
956.3203125
 21
913.7024778172
  0
LINE
  5
483
100
AcDbEntity
  8
0
100
AcDbLine
 62
9
  6
CONTINUOUS
 10
957.5927475724
 20
917.9430669149
 11
957.5927475724
 21
920.8408443938
  0
LINE
  5
484
100
AcDbEntity
  8
0
100
AcDbLine
 62
9
  6
CONTINUOUS
 10
957.6634582505
 20
753.0516032081
 11
957.6634582505
 21
750.0516032081
  0
LINE
  5
485
100
AcDbEntity
  8
0
100
AcDbLine
 62
9
  6
CONTINUOUS
 10
958.7948291004
 20
747.2516032081
 11
958.7948291004
 21
750.0516032081
  0
LINE
  5
486
100
AcDbEntity
  8
0
100
AcDbLine
 62
9
  6
CONTINUOUS
 10
967.8457958996
 20
747.2516032081
 11
967.8457958996
 21
750.0516032081
  0
LINE
  5
487
100
AcDbEntity
  8
0
100
AcDbLine
 62
9
  6
CONTINUOUS
 10
968.9064560714
 20
917.9430669149
 11
968.9064560714
 21
920.8408443938
  0
LINE
  5
488
100
AcDbEntity
  8
0
100
AcDbLine
 62
9
  6
CONTINUOUS
 10
968.9771667495
 20
753.0516032081
 11
968.9771667495
 21
750.0516032081
  0
LINE
  5
489
100
AcDbEntity
  8
0
100
AcDbLine
 62
7
  6
CONTINUOUS
 10
822.1685065636
 20
924.8701780431
 11
666.0121184364
 21
924.8701780431
  0
LINE
  5
48A
100
AcDbEntity
  8
0
100
AcDbLine
 62
7
  6
CONTINUOUS
 10
631.6613125
 20
928.0148386701
 11
653.4003125
 21
928.0148386701
  0
LINE
  5
48B
100
AcDbEntity
  8
0
100
AcDbLine
 62
9
  6
CONTINUOUS
 10
1133.7203125
 20
929.0369012155
 11
1127.8203125
 21
929.0369012155
  0
LINE
  5
48C
100
AcDbEntity
  8
0
100
AcDbLine
 62
9
  6
CONTINUOUS
 10
619.6203125
 20
929.0369012155
 11
613.7203125
 21
929.0369012155
  0
LINE
  5
48D
100
AcDbEntity
  8
0
100
AcDbLine
 62
7
  6
CONTINUOUS
 10
619.6203125
 20
929.31635727
 11
631.6613125
 21
929.31635727
  0
LINE
  5
48E
100
AcDbEntity
  8
0
100
AcDbLine
 62
7
  6
CONTINUOUS
 10
1106.6291640538
 20
929.31635727
 11
1127.8203125
 21
929.31635727
  0
LINE
  5
48F
100
AcDbEntity
  8
0
100
AcDbLine
 62
9
  6
CONTINUOUS
 10
1133.7203125
 20
931.4026020635
 11
1127.8203125
 21
931.4026020635
  0
LINE
  5
490
100
AcDbEntity
  8
0
100
AcDbLine
 62
9
  6
CONTINUOUS
 10
619.6203125
 20
931.4026020635
 11
613.7203125
 21
931.4026020635
  0
LINE
  5
491
100
AcDbEntity
  8
0
100
AcDbLine
 62
7
  6
CONTINUOUS
 10
631.6613125
 20
939.524624031
 11
828.7227511618
 21
939.524624031
  0
LINE
  5
492
100
AcDbEntity
  8
0
100
AcDbLine
 62
7
  6
CONTINUOUS
 10
851.8062044813
 20
944.7757819914
 11
842.2403658633
 21
947.2516032081
  0
LINE
  5
493
100
AcDbEntity
  8
0
100
AcDbLine
 62
7
  6
CONTINUOUS
 10
957.5927475724
 20
917.9430669149
 11
855.3776208702
 21
944.398288403
  0
LINE
  5
494
100
AcDbEntity
  8
0
100
AcDbLine
 62
7
  6
CONTINUOUS
 10
865.115250068
 20
944.7757819914
 11
957.5927475724
 21
920.8408443938
  0
LINE
  5
495
100
AcDbEntity
  8
0
100
AcDbLine
 62
7
  6
CONTINUOUS
 10
956.3203125
 20
913.7024778172
 11
841.7619878143
 21
944.398288403
  0
LINE
  5
496
100
AcDbEntity
  8
0
100
AcDbLine
 62
7
  6
CONTINUOUS
 10
970.3203125
 20
913.7024778172
 11
970.3203125
 21
875.6619803855
  0
LINE
  5
497
100
AcDbEntity
  8
0
100
AcDbLine
 62
7
  6
CONTINUOUS
 10
970.3203125
 20
804.8412260307
 11
970.3203125
 21
753.0516032081
  0
LINE
  5
498
100
AcDbEntity
  8
0
100
AcDbLine
 62
7
  6
CONTINUOUS
 10
855.3776208702
 20
944.398288403
 11
865.1991537112
 21
944.4516032081
  0
LINE
  5
499
100
AcDbEntity
  8
0
100
AcDbLine
 62
7
  6
CONTINUOUS
 10
836.4506808685
 20
944.3704782108
 11
841.7619878143
 21
944.398288403
  0
LINE
  5
49A
100
AcDbEntity
  8
0
100
AcDbLine
 62
7
  6
CONTINUOUS
 10
619.6203125
 20
944.3704782108
 11
836.4506808685
 21
944.3704782108
  0
LINE
  5
49B
100
AcDbEntity
  8
0
100
AcDbLine
 62
7
  6
CONTINUOUS
 10
1090.1899441315
 20
944.3704782108
 11
1127.8203125
 21
944.3704782108
  0
LINE
  5
49C
100
AcDbEntity
  8
0
100
AcDbLine
 62
7
  6
CONTINUOUS
 10
1084.8786371857
 20
944.398288403
 11
1071.1215827736
 21
944.398288403
  0
LINE
  5
49D
100
AcDbEntity
  8
0
100
AcDbLine
 62
7
  6
CONTINUOUS
 10
855.3776208702
 20
944.398288403
 11
841.7619878143
 21
944.398288403
  0
LINE
  5
49E
100
AcDbEntity
  8
0
100
AcDbLine
 62
7
  6
CONTINUOUS
 10
619.6203125
 20
944.4516032081
 11
865.1991537112
 21
944.4516032081
  0
LINE
  5
49F
100
AcDbEntity
  8
0
100
AcDbLine
 62
7
  6
CONTINUOUS
 10
1061.3000499326
 20
944.4516032081
 11
1127.8203125
 21
944.4516032081
  0
LINE
  5
4A0
100
AcDbEntity
  8
0
100
AcDbLine
 62
7
  6
CONTINUOUS
 10
841.3564622202
 20
944.7757819914
 11
865.115250068
 21
944.7757819914
  0
LINE
  5
4A1
100
AcDbEntity
  8
0
100
AcDbLine
 62
7
  6
CONTINUOUS
 10
1061.3839535757
 20
944.7757819914
 11
1085.2841627798
 21
944.7757819914
  0
LINE
  5
4A2
100
AcDbEntity
  8
0
100
AcDbLine
 62
9
  6
CONTINUOUS
 10
1133.7203125
 20
946.6006799924
 11
1127.8203125
 21
946.6006799924
  0
LINE
  5
4A3
100
AcDbEntity
  8
0
100
AcDbLine
 62
9
  6
CONTINUOUS
 10
619.6203125
 20
946.6006799924
 11
613.7203125
 21
946.6006799924
  0
LINE
  5
4A4
100
AcDbEntity
  8
0
100
AcDbLine
 62
7
  6
CONTINUOUS
 10
613.7203125
 20
947.2516032081
 11
842.2403658633
 21
947.2516032081
  0
LINE
  5
4A5
100
AcDbEntity
  8
0
100
AcDbLine
 62
7
  6
CONTINUOUS
 10
1084.4002591367
 20
947.2516032081
 11
1133.7203125
 21
947.2516032081
  0
LINE
  5
4A6
100
AcDbEntity
  8
0
100
AcDbLine
 62
7
  6
CONTINUOUS
 10
1090.1899441315
 20
944.3704782108
 11
1084.8786371857
 21
944.398288403
  0
LINE
  5
4A7
100
AcDbEntity
  8
0
100
AcDbLine
 62
7
  6
CONTINUOUS
 10
1061.3000499326
 20
944.4516032081
 11
1071.1215827736
 21
944.398288403
  0
LINE
  5
4A8
100
AcDbEntity
  8
0
100
AcDbLine
 62
7
  6
CONTINUOUS
 10
1061.3000499326
 20
944.4516032081
 11
1061.3839535757
 21
944.7757819914
  0
LINE
  5
4A9
100
AcDbEntity
  8
0
100
AcDbLine
 62
7
  6
CONTINUOUS
 10
1085.924952463
 20
947.2516032081
 11
1085.2841627798
 21
944.7757819914
  0
LINE
  5
4AA
100
AcDbEntity
  8
0
100
AcDbLine
 62
7
  6
CONTINUOUS
 10
1074.6424130561
 20
753.0516032081
 11
1074.6424130561
 21
750.1368505195
  0
LINE
  5
4AB
100
AcDbEntity
  8
0
100
AcDbLine
 62
7
  6
CONTINUOUS
 10
1082.1203125
 20
747.2516032081
 11
1082.1203125
 21
750.0516032081
  0
LINE
  5
4AC
100
AcDbEntity
  8
0
100
AcDbLine
 62
7
  6
CONTINUOUS
 10
1090.1987622422
 20
753.0516032081
 11
1090.1987622422
 21
750.1368505195
  0
LINE
  5
4AD
100
AcDbEntity
  8
0
100
AcDbLine
 62
7
  6
CONTINUOUS
 10
1127.8203125
 20
947.2516032081
 11
1127.8203125
 21
747.2516032081
  0
LINE
  5
4AE
100
AcDbEntity
  8
0
100
AcDbLine
 62
7
  6
CONTINUOUS
 10
1133.7203125
 20
947.2516032081
 11
1133.7203125
 21
747.2516032081
  0
LINE
  5
4AF
100
AcDbEntity
  8
0
100
AcDbLine
 62
7
  6
CONTINUOUS
 10
613.7203125
 20
1487.1519837377
 11
613.7203125
 21
1212.0566575667
  0
LINE
  5
4B0
100
AcDbEntity
  8
0
100
AcDbLine
 62
7
  6
CONTINUOUS
 10
619.6203125
 20
1212.0566575667
 11
619.6203125
 21
1252.9781788835
  0
LINE
  5
4B1
100
AcDbEntity
  8
0
100
AcDbLine
 62
7
  6
CONTINUOUS
 10
631.6613125
 20
1214.8566575667
 11
631.6613125
 21
1229.7566575667
  0
LINE
  5
4B2
100
AcDbEntity
  8
0
100
AcDbLine
 62
7
  6
CONTINUOUS
 10
613.7203125
 20
1212.0566575667
 11
619.6203125
 21
1212.0566575667
  0
LINE
  5
4B3
100
AcDbEntity
  8
0
100
AcDbLine
 62
7
  6
CONTINUOUS
 10
1127.8203125
 20
1212.0566575667
 11
1133.7203125
 21
1212.0566575667
  0
LINE
  5
4B4
100
AcDbEntity
  8
0
100
AcDbLine
 62
7
  6
CONTINUOUS
 10
619.6203125
 20
1214.8566575667
 11
631.6613125
 21
1214.8566575667
  0
LINE
  5
4B5
100
AcDbEntity
  8
0
100
AcDbLine
 62
7
  6
CONTINUOUS
 10
1112.8178738382
 20
1214.8566575667
 11
1127.8203125
 21
1214.8566575667
  0
LINE
  5
4B6
100
AcDbEntity
  8
0
100
AcDbLine
 62
9
  6
CONTINUOUS
 10
1133.7203125
 20
1218.1714076933
 11
1127.8203125
 21
1218.1714076933
  0
LINE
  5
4B7
100
AcDbEntity
  8
0
100
AcDbLine
 62
9
  6
CONTINUOUS
 10
619.6203125
 20
1218.1714076933
 11
613.7203125
 21
1218.1714076933
  0
LINE
  5
4B8
100
AcDbEntity
  8
0
100
AcDbLine
 62
9
  6
CONTINUOUS
 10
1133.7203125
 20
1219.0271416583
 11
1127.8203125
 21
1219.0271416583
  0
LINE
  5
4B9
100
AcDbEntity
  8
0
100
AcDbLine
 62
9
  6
CONTINUOUS
 10
619.6203125
 20
1219.0271416583
 11
613.7203125
 21
1219.0271416583
  0
LINE
  5
4BA
100
AcDbEntity
  8
0
100
AcDbLine
 62
7
  6
CONTINUOUS
 10
619.6203125
 20
1221.0453673511
 11
631.6613125
 21
1221.0453673511
  0
LINE
  5
4BB
100
AcDbEntity
  8
0
100
AcDbLine
 62
7
  6
CONTINUOUS
 10
1106.6291640538
 20
1221.0453673511
 11
1127.8203125
 21
1221.0453673511
  0
LINE
  5
4BC
100
AcDbEntity
  8
0
100
AcDbLine
 62
7
  6
CONTINUOUS
 10
631.6613125
 20
1229.7566575667
 11
828.7227511618
 21
1229.7566575667
  0
LINE
  5
4BD
100
AcDbEntity
  8
0
100
AcDbLine
 62
9
  6
CONTINUOUS
 10
1133.7203125
 20
1235.6582372254
 11
1127.8203125
 21
1235.6582372254
  0
LINE
  5
4BE
100
AcDbEntity
  8
0
100
AcDbLine
 62
9
  6
CONTINUOUS
 10
619.6203125
 20
1235.6582372254
 11
613.7203125
 21
1235.6582372254
  0
LINE
  5
4BF
100
AcDbEntity
  8
0
100
AcDbLine
 62
7
  6
CONTINUOUS
 10
619.6203125
 20
1237.4845872734
 11
851.9982119439
 21
1237.4757691627
  0
LINE
  5
4C0
100
AcDbEntity
  8
0
100
AcDbLine
 62
7
  6
CONTINUOUS
 10
1074.6424130561
 20
1237.4757691627
 11
1127.8203125
 21
1237.4845872734
  0
LINE
  5
4C1
100
AcDbEntity
  8
0
100
AcDbLine
 62
9
  6
CONTINUOUS
 10
1133.7203125
 20
1238.4703745136
 11
1127.8203125
 21
1238.4703745136
  0
LINE
  5
4C2
100
AcDbEntity
  8
0
100
AcDbLine
 62
9
  6
CONTINUOUS
 10
619.6203125
 20
1238.4703745136
 11
613.7203125
 21
1238.4703745136
  0
LINE
  5
4C3
100
AcDbEntity
  8
0
100
AcDbLine
 62
7
  6
CONTINUOUS
 10
1084.8786371857
 20
1242.7958942192
 11
1071.1215827736
 21
1242.7958942192
  0
LINE
  5
4C4
100
AcDbEntity
  8
0
100
AcDbLine
 62
7
  6
CONTINUOUS
 10
855.3776208702
 20
1242.7958942192
 11
841.7619878143
 21
1242.7958942192
  0
LINE
  5
4C5
100
AcDbEntity
  8
0
100
AcDbLine
 62
7
  6
CONTINUOUS
 10
840.8708175634
 20
1241.9047239683
 11
845.1134582505
 21
1237.6620832812
  0
LINE
  5
4C6
100
AcDbEntity
  8
0
100
AcDbLine
 62
7
  6
CONTINUOUS
 10
619.6203125
 20
1252.9781788835
 11
865.1991537112
 21
1252.9781788835
  0
LINE
  5
4C7
100
AcDbEntity
  8
0
100
AcDbLine
 62
7
  6
CONTINUOUS
 10
1061.3000499326
 20
1252.9781788835
 11
1127.8203125
 21
1252.9781788835
  0
LINE
  5
4C8
100
AcDbEntity
  8
0
100
AcDbLine
 62
7
  6
CONTINUOUS
 10
1133.7203125
 20
1254.5566575667
 11
1084.4002591367
 21
1254.5566575667
  0
LINE
  5
4C9
100
AcDbEntity
  8
0
100
AcDbLine
 62
7
  6
CONTINUOUS
 10
842.2403658633
 20
1254.5566575667
 11
613.7203125
 21
1254.5566575667
  0
LINE
  5
4CA
100
AcDbEntity
  8
0
100
AcDbLine
 62
7
  6
CONTINUOUS
 10
842.2403658633
 20
1254.5566575667
 11
840.715672537
 21
1252.9781788835
  0
LINE
  5
4CB
100
AcDbEntity
  8
0
100
AcDbLine
 62
7
  6
CONTINUOUS
 10
855.3776208702
 20
1242.7958942192
 11
865.1991537112
 21
1252.9781788835
  0
LINE
  5
4CC
100
AcDbEntity
  8
0
100
AcDbLine
 62
7
  6
CONTINUOUS
 10
828.7227511618
 20
1229.7566575667
 11
841.7619878143
 21
1242.7958942192
  0
LINE
  5
4CD
100
AcDbEntity
  8
0
100
AcDbLine
 62
7
  6
CONTINUOUS
 10
850.2472691885
 20
1242.7958942192
 11
845.1134582505
 21
1237.6620832812
  0
LINE
  5
4CE
100
AcDbEntity
  8
0
100
AcDbLine
 62
7
  6
CONTINUOUS
 10
912.3332537984
 20
1297.8108110171
 11
851.9982119439
 21
1237.4757691627
  0
LINE
  5
4CF
100
AcDbEntity
  8
0
100
AcDbLine
 62
7
  6
CONTINUOUS
 10
958.7948291004
 20
1367.1396237767
 11
842.2403658633
 21
1254.5566575667
  0
LINE
  5
4D0
100
AcDbEntity
  8
0
100
AcDbLine
 62
7
  6
CONTINUOUS
 10
958.7948291004
 20
1366.4149304504
 11
841.3564622202
 21
1252.9781788835
  0
LINE
  5
4D1
100
AcDbEntity
  8
0
100
AcDbLine
 62
7
  6
CONTINUOUS
 10
865.115250068
 20
1252.9781788835
 11
957.5927475724
 21
1342.3045820736
  0
LINE
  5
4D2
100
AcDbEntity
  8
0
100
AcDbLine
 62
7
  6
CONTINUOUS
 10
957.5927475724
 20
1341.5281249383
 11
855.3776208702
 21
1242.7958942192
  0
LINE
  5
4D3
100
AcDbEntity
  8
0
100
AcDbLine
 62
7
  6
CONTINUOUS
 10
1071.1215827736
 20
1242.7958942192
 11
968.9064560714
 21
1341.5281249383
  0
LINE
  5
4D4
100
AcDbEntity
  8
0
100
AcDbLine
 62
7
  6
CONTINUOUS
 10
968.9064560714
 20
1342.3045820736
 11
1061.3839535757
 21
1252.9781788835
  0
LINE
  5
4D5
100
AcDbEntity
  8
0
100
AcDbLine
 62
7
  6
CONTINUOUS
 10
1085.2841627798
 20
1252.9781788835
 11
967.8457958996
 21
1366.4149304504
  0
LINE
  5
4D6
100
AcDbEntity
  8
0
100
AcDbLine
 62
7
  6
CONTINUOUS
 10
1084.4002591367
 20
1254.5566575667
 11
967.8457958996
 21
1367.1396237767
  0
LINE
  5
4D7
100
AcDbEntity
  8
0
100
AcDbLine
 62
7
  6
CONTINUOUS
 10
1074.6424130561
 20
1237.4757691627
 11
1018.3163470765
 21
1293.8018351422
  0
LINE
  5
4D8
100
AcDbEntity
  8
0
100
AcDbLine
 62
7
  6
CONTINUOUS
 10
1076.3933558115
 20
1242.7958942192
 11
1081.5271667495
 21
1237.6620832812
  0
LINE
  5
4D9
100
AcDbEntity
  8
0
100
AcDbLine
 62
7
  6
CONTINUOUS
 10
1112.8178738382
 20
1214.8566575667
 11
1084.8786371857
 21
1242.7958942192
  0
LINE
  5
4DA
100
AcDbEntity
  8
0
100
AcDbLine
 62
7
  6
CONTINUOUS
 10
1061.3000499326
 20
1252.9781788835
 11
1071.1215827736
 21
1242.7958942192
  0
LINE
  5
4DB
100
AcDbEntity
  8
0
100
AcDbLine
 62
9
  6
CONTINUOUS
 10
957.5927475724
 20
1341.5281249383
 11
957.5927475724
 21
1342.3045820736
  0
LINE
  5
4DC
100
AcDbEntity
  8
0
100
AcDbLine
 62
9
  6
CONTINUOUS
 10
958.7948291004
 20
1367.1396237767
 11
958.7948291004
 21
1366.4149304504
  0
LINE
  5
4DD
100
AcDbEntity
  8
0
100
AcDbLine
 62
9
  6
CONTINUOUS
 10
967.8457958996
 20
1367.1396237767
 11
967.8457958996
 21
1366.4149304504
  0
LINE
  5
4DE
100
AcDbEntity
  8
0
100
AcDbLine
 62
9
  6
CONTINUOUS
 10
968.9064560714
 20
1341.5281249383
 11
968.9064560714
 21
1342.3045820736
  0
LINE
  5
4DF
100
AcDbEntity
  8
0
100
AcDbLine
 62
7
  6
CONTINUOUS
 10
1084.4002591367
 20
1254.5566575667
 11
1085.924952463
 21
1252.9781788835
  0
LINE
  5
4E0
100
AcDbEntity
  8
0
100
AcDbLine
 62
7
  6
CONTINUOUS
 10
1133.7203125
 20
1487.1519837377
 11
613.7203125
 21
1487.1519837377
  0
LINE
  5
4E1
100
AcDbEntity
  8
0
100
AcDbLine
 62
7
  6
CONTINUOUS
 10
1085.7698074366
 20
1241.9047239683
 11
1081.5271667495
 21
1237.6620832812
  0
LINE
  5
4E2
100
AcDbEntity
  8
0
100
AcDbLine
 62
7
  6
CONTINUOUS
 10
1127.8203125
 20
1212.0566575667
 11
1127.8203125
 21
1252.9781788835
  0
LINE
  5
4E3
100
AcDbEntity
  8
0
100
AcDbLine
 62
7
  6
CONTINUOUS
 10
1133.7203125
 20
1487.1519837377
 11
1133.7203125
 21
1212.0566575667
  0
LWPOLYLINE
  5
4E4
100
AcDbEntity
  8
0
100
AcDbPolyline
 62
2
  6
CONTINUOUS
 90
5
 70
0
 10
1615.700364726
 20
697.8486497203
 10
1644.0756584063
 20
697.8486497203
 10
1644.0756584063
 20
729.8526497203
 10
1615.700364726
 20
729.8526497203
 10
1615.700364726
 20
697.8486497203
  0
LINE
  5
4E5
100
AcDbEntity
  8
0
100
AcDbLine
 62
7
  6
CONTINUOUS
 10
1426.8680154783
 20
747.2516032081
 11
1638.6593792882
 21
747.2516032081
  0
LINE
  5
4E6
100
AcDbEntity
  8
3_AXES_OTHER
100
AcDbLine
 62
7
  6
CENTER
 10
1537.2542985313
 20
835.9516032081
 11
1511.4742985313
 21
835.9516032081
  0
LINE
  5
4E7
100
AcDbEntity
  8
3_AXES_OTHER
100
AcDbLine
 62
7
  6
CENTER
 10
1537.2542985313
 20
835.9516032081
 11
1563.0342985313
 21
835.9516032081
  0
LINE
  5
4E8
100
AcDbEntity
  8
3_AXES_OTHER
100
AcDbLine
 62
7
  6
CENTER
 10
1537.2542985313
 20
835.9516032081
 11
1537.2542985313
 21
810.1716032081
  0
LINE
  5
4E9
100
AcDbEntity
  8
3_AXES_OTHER
100
AcDbLine
 62
7
  6
CENTER
 10
1537.2542985313
 20
835.9516032081
 11
1537.2542985313
 21
861.7316032081
  0
LINE
  5
4EA
100
AcDbEntity
  8
0
100
AcDbLine
 62
7
  6
CONTINUOUS
 10
1675.5496247024
 20
884.9278733973
 11
1442.9542985313
 21
947.2516032081
  0
LINE
  5
4EB
100
AcDbEntity
  8
0
100
AcDbLine
 62
7
  6
CONTINUOUS
 10
1442.9542985313
 20
947.2516032081
 11
1426.8680154783
 21
947.2516032081
  0
LINE
  5
4EC
100
AcDbEntity
  8
0
100
AcDbLine
 62
7
  6
CONTINUOUS
 10
1638.6593792882
 20
747.2516032081
 11
1675.5496247024
 21
884.9278733973
  0
LINE
  5
4ED
100
AcDbEntity
  8
DEFAULT_3
100
AcDbLine
 62
7
  6
PHANTOM
 10
1881.1408685321
 20
914.5767860315
 11
1808.0345368591
 21
641.7402418728
  0
LINE
  5
4EE
100
AcDbEntity
  8
DEFAULT_3
100
AcDbLine
 62
7
  6
PHANTOM
 10
1404.8346661933
 20
1080.4105415164
 11
1741.8874817006
 21
990.0975117946
  0
LINE
  5
4EF
100
AcDbEntity
  8
0
100
AcDbLine
 62
7
  6
CONTINUOUS
 10
2400.7946538186
 20
1667.0660731999
 11
2400.7946538186
 21
1657.6696035537
  0
LINE
  5
4F0
100
AcDbEntity
  8
0
100
AcDbLine
 62
7
  6
CONTINUOUS
 10
2400.7946538186
 20
1522.6932612661
 11
2400.7946538186
 21
1516.40459479
  0
LINE
  5
4F1
100
AcDbEntity
  8
0
100
AcDbLine
 62
7
  6
CONTINUOUS
 10
2397.7448525665
 20
1679.0949236446
 11
2408.7004762589
 21
1685.4880419544
  0
LINE
  5
4F2
100
AcDbEntity
  8
0
100
AcDbLine
 62
7
  6
CONTINUOUS
 10
2405.6446992307
 20
1690.8278086341
 11
2394.2699793998
 21
1684.2588912998
  0
LINE
  5
4F3
100
AcDbEntity
  8
0
100
AcDbLine
 62
7
  6
CONTINUOUS
 10
2398.4419094088
 20
1681.8495956195
 11
2408.7004762589
 21
1687.7739329753
  0
LINE
  5
4F4
100
AcDbEntity
  8
0
100
AcDbLine
 62
7
  6
CONTINUOUS
 10
2408.7004762589
 20
1685.4880419544
 11
2408.7004762589
 21
1687.7739329753
  0
LINE
  5
4F5
100
AcDbEntity
  8
0
100
AcDbLine
 62
7
  6
CONTINUOUS
 10
2416.1664481348
 20
1513.816027572
 11
2416.1664481348
 21
1648.7923698597
  0
LINE
  5
4F6
100
AcDbEntity
  8
0
100
AcDbLine
 62
7
  6
CONTINUOUS
 10
2425.0843416354
 20
1641.0750049338
 11
2425.0843416354
 21
1514.3410025956
  0
LINE
  5
4F7
100
AcDbEntity
  8
0
100
AcDbLine
 62
7
  6
CONTINUOUS
 10
2497.1231035128
 20
1527.3817874048
 11
2497.1231035128
 21
1599.4725146156
  0
LINE
  5
4F8
100
AcDbEntity
  8
0
100
AcDbLine
 62
7
  6
CONTINUOUS
 10
2514.8007730425
 20
1589.2636346143
 11
2514.8007730425
 21
1517.1729074034
  0
LINE
  5
4F9
100
AcDbEntity
  8
0
100
AcDbLine
 62
7
  6
CONTINUOUS
 10
2724.4878301136
 20
1370.5608883003
 11
2730.4878301136
 21
1370.5608883003
  0
LINE
  5
4FA
100
AcDbEntity
  8
0
100
AcDbLine
 62
7
  6
CONTINUOUS
 10
2535.5035826058
 20
1450.5737294819
 11
2535.5035826058
 21
1577.3077318201
  0
LINE
  5
4FB
100
AcDbEntity
  8
0
100
AcDbLine
 62
7
  6
CONTINUOUS
 10
2540.1381334067
 20
1435.933531582
 11
2540.1381334067
 21
1586.5950099919
  0
LINE
  5
4FC
100
AcDbEntity
  8
0
100
AcDbLine
 62
7
  6
CONTINUOUS
 10
2514.8007730425
 20
1545.0011390741
 11
2497.1231035128
 21
1527.3817874048
  0
LINE
  5
4FD
100
AcDbEntity
  8
0
100
AcDbLine
 62
7
  6
CONTINUOUS
 10
2416.1664481348
 20
1531.5704949601
 11
2400.7946538186
 21
1522.6932612661
  0
LINE
  5
4FE
100
AcDbEntity
  8
0
100
AcDbLine
 62
7
  6
CONTINUOUS
 10
2384.7055787435
 20
1522.2367545834
 11
2388.8775087525
 21
1519.8274589031
  0
LINE
  5
4FF
100
AcDbEntity
  8
0
100
AcDbLine
 62
7
  6
CONTINUOUS
 10
2748.2291749515
 20
1312.3013462347
 11
2752.4011049605
 21
1309.8920505544
  0
LINE
  5
500
100
AcDbEntity
  8
0
100
AcDbLine
 62
9
  6
CONTINUOUS
 10
2748.2170638167
 20
1313.6354724639
 11
2744.0451338077
 21
1316.0447681442
  0
LINE
  5
501
100
AcDbEntity
  8
0
100
AcDbLine
 62
9
  6
CONTINUOUS
 10
2384.6934676087
 20
1523.5708808126
 11
2380.5215375997
 21
1525.9801764929
  0
LINE
  5
502
100
AcDbEntity
  8
0
100
AcDbLine
 62
9
  6
CONTINUOUS
 10
2747.6119685271
 20
1315.2173627375
 11
2743.4400385181
 21
1317.6266584178
  0
LINE
  5
503
100
AcDbEntity
  8
0
100
AcDbLine
 62
9
  6
CONTINUOUS
 10
2384.0883723191
 20
1525.1527710862
 11
2379.9164423101
 21
1527.5620667665
  0
LINE
  5
504
100
AcDbEntity
  8
0
100
AcDbLine
 62
7
  6
CONTINUOUS
 10
2390.2777836931
 20
1522.2521712758
 11
2398.7920564454
 21
1517.335166312
  0
LINE
  5
505
100
AcDbEntity
  8
0
100
AcDbLine
 62
7
  6
CONTINUOUS
 10
2730.4878301136
 20
1325.7803720182
 11
2743.3661237739
 21
1318.3431385989
  0
LINE
  5
506
100
AcDbEntity
  8
0
100
AcDbLine
 62
7
  6
CONTINUOUS
 10
2400.7946538186
 20
1516.40459479
 11
2540.1381334067
 21
1435.933531582
  0
LINE
  5
507
100
AcDbEntity
  8
0
100
AcDbLine
 62
7
  6
CONTINUOUS
 10
2386.120568682
 20
1526.0982224266
 11
2394.6348414342
 21
1521.1812174627
  0
LINE
  5
508
100
AcDbEntity
  8
0
100
AcDbLine
 62
7
  6
CONTINUOUS
 10
2730.4878301136
 20
1327.2256254214
 11
2743.2075805297
 21
1319.8799509574
  0
LINE
  5
509
100
AcDbEntity
  8
0
100
AcDbLine
 62
7
  6
CONTINUOUS
 10
2730.4878301136
 20
1328.3578423425
 11
2719.4878301136
 21
1334.7103584266
  0
LINE
  5
50A
100
AcDbEntity
  8
0
100
AcDbLine
 62
7
  6
CONTINUOUS
 10
2562.0546057152
 20
1425.628275713
 11
2551.0546057152
 21
1431.980791797
  0
LINE
  5
50B
100
AcDbEntity
  8
0
100
AcDbLine
 62
7
  6
CONTINUOUS
 10
2730.4878301136
 20
1330.7374162708
 11
2719.4878301136
 21
1337.0899323548
  0
LINE
  5
50C
100
AcDbEntity
  8
0
100
AcDbLine
 62
7
  6
CONTINUOUS
 10
2562.0546057152
 20
1428.0078496413
 11
2551.0546057152
 21
1434.3603657253
  0
LINE
  5
50D
100
AcDbEntity
  8
0
100
AcDbLine
 62
7
  6
CONTINUOUS
 10
2400.7946538186
 20
1522.6932612661
 11
2416.1664481348
 21
1513.816027572
  0
LINE
  5
50E
100
AcDbEntity
  8
0
100
AcDbLine
 62
7
  6
CONTINUOUS
 10
2425.0843416354
 20
1514.3410025956
 11
2535.5035826058
 21
1450.5737294819
  0
LINE
  5
50F
100
AcDbEntity
  8
0
100
AcDbLine
 62
7
  6
CONTINUOUS
 10
2514.8007730425
 20
1517.1729074034
 11
2535.5035826058
 21
1450.5737294819
  0
LINE
  5
510
100
AcDbEntity
  8
0
100
AcDbLine
 62
7
  6
CONTINUOUS
 10
2551.0546057152
 20
1434.3603657253
 11
2551.0546057152
 21
1431.980791797
  0
LINE
  5
511
100
AcDbEntity
  8
0
100
AcDbLine
 62
7
  6
CONTINUOUS
 10
2562.0546057152
 20
1428.0078496413
 11
2562.0546057152
 21
1425.628275713
  0
LINE
  5
512
100
AcDbEntity
  8
0
100
AcDbLine
 62
7
  6
CONTINUOUS
 10
2653.486780234
 20
1629.8891472612
 11
2654.408633843
 21
1630.2366558626
  0
LINE
  5
513
100
AcDbEntity
  8
0
100
AcDbLine
 62
7
  6
CONTINUOUS
 10
2688.1838254901
 20
1639.1928443918
 11
2689.1056790991
 21
1639.5403529932
  0
LINE
  5
514
100
AcDbEntity
  8
0
100
AcDbLine
 62
7
  6
CONTINUOUS
 10
2585.0792589036
 20
1425.5586806903
 11
2711.4878301136
 21
1425.5586806903
  0
LINE
  5
515
100
AcDbEntity
  8
0
100
AcDbLine
 62
7
  6
CONTINUOUS
 10
2711.4878301136
 20
1428.0078496413
 11
2562.0546057152
 21
1428.0078496413
  0
LINE
  5
516
100
AcDbEntity
  8
0
100
AcDbLine
 62
7
  6
CONTINUOUS
 10
2585.0792589036
 20
1425.5586806903
 11
2562.0546057152
 21
1425.628275713
  0
LINE
  5
517
100
AcDbEntity
  8
0
100
AcDbLine
 62
7
  6
CONTINUOUS
 10
2400.7946538186
 20
1516.40459479
 11
2398.7928697746
 21
1517.3346966542
  0
LINE
  5
518
100
AcDbEntity
  8
0
100
AcDbLine
 62
7
  6
CONTINUOUS
 10
2937.8099578556
 20
1522.5841675678
 11
2773.3402254477
 21
1478.4831046051
  0
LINE
  5
519
100
AcDbEntity
  8
0
100
AcDbLine
 62
7
  6
CONTINUOUS
 10
2720.588335177
 20
1434.3603657253
 11
2551.0546057152
 21
1434.3603657253
  0
LINE
  5
51A
100
AcDbEntity
  8
0
100
AcDbLine
 62
7
  6
CONTINUOUS
 10
2514.8007730425
 20
1517.1729074034
 11
2497.1231035128
 21
1527.3817874048
  0
LINE
  5
51B
100
AcDbEntity
  8
0
100
AcDbLine
 62
7
  6
CONTINUOUS
 10
2565.03850463
 20
1597.488492996
 11
2565.4916113602
 21
1595.2055883793
  0
LINE
  5
51C
100
AcDbEntity
  8
0
100
AcDbLine
 62
7
  6
CONTINUOUS
 10
2582.3509401953
 20
1585.2046451221
 11
2582.2916113603
 21
1585.5035638146
  0
LINE
  5
51D
100
AcDbEntity
  8
0
100
AcDbLine
 62
7
  6
CONTINUOUS
 10
2729.783601924
 20
1585.8276211752
 11
2730.705455533
 21
1586.1751297766
  0
LINE
  5
51E
100
AcDbEntity
  8
0
100
AcDbLine
 62
7
  6
CONTINUOUS
 10
2764.4806471801
 20
1595.1313183057
 11
2765.4025007892
 21
1595.4788269071
  0
LINE
  5
51F
100
AcDbEntity
  8
0
100
AcDbLine
 62
7
  6
CONTINUOUS
 10
2724.4878301136
 20
1432.1084016977
 11
2720.588335177
 21
1434.3603657253
  0
LINE
  5
520
100
AcDbEntity
  8
0
100
AcDbLine
 62
9
  6
CONTINUOUS
 10
2747.6119685271
 20
1448.7547044233
 11
2743.4400385181
 21
1451.1640001036
  0
LINE
  5
521
100
AcDbEntity
  8
0
100
AcDbLine
 62
9
  6
CONTINUOUS
 10
2384.0883723191
 20
1658.6901127719
 11
2379.9164423101
 21
1661.0994084523
  0
LINE
  5
522
100
AcDbEntity
  8
0
100
AcDbLine
 62
7
  6
CONTINUOUS
 10
2386.120568682
 20
1660.0918541736
 11
2394.6348414342
 21
1655.1748492097
  0
LINE
  5
523
100
AcDbEntity
  8
0
100
AcDbLine
 62
7
  6
CONTINUOUS
 10
2730.4878301136
 20
1461.2192571684
 11
2744.0213657713
 21
1453.4036205375
  0
LINE
  5
524
100
AcDbEntity
  8
0
100
AcDbLine
 62
9
  6
CONTINUOUS
 10
2748.2170638167
 20
1451.0354815258
 11
2744.0451338077
 21
1453.4447772062
  0
LINE
  5
525
100
AcDbEntity
  8
0
100
AcDbLine
 62
9
  6
CONTINUOUS
 10
2384.6934676087
 20
1660.9708898745
 11
2380.5215375997
 21
1663.3801855548
  0
LINE
  5
526
100
AcDbEntity
  8
0
100
AcDbLine
 62
7
  6
CONTINUOUS
 10
2535.5035826058
 20
1577.3077318201
 11
2425.0843416354
 21
1641.0750049338
  0
LINE
  5
527
100
AcDbEntity
  8
0
100
AcDbLine
 62
7
  6
CONTINUOUS
 10
2400.7946538186
 20
1657.6696035537
 11
2416.1664481348
 21
1648.7923698597
  0
LINE
  5
528
100
AcDbEntity
  8
0
100
AcDbLine
 62
7
  6
CONTINUOUS
 10
2400.7946538186
 20
1667.0660731999
 11
2540.1381334067
 21
1586.5950099919
  0
LINE
  5
529
100
AcDbEntity
  8
0
100
AcDbLine
 62
7
  6
CONTINUOUS
 10
2397.7448525665
 20
1679.0949236446
 11
2551.0670764071
 21
1590.5511151913
  0
LINE
  5
52A
100
AcDbEntity
  8
0
100
AcDbLine
 62
7
  6
CONTINUOUS
 10
2730.4878301136
 20
1486.9353675796
 11
2755.6625648157
 21
1472.396921479
  0
LINE
  5
52B
100
AcDbEntity
  8
0
100
AcDbLine
 62
9
  6
CONTINUOUS
 10
2759.9770242707
 20
1470.2344294094
 11
2755.8050942617
 21
1472.6437250898
  0
LINE
  5
52C
100
AcDbEntity
  8
0
100
AcDbLine
 62
9
  6
CONTINUOUS
 10
2396.4534280627
 20
1680.1698377581
 11
2392.2814980537
 21
1682.5791334384
  0
LINE
  5
52D
100
AcDbEntity
  8
0
100
AcDbLine
 62
9
  6
CONTINUOUS
 10
2761.9655056169
 20
1471.9141872708
 11
2757.7935756079
 21
1474.3234829511
  0
LINE
  5
52E
100
AcDbEntity
  8
0
100
AcDbLine
 62
9
  6
CONTINUOUS
 10
2398.4419094088
 20
1681.8495956195
 11
2394.2699793998
 21
1684.2588912998
  0
LINE
  5
52F
100
AcDbEntity
  8
0
100
AcDbLine
 62
7
  6
CONTINUOUS
 10
2730.4878301136
 20
1491.2958711535
 11
2720.7601236496
 21
1496.9136358602
  0
LINE
  5
530
100
AcDbEntity
  8
0
100
AcDbLine
 62
7
  6
CONTINUOUS
 10
2568.2061051877
 20
1585.0138045841
 11
2558.5783987237
 21
1590.5738191445
  0
LINE
  5
531
100
AcDbEntity
  8
0
100
AcDbLine
 62
7
  6
CONTINUOUS
 10
2408.7004762589
 20
1685.4880419544
 11
2582.3509401953
 21
1585.2046451221
  0
LINE
  5
532
100
AcDbEntity
  8
0
100
AcDbLine
 62
7
  6
CONTINUOUS
 10
2721.0152137102
 20
1505.1258244145
 11
2766.0730210439
 21
1479.1048747965
  0
LINE
  5
533
100
AcDbEntity
  8
0
100
AcDbLine
 62
7
  6
CONTINUOUS
 10
2565.4916113602
 20
1595.2055883793
 11
2582.2916113603
 21
1585.5035638146
  0
LINE
  5
534
100
AcDbEntity
  8
0
100
AcDbLine
 62
7
  6
CONTINUOUS
 10
2721.0745425452
 20
1505.356218129
 11
2737.9745425452
 21
1495.5964434181
  0
LINE
  5
535
100
AcDbEntity
  8
0
100
AcDbLine
 62
7
  6
CONTINUOUS
 10
2408.7004762589
 20
1687.7739329753
 11
2565.03850463
 21
1597.488492996
  0
LINE
  5
536
100
AcDbEntity
  8
0
100
AcDbLine
 62
7
  6
CONTINUOUS
 10
2738.4276492755
 20
1497.3560084363
 11
2768.0521424579
 21
1480.247820307
  0
LINE
  5
537
100
AcDbEntity
  8
0
100
AcDbLine
 62
7
  6
CONTINUOUS
 10
2773.3402254477
 20
1478.4831046051
 11
2738.4656812661
 21
1498.623204863
  0
LINE
  5
538
100
AcDbEntity
  8
0
100
AcDbLine
 62
7
  6
CONTINUOUS
 10
2567.232778601
 20
1597.5104565261
 11
2405.6446992307
 21
1690.8278086341
  0
LINE
  5
539
100
AcDbEntity
  8
0
100
AcDbLine
 62
9
  6
CONTINUOUS
 10
2710.2973442818
 20
1561.9937768779
 11
2710.8463823874
 21
1564.6765627294
  0
LINE
  5
53A
100
AcDbEntity
  8
0
100
AcDbLine
 62
7
  6
CONTINUOUS
 10
2497.1231035128
 20
1527.3817874048
 11
2425.0843416354
 21
1514.3410025956
  0
LINE
  5
53B
100
AcDbEntity
  8
0
100
AcDbLine
 62
7
  6
CONTINUOUS
 10
2710.2973442818
 20
1561.9937768779
 11
2568.2061051877
 21
1585.0138045841
  0
LINE
  5
53C
100
AcDbEntity
  8
0
100
AcDbLine
 62
7
  6
CONTINUOUS
 10
2720.7601236496
 20
1496.9136358602
 11
2718.2973442818
 21
1557.3737651804
  0
LINE
  5
53D
100
AcDbEntity
  8
0
100
AcDbLine
 62
7
  6
CONTINUOUS
 10
2718.8463823874
 20
1560.0565510319
 11
2721.0745425452
 21
1505.356218129
  0
LINE
  5
53E
100
AcDbEntity
  8
0
100
AcDbLine
 62
9
  6
CONTINUOUS
 10
2711.4878301136
 20
1428.0078496413
 11
2711.4878301136
 21
1425.5586806903
  0
LINE
  5
53F
100
AcDbEntity
  8
0
100
AcDbLine
 62
7
  6
CONTINUOUS
 10
2719.4878301136
 20
1334.7103584266
 11
2719.4878301136
 21
1423.3878379438
  0
LINE
  5
540
100
AcDbEntity
  8
0
100
AcDbLine
 62
7
  6
CONTINUOUS
 10
2720.588335177
 20
1434.3603657253
 11
2720.588335177
 21
1487.024037249
  0
LINE
  5
541
100
AcDbEntity
  8
0
100
AcDbLine
 62
7
  6
CONTINUOUS
 10
2724.4878301136
 20
1494.7608799266
 11
2724.4878301136
 21
1370.5608886971
  0
LINE
  5
542
100
AcDbEntity
  8
0
100
AcDbLine
 62
7
  6
CONTINUOUS
 10
2721.0152137102
 20
1505.1258244145
 11
2720.7601236496
 21
1496.9136358602
  0
LINE
  5
543
100
AcDbEntity
  8
0
100
AcDbLine
 62
9
  6
CONTINUOUS
 10
2718.2973442818
 20
1557.3737651804
 11
2718.8463823874
 21
1560.0565510319
  0
LINE
  5
544
100
AcDbEntity
  8
0
100
AcDbLine
 62
9
  6
CONTINUOUS
 10
2729.2574087867
 20
1571.2610445305
 11
2728.7449732214
 21
1568.757111069
  0
LINE
  5
545
100
AcDbEntity
  8
0
100
AcDbLine
 62
9
  6
CONTINUOUS
 10
2735.6574087867
 20
1567.5650351725
 11
2735.1449732214
 21
1565.061101711
  0
LINE
  5
546
100
AcDbEntity
  8
0
100
AcDbLine
 62
7
  6
CONTINUOUS
 10
2721.0152137102
 20
1505.1258244145
 11
2721.0745425452
 21
1505.356218129
  0
LINE
  5
547
100
AcDbEntity
  8
0
100
AcDbLine
 62
7
  6
CONTINUOUS
 10
2568.2061051877
 20
1585.0138045841
 11
2582.3509401953
 21
1585.2046451221
  0
LINE
  5
548
100
AcDbEntity
  8
0
100
AcDbLine
 62
7
  6
CONTINUOUS
 10
2551.0670764071
 20
1590.5511151913
 11
2558.5783987237
 21
1590.5738191445
  0
LINE
  5
549
100
AcDbEntity
  8
0
100
AcDbLine
 62
7
  6
CONTINUOUS
 10
2582.2916113603
 20
1585.5035638146
 11
2710.8463823874
 21
1564.6765627294
  0
LINE
  5
54A
100
AcDbEntity
  8
0
100
AcDbLine
 62
7
  6
CONTINUOUS
 10
2728.7449732214
 20
1568.757111069
 11
2565.4916113602
 21
1595.2055883793
  0
LINE
  5
54B
100
AcDbEntity
  8
0
100
AcDbLine
 62
7
  6
CONTINUOUS
 10
2729.2574087867
 20
1571.2610445305
 11
2567.232778601
 21
1597.5104565261
  0
LINE
  5
54C
100
AcDbEntity
  8
0
100
AcDbLine
 62
7
  6
CONTINUOUS
 10
2737.9745425452
 20
1495.5964434181
 11
2735.1449732214
 21
1565.061101711
  0
LINE
  5
54D
100
AcDbEntity
  8
0
100
AcDbLine
 62
7
  6
CONTINUOUS
 10
2738.4656812661
 20
1498.623204863
 11
2735.6574087867
 21
1567.5650351725
  0
LINE
  5
54E
100
AcDbEntity
  8
0
100
AcDbLine
 62
7
  6
CONTINUOUS
 10
2730.4878301136
 20
1325.7835068616
 11
2730.4878301136
 21
1491.2958711535
  0
LINE
  5
54F
100
AcDbEntity
  8
0
100
AcDbLine
 62
7
  6
CONTINUOUS
 10
2738.4656812661
 20
1498.623204863
 11
2738.4276492755
 21
1497.3560084363
  0
LINE
  5
550
100
AcDbEntity
  8
0
100
AcDbLine
 62
7
  6
CONTINUOUS
 10
2738.4276492755
 20
1497.3560084363
 11
2737.9745425452
 21
1495.5964434181
  0
LINE
  5
551
100
AcDbEntity
  8
0
100
AcDbLine
 62
7
  6
CONTINUOUS
 10
2757.7935756079
 20
1474.3234829511
 11
2768.0521424579
 21
1480.247820307
  0
LINE
  5
552
100
AcDbEntity
  8
0
100
AcDbLine
 62
7
  6
CONTINUOUS
 10
2773.3402254477
 20
1478.4831046051
 11
2761.9655056169
 21
1471.9141872708
  0
LINE
  5
553
100
AcDbEntity
  8
0
100
AcDbLine
 62
7
  6
CONTINUOUS
 10
2567.232778601
 20
1597.5104565261
 11
2565.03850463
 21
1597.488492996
  0
LINE
  5
554
100
AcDbEntity
  8
0
100
AcDbLine
 62
7
  6
CONTINUOUS
 10
2937.8099578556
 20
1522.5841675678
 11
2570.1144316386
 21
1734.9288715968
  0
LINE
  5
555
100
AcDbEntity
  8
0
100
AcDbLine
 62
7
  6
CONTINUOUS
 10
2761.9655056169
 20
1308.6362572037
 11
2911.7246151636
 21
1395.1223619424
  0
LINE
  5
556
100
AcDbEntity
  8
0
100
AcDbLine
 62
7
  6
CONTINUOUS
 10
2570.1144316386
 20
1734.9288715968
 11
2405.6446992307
 21
1690.8278086341
  0
LINE
  5
557
100
AcDbEntity
  8
0
100
AcDbLine
 62
7
  6
CONTINUOUS
 10
2911.7246151636
 20
1395.1223619424
 11
2937.8099578556
 21
1522.5841675678
  0
LINE
  5
558
100
AcDbEntity
  8
0
100
AcDbLine
 62
7
  6
CONTINUOUS
 10
160.1576185035
 20
747.2516032081
 11
123.2673730894
 21
884.9278733973
  0
LINE
  5
559
100
AcDbEntity
  8
0
100
AcDbLine
 62
7
  6
CONTINUOUS
 10
371.9489823135
 20
747.2516032081
 11
160.1576185035
 21
747.2516032081
  0
LINE
  5
55A
100
AcDbEntity
  8
3_ALL_AXES
100
AcDbLine
 62
7
  6
CENTER
 10
262.2938852604
 20
838.3613672884
 11
262.2938852604
 21
830.7963804381
  0
LINE
  5
55B
100
AcDbEntity
  8
3_AXES_OTHER
100
AcDbLine
 62
7
  6
CENTER
 10
262.2938852604
 20
829.9097900091
 11
262.2938852604
 21
845.0562606326
  0
LINE
  5
55C
100
AcDbEntity
  8
3_ALL_AXES
100
AcDbLine
 62
7
  6
CENTER
 10
262.2938852604
 20
838.3613672884
 11
262.2938852604
 21
845.9263541387
  0
LINE
  5
55D
100
AcDbEntity
  8
3_ALL_AXES
100
AcDbLine
 62
7
  6
CENTER
 10
262.2938852604
 20
838.3613672884
 11
254.7288984101
 21
838.3613672884
  0
LINE
  5
55E
100
AcDbEntity
  8
3_ALL_AXES
100
AcDbLine
 62
7
  6
CENTER
 10
262.2938852604
 20
838.3613672884
 11
269.8588721107
 21
838.3613672884
  0
LINE
  5
55F
100
AcDbEntity
  8
0
100
AcDbLine
 62
7
  6
CONTINUOUS
 10
123.2673730894
 20
884.9278733973
 11
355.8626992604
 21
947.2516032081
  0
LINE
  5
560
100
AcDbEntity
  8
0
100
AcDbLine
 62
7
  6
CONTINUOUS
 10
355.8626992604
 20
947.2516032081
 11
371.9489823135
 21
947.2516032081
  0
LINE
  5
561
100
AcDbEntity
  8
0
100
AcDbLine
 62
7
  6
CONTINUOUS
 10
613.7203125
 20
550.2843804768
 11
613.7203125
 21
275.1890543058
  0
LINE
  5
562
100
AcDbEntity
  8
0
100
AcDbLine
 62
7
  6
CONTINUOUS
 10
619.6203125
 20
550.2843804768
 11
619.6203125
 21
508.5843804768
  0
LINE
  5
563
100
AcDbEntity
  8
0
100
AcDbLine
 62
7
  6
CONTINUOUS
 10
631.6613125
 20
532.5843804768
 11
631.6613125
 21
547.4843804768
  0
LINE
  5
564
100
AcDbEntity
  8
0
100
AcDbLine
 62
7
  6
CONTINUOUS
 10
1133.7203125
 20
275.1890543058
 11
613.7203125
 21
275.1890543058
  0
LINE
  5
565
100
AcDbEntity
  8
0
100
AcDbLine
 62
7
  6
CONTINUOUS
 10
962.6203125
 20
278.4558465311
 11
1095.6203125
 21
278.4558465311
  0
LINE
  5
566
100
AcDbEntity
  8
0
100
AcDbLine
 62
7
  6
CONTINUOUS
 10
962.6203125
 20
280.9672536795
 11
1095.6203125
 21
280.9672536795
  0
LINE
  5
567
100
AcDbEntity
  8
0
100
AcDbLine
 62
7
  6
CONTINUOUS
 10
974.4985061355
 20
287.5711453056
 11
1020.7421197868
 21
287.5711453055
  0
LINE
  5
568
100
AcDbEntity
  8
0
100
AcDbLine
 62
7
  6
CONTINUOUS
 10
1037.4985052134
 20
287.5711453055
 11
1083.7421188645
 21
287.5711453056
  0
LINE
  5
569
100
AcDbEntity
  8
0
100
AcDbLine
 62
7
  6
CONTINUOUS
 10
1083.7421183877
 20
305.6804665325
 11
1037.4985069272
 21
305.6804665887
  0
LINE
  5
56A
100
AcDbEntity
  8
0
100
AcDbLine
 62
7
  6
CONTINUOUS
 10
1020.7421197865
 20
305.6804665109
 11
974.4985061355
 21
305.6804665107
  0
LINE
  5
56B
100
AcDbEntity
  8
0
100
AcDbLine
 62
7
  6
CONTINUOUS
 10
1095.6203125
 20
309.7729509885
 11
962.6203125
 21
309.7729509885
  0
LINE
  5
56C
100
AcDbEntity
  8
0
100
AcDbLine
 62
7
  6
CONTINUOUS
 10
1133.7203125
 20
312.0792997199
 11
613.7203125
 21
312.0792997199
  0
LINE
  5
56D
100
AcDbEntity
  8
0
100
AcDbLine
 62
7
  6
CONTINUOUS
 10
826.7703125
 20
287.5403950142
 11
826.5156540414
 21
288.0246265296
  0
LINE
  5
56E
100
AcDbEntity
  8
0
100
AcDbLine
 62
7
  6
CONTINUOUS
 10
826.7703125
 20
300.6884025054
 11
826.5156540414
 21
301.1726340208
  0
LINE
  5
56F
100
AcDbEntity
  8
3_AXES_OTHER
100
AcDbLine
 62
7
  6
CENTER
 10
927.6703125
 20
355.1143804768
 11
903.8903125
 21
355.1143804768
  0
LINE
  5
570
100
AcDbEntity
  8
3_AXES_OTHER
100
AcDbLine
 62
7
  6
CENTER
 10
819.7703125
 20
355.1143804768
 11
795.9903125
 21
355.1143804768
  0
LINE
  5
571
100
AcDbEntity
  8
3_AXES_OTHER
100
AcDbLine
 62
7
  6
CENTER
 10
819.7703125
 20
355.1143804768
 11
903.8903125
 21
355.1143804768
  0
LINE
  5
572
100
AcDbEntity
  8
3_AXES_OTHER
100
AcDbLine
 62
7
  6
CENTER
 10
927.6703125
 20
355.1143804768
 11
951.4503125
 21
355.1143804768
  0
LINE
  5
573
100
AcDbEntity
  8
3_AXES_OTHER
100
AcDbLine
 62
7
  6
CENTER
 10
819.7703125
 20
405.9143804768
 11
819.7703125
 21
382.1343804768
  0
LINE
  5
574
100
AcDbEntity
  8
3_AXES_OTHER
100
AcDbLine
 62
7
  6
CENTER
 10
819.7703125
 20
355.1143804768
 11
819.7703125
 21
331.3343804768
  0
LINE
  5
575
100
AcDbEntity
  8
3_AXES_OTHER
100
AcDbLine
 62
7
  6
CENTER
 10
819.7703125
 20
355.1143804768
 11
819.7703125
 21
382.1343804768
  0
LINE
  5
576
100
AcDbEntity
  8
3_AXES_OTHER
100
AcDbLine
 62
7
  6
CENTER
 10
819.7703125
 20
405.9143804768
 11
819.7703125
 21
429.6943804768
  0
LWPOLYLINE
  5
577
100
AcDbEntity
  8
0
100
AcDbPolyline
 62
2
  6
CONTINUOUS
 90
5
 70
0
 10
1193.0497947787
 20
388.42273694
 10
1221.425088459
 20
388.42273694
 10
1221.425088459
 20
420.42673694
 10
1193.0497947787
 20
420.42673694
 10
1193.0497947787
 20
388.42273694
  0
LINE
  5
578
100
AcDbEntity
  8
0
100
AcDbLine
 62
7
  6
CONTINUOUS
 10
813.0249709586
 20
301.1726340208
 11
812.7703125
 21
300.6884025054
  0
LINE
  5
579
100
AcDbEntity
  8
3_AXES_OTHER
100
AcDbLine
 62
7
  6
CENTER
 10
927.6703125
 20
405.9143804768
 11
903.8903125
 21
405.9143804768
  0
LINE
  5
57A
100
AcDbEntity
  8
3_AXES_OTHER
100
AcDbLine
 62
7
  6
CENTER
 10
819.7703125
 20
405.9143804768
 11
795.9903125
 21
405.9143804768
  0
LINE
  5
57B
100
AcDbEntity
  8
3_AXES_OTHER
100
AcDbLine
 62
7
  6
CENTER
 10
819.7703125
 20
405.9143804768
 11
903.8903125
 21
405.9143804768
  0
LINE
  5
57C
100
AcDbEntity
  8
3_AXES_OTHER
100
AcDbLine
 62
7
  6
CENTER
 10
927.6703125
 20
405.9143804768
 11
951.4503125
 21
405.9143804768
  0
LINE
  5
57D
100
AcDbEntity
  8
0
100
AcDbLine
 62
7
  6
CONTINUOUS
 10
934.6703125
 20
287.5403950142
 11
934.4156540414
 21
288.0246265296
  0
LINE
  5
57E
100
AcDbEntity
  8
0
100
AcDbLine
 62
7
  6
CONTINUOUS
 10
934.6703125
 20
300.6884025054
 11
934.4156540414
 21
301.1726340208
  0
LINE
  5
57F
100
AcDbEntity
  8
0
100
AcDbLine
 62
7
  6
CONTINUOUS
 10
813.0249709586
 20
288.0246265296
 11
812.7703125
 21
287.5403950142
  0
LINE
  5
580
100
AcDbEntity
  8
3_AXES_OTHER
100
AcDbLine
 62
7
  6
CENTER
 10
927.6703125
 20
405.9143804768
 11
927.6703125
 21
382.1343804768
  0
LINE
  5
581
100
AcDbEntity
  8
3_AXES_OTHER
100
AcDbLine
 62
7
  6
CENTER
 10
927.6703125
 20
355.1143804768
 11
927.6703125
 21
331.3343804768
  0
LINE
  5
582
100
AcDbEntity
  8
3_AXES_OTHER
100
AcDbLine
 62
7
  6
CENTER
 10
927.6703125
 20
355.1143804768
 11
927.6703125
 21
382.1343804768
  0
LINE
  5
583
100
AcDbEntity
  8
3_AXES_OTHER
100
AcDbLine
 62
7
  6
CENTER
 10
927.6703125
 20
405.9143804768
 11
927.6703125
 21
429.6943804768
  0
LINE
  5
584
100
AcDbEntity
  8
0
100
AcDbLine
 62
7
  6
CONTINUOUS
 10
844.5203125
 20
508.5843804768
 11
958.7948291004
 21
394.3098638764
  0
LINE
  5
585
100
AcDbEntity
  8
0
100
AcDbLine
 62
7
  6
CONTINUOUS
 10
836.4418627578
 20
524.8652688808
 11
828.7227511618
 21
532.5843804768
  0
LINE
  5
586
100
AcDbEntity
  8
0
100
AcDbLine
 62
7
  6
CONTINUOUS
 10
851.9982119439
 20
524.8652688808
 11
957.6634582505
 21
419.2000225742
  0
LINE
  5
587
100
AcDbEntity
  8
0
100
AcDbLine
 62
7
  6
CONTINUOUS
 10
951.6203125
 20
306.9259414924
 11
951.6203125
 21
281.3028560272
  0
LINE
  5
588
100
AcDbEntity
  8
0
100
AcDbLine
 62
7
  6
CONTINUOUS
 10
968.9771667495
 20
419.2000225742
 11
1074.6424130561
 21
524.8652688808
  0
LINE
  5
589
100
AcDbEntity
  8
0
100
AcDbLine
 62
7
  6
CONTINUOUS
 10
1112.8178738382
 20
547.4843804768
 11
1090.1987622422
 21
524.8652688808
  0
LINE
  5
58A
100
AcDbEntity
  8
0
100
AcDbLine
 62
7
  6
CONTINUOUS
 10
1018.3163470766
 20
468.5392029012
 11
968.9064560714
 21
420.8129131052
  0
LINE
  5
58B
100
AcDbEntity
  8
0
100
AcDbLine
 62
7
  6
CONTINUOUS
 10
957.5927475724
 20
420.8129131052
 11
912.3332537983
 21
464.5302270263
  0
LINE
  5
58C
100
AcDbEntity
  8
0
100
AcDbLine
 62
9
  6
CONTINUOUS
 10
962.6203125
 20
278.4558465311
 11
962.6203125
 21
280.9672536795
  0
LINE
  5
58D
100
AcDbEntity
  8
0
100
AcDbLine
 62
7
  6
CONTINUOUS
 10
965.635790404
 20
303.386627158
 11
965.635790404
 21
289.8649846583
  0
LINE
  5
58E
100
AcDbEntity
  8
0
100
AcDbLine
 62
9
  6
CONTINUOUS
 10
967.2788418467
 20
289.3560061106
 11
967.2788418467
 21
303.8956061947
  0
LINE
  5
58F
100
AcDbEntity
  8
0
100
AcDbLine
 62
9
  6
CONTINUOUS
 10
972.5319629861
 20
287.9963983234
 11
972.5319629861
 21
305.255212731
  0
LINE
  5
590
100
AcDbEntity
  8
0
100
AcDbLine
 62
9
  6
CONTINUOUS
 10
974.4985065939
 20
287.5711453056
 11
974.4985065939
 21
305.6804665107
  0
LINE
  5
591
100
AcDbEntity
  8
0
100
AcDbLine
 62
7
  6
CONTINUOUS
 10
920.9249709586
 20
301.1726340208
 11
920.6703125
 21
300.6884025054
  0
LINE
  5
592
100
AcDbEntity
  8
0
100
AcDbLine
 62
7
  6
CONTINUOUS
 10
967.8457958996
 20
394.3098638764
 11
1082.1203125
 21
508.5843804768
  0
LINE
  5
593
100
AcDbEntity
  8
0
100
AcDbLine
 62
7
  6
CONTINUOUS
 10
619.6203125
 20
508.5843804768
 11
868.2791003479
 21
508.5843804768
  0
LINE
  5
594
100
AcDbEntity
  8
0
100
AcDbLine
 62
7
  6
CONTINUOUS
 10
1058.3615246521
 20
508.5843804768
 11
1127.8203125
 21
508.5843804768
  0
LINE
  5
595
100
AcDbEntity
  8
0
100
AcDbLine
 62
7
  6
CONTINUOUS
 10
920.9249709586
 20
288.0246265296
 11
920.6703125
 21
287.5403950142
  0
LINE
  5
596
100
AcDbEntity
  8
0
100
AcDbLine
 62
9
  6
CONTINUOUS
 10
1133.7203125
 20
523.8706635298
 11
1127.8203125
 21
523.8706635298
  0
LINE
  5
597
100
AcDbEntity
  8
0
100
AcDbLine
 62
9
  6
CONTINUOUS
 10
619.6203125
 20
523.8706635298
 11
613.7203125
 21
523.8706635298
  0
LINE
  5
598
100
AcDbEntity
  8
0
100
AcDbLine
 62
7
  6
CONTINUOUS
 10
619.6203125
 20
524.8652688808
 11
851.9982119439
 21
524.8652688808
  0
LINE
  5
599
100
AcDbEntity
  8
0
100
AcDbLine
 62
7
  6
CONTINUOUS
 10
1074.6424130561
 20
524.8652688808
 11
1127.8203125
 21
524.8652688808
  0
LINE
  5
59A
100
AcDbEntity
  8
0
100
AcDbLine
 62
9
  6
CONTINUOUS
 10
1133.7203125
 20
526.6828008181
 11
1127.8203125
 21
526.6828008181
  0
LINE
  5
59B
100
AcDbEntity
  8
0
100
AcDbLine
 62
9
  6
CONTINUOUS
 10
619.6203125
 20
526.6828008181
 11
613.7203125
 21
526.6828008181
  0
LINE
  5
59C
100
AcDbEntity
  8
0
100
AcDbLine
 62
7
  6
CONTINUOUS
 10
631.6613125
 20
532.5843804768
 11
828.7227511618
 21
532.5843804768
  0
LINE
  5
59D
100
AcDbEntity
  8
0
100
AcDbLine
 62
7
  6
CONTINUOUS
 10
619.6203125
 20
541.2956706924
 11
631.6613125
 21
541.2956706924
  0
LINE
  5
59E
100
AcDbEntity
  8
0
100
AcDbLine
 62
7
  6
CONTINUOUS
 10
1106.6291640538
 20
541.2956706924
 11
1127.8203125
 21
541.2956706924
  0
LINE
  5
59F
100
AcDbEntity
  8
0
100
AcDbLine
 62
9
  6
CONTINUOUS
 10
1133.7203125
 20
543.3138963852
 11
1127.8203125
 21
543.3138963852
  0
LINE
  5
5A0
100
AcDbEntity
  8
0
100
AcDbLine
 62
9
  6
CONTINUOUS
 10
619.6203125
 20
543.3138963852
 11
613.7203125
 21
543.3138963852
  0
LINE
  5
5A1
100
AcDbEntity
  8
0
100
AcDbLine
 62
9
  6
CONTINUOUS
 10
1133.7203125
 20
544.1696303502
 11
1127.8203125
 21
544.1696303502
  0
LINE
  5
5A2
100
AcDbEntity
  8
0
100
AcDbLine
 62
9
  6
CONTINUOUS
 10
619.6203125
 20
544.1696303502
 11
613.7203125
 21
544.1696303502
  0
LINE
  5
5A3
100
AcDbEntity
  8
0
100
AcDbLine
 62
7
  6
CONTINUOUS
 10
619.6203125
 20
547.4843804768
 11
631.6613125
 21
547.4843804768
  0
LINE
  5
5A4
100
AcDbEntity
  8
0
100
AcDbLine
 62
7
  6
CONTINUOUS
 10
1112.8178738382
 20
547.4843804768
 11
1127.8203125
 21
547.4843804768
  0
LINE
  5
5A5
100
AcDbEntity
  8
0
100
AcDbLine
 62
7
  6
CONTINUOUS
 10
613.7203125
 20
550.2843804768
 11
619.6203125
 21
550.2843804768
  0
LINE
  5
5A6
100
AcDbEntity
  8
0
100
AcDbLine
 62
7
  6
CONTINUOUS
 10
1127.8203125
 20
550.2843804768
 11
1133.7203125
 21
550.2843804768
  0
LINE
  5
5A7
100
AcDbEntity
  8
0
100
AcDbLine
 62
9
  6
CONTINUOUS
 10
1020.7421180938
 20
287.5711453055
 11
1020.7421180938
 21
305.6804665109
  0
LINE
  5
5A8
100
AcDbEntity
  8
0
100
AcDbLine
 62
9
  6
CONTINUOUS
 10
1022.7086620165
 20
287.996398312
 11
1022.7086620165
 21
305.255211743
  0
LINE
  5
5A9
100
AcDbEntity
  8
0
100
AcDbLine
 62
9
  6
CONTINUOUS
 10
1035.5319629835
 20
287.996398312
 11
1035.5319629835
 21
305.2552117505
  0
LINE
  5
5AA
100
AcDbEntity
  8
0
100
AcDbLine
 62
9
  6
CONTINUOUS
 10
1037.4985069062
 20
287.5711453055
 11
1037.4985069062
 21
305.6804665887
  0
LINE
  5
5AB
100
AcDbEntity
  8
0
100
AcDbLine
 62
9
  6
CONTINUOUS
 10
1083.7421184061
 20
287.5711453056
 11
1083.7421184061
 21
305.6804665325
  0
LINE
  5
5AC
100
AcDbEntity
  8
0
100
AcDbLine
 62
9
  6
CONTINUOUS
 10
1085.7086620139
 20
287.9963983234
 11
1085.7086620139
 21
305.2552127325
  0
LINE
  5
5AD
100
AcDbEntity
  8
0
100
AcDbLine
 62
9
  6
CONTINUOUS
 10
1090.9617831533
 20
289.3560061106
 11
1090.9617831533
 21
303.8956061929
  0
LINE
  5
5AE
100
AcDbEntity
  8
0
100
AcDbLine
 62
7
  6
CONTINUOUS
 10
1092.604834596
 20
289.8649846583
 11
1092.604834596
 21
303.3866271581
  0
LINE
  5
5AF
100
AcDbEntity
  8
0
100
AcDbLine
 62
9
  6
CONTINUOUS
 10
1095.6203125
 20
278.4558465311
 11
1095.6203125
 21
280.9672536795
  0
LINE
  5
5B0
100
AcDbEntity
  8
0
100
AcDbLine
 62
7
  6
CONTINUOUS
 10
1106.6203125
 20
281.3028560272
 11
1106.6203125
 21
306.9259414924
  0
LINE
  5
5B1
100
AcDbEntity
  8
0
100
AcDbLine
 62
7
  6
CONTINUOUS
 10
1127.8203125
 20
550.2843804768
 11
1127.8203125
 21
508.5843804768
  0
LINE
  5
5B2
100
AcDbEntity
  8
0
100
AcDbLine
 62
7
  6
CONTINUOUS
 10
1133.7203125
 20
550.2843804768
 11
1133.7203125
 21
275.1890543058
  0
LINE
  5
5B3
100
AcDbEntity
  8
0
100
AcDbLine
 62
7
  6
CONTINUOUS
 10
2151.2963161299
 20
552.9158575287
 11
2202.4303346546
 21
743.7506126581
  0
LINE
  5
5B4
100
AcDbEntity
  8
0
100
AcDbLine
 62
7
  6
CONTINUOUS
 10
2156.995278505
 20
551.3888251626
 11
2158.0757071912
 21
555.4210399135
  0
LINE
  5
5B5
100
AcDbEntity
  8
0
100
AcDbLine
 62
7
  6
CONTINUOUS
 10
2222.4931228256
 20
713.919597884
 11
2196.8700373605
 21
618.2929410813
  0
LINE
  5
5B6
100
AcDbEntity
  8
0
100
AcDbLine
 62
7
  6
CONTINUOUS
 10
2229.9803134181
 20
687.7105252801
 11
2216.4586709184
 21
637.2470684694
  0
LINE
  5
5B7
100
AcDbEntity
  8
0
100
AcDbLine
 62
7
  6
CONTINUOUS
 10
2231.7981963694
 20
684.5091302517
 11
2219.6337012495
 21
639.1106164162
  0
LINE
  5
5B8
100
AcDbEntity
  8
0
100
AcDbLine
 62
7
  6
CONTINUOUS
 10
2235.0885144702
 20
634.9695116945
 11
2247.25300959
 21
680.3680255301
  0
LINE
  5
5B9
100
AcDbEntity
  8
0
100
AcDbLine
 62
7
  6
CONTINUOUS
 10
2339.1013498428
 20
604.3850616943
 11
2352.6229923425
 21
654.848518505
  0
LINE
  5
5BA
100
AcDbEntity
  8
0
100
AcDbLine
 62
7
  6
CONTINUOUS
 10
2653.577745798
 20
418.3299540669
 11
2647.8787834229
 21
419.856986433
  0
LINE
  5
5BB
100
AcDbEntity
  8
0
100
AcDbLine
 62
7
  6
CONTINUOUS
 10
2156.9952785028
 20
551.3888251541
 11
2151.2963161276
 21
552.9158575202
  0
LINE
  5
5BC
100
AcDbEntity
  8
0
100
AcDbLine
 62
9
  6
CONTINUOUS
 10
2151.3527580163
 20
553.1265015164
 11
2157.0517203914
 21
551.5994691503
  0
LINE
  5
5BD
100
AcDbEntity
  8
0
100
AcDbLine
 62
9
  6
CONTINUOUS
 10
2647.9352253115
 20
420.0676304292
 11
2653.6341876866
 21
418.540598063
  0
LINE
  5
5BE
100
AcDbEntity
  8
0
100
AcDbLine
 62
7
  6
CONTINUOUS
 10
2157.7064062941
 20
554.0427902021
 11
2209.0723127547
 21
540.2793370475
  0
LINE
  5
5BF
100
AcDbEntity
  8
0
100
AcDbLine
 62
7
  6
CONTINUOUS
 10
2424.1300966826
 20
482.654777518
 11
2648.5899112142
 21
422.510951481
  0
LINE
  5
5C0
100
AcDbEntity
  8
0
100
AcDbLine
 62
7
  6
CONTINUOUS
 10
2648.9592121113
 20
423.8892011924
 11
2431.7224937789
 21
482.097604436
  0
LINE
  5
5C1
100
AcDbEntity
  8
0
100
AcDbLine
 62
7
  6
CONTINUOUS
 10
2202.2185174527
 20
543.5930095523
 11
2158.0757071912
 21
555.4210399135
  0
LINE
  5
5C2
100
AcDbEntity
  8
0
100
AcDbLine
 62
7
  6
CONTINUOUS
 10
2213.0121933808
 20
543.500852804
 11
2225.8677442362
 21
540.056218334
  0
LINE
  5
5C3
100
AcDbEntity
  8
0
100
AcDbLine
 62
7
  6
CONTINUOUS
 10
2409.4732669954
 20
490.8592667848
 11
2422.3288178508
 21
487.4146323149
  0
LINE
  5
5C4
100
AcDbEntity
  8
0
100
AcDbLine
 62
7
  6
CONTINUOUS
 10
2409.4732669954
 20
490.8592667848
 11
2424.1300966826
 21
482.654777518
  0
LINE
  5
5C5
100
AcDbEntity
  8
0
100
AcDbLine
 62
7
  6
CONTINUOUS
 10
2409.4732669954
 20
490.8592667848
 11
2329.1222238599
 21
536.33973042
  0
LINE
  5
5C6
100
AcDbEntity
  8
0
100
AcDbLine
 62
7
  6
CONTINUOUS
 10
2431.7224937789
 20
482.097604436
 11
2328.9967280175
 21
540.2426548521
  0
LINE
  5
5C7
100
AcDbEntity
  8
0
100
AcDbLine
 62
7
  6
CONTINUOUS
 10
2346.5885404353
 20
578.1759890905
 11
2372.2116259004
 21
673.8026458931
  0
LINE
  5
5C8
100
AcDbEntity
  8
0
100
AcDbLine
 62
7
  6
CONTINUOUS
 10
2365.0448280037
 20
527.4741747205
 11
2364.9241751601
 21
528.0078169062
  0
LINE
  5
5C9
100
AcDbEntity
  8
0
100
AcDbLine
 62
7
  6
CONTINUOUS
 10
2368.4477827476
 20
540.1741747205
 11
2368.327129904
 21
540.7078169062
  0
LINE
  5
5CA
100
AcDbEntity
  8
3_AXES_OTHER
100
AcDbLine
 62
7
  6
CENTER
 10
2389.1080104531
 20
644.3251173493
 11
2379.0706910962
 21
606.8653315376
  0
LINE
  5
5CB
100
AcDbEntity
  8
3_AXES_OTHER
100
AcDbLine
 62
7
  6
CENTER
 10
2375.9600029619
 20
595.2560853738
 11
2369.8052860693
 21
572.2863692247
  0
LINE
  5
5CC
100
AcDbEntity
  8
3_AXES_OTHER
100
AcDbLine
 62
7
  6
CENTER
 10
2375.9600029619
 20
595.2560853738
 11
2379.0706910962
 21
606.8653315376
  0
LINE
  5
5CD
100
AcDbEntity
  8
3_AXES_OTHER
100
AcDbLine
 62
7
  6
CENTER
 10
2389.1080104531
 20
644.3251173493
 11
2395.2627273456
 21
667.2948334985
  0
LINE
  5
5CE
100
AcDbEntity
  8
0
100
AcDbLine
 62
7
  6
CONTINUOUS
 10
2225.8677442362
 20
540.056218334
 11
2318.1940206297
 21
539.2679336502
  0
LINE
  5
5CF
100
AcDbEntity
  8
0
100
AcDbLine
 62
7
  6
CONTINUOUS
 10
2225.8677442362
 20
540.056218334
 11
2209.0723127547
 21
540.2793370475
  0
LINE
  5
5D0
100
AcDbEntity
  8
0
100
AcDbLine
 62
7
  6
CONTINUOUS
 10
2165.5400892405
 20
606.0743424688
 11
2667.8215189108
 21
471.4884390155
  0
LINE
  5
5D1
100
AcDbEntity
  8
0
100
AcDbLine
 62
7
  6
CONTINUOUS
 10
2355.2961307
 20
544.1994626195
 11
2354.9248211796
 21
543.797641352
  0
LINE
  5
5D2
100
AcDbEntity
  8
0
100
AcDbLine
 62
7
  6
CONTINUOUS
 10
2351.8931759562
 20
531.4994626195
 11
2351.5218664357
 21
531.097641352
  0
LINE
  5
5D3
100
AcDbEntity
  8
0
100
AcDbLine
 62
7
  6
CONTINUOUS
 10
2320.2541654333
 20
542.5852174364
 11
2202.2185174527
 21
543.5930095523
  0
LINE
  5
5D4
100
AcDbEntity
  8
0
100
AcDbLine
 62
7
  6
CONTINUOUS
 10
2204.6482119535
 20
604.820747496
 11
2333.11634685
 21
570.3978144974
  0
LINE
  5
5D5
100
AcDbEntity
  8
0
100
AcDbLine
 62
7
  6
CONTINUOUS
 10
2222.7255580206
 20
626.3925036336
 11
2267.393456575
 21
614.4237760634
  0
LINE
  5
5D6
100
AcDbEntity
  8
0
100
AcDbLine
 62
7
  6
CONTINUOUS
 10
2283.5788837473
 20
610.0869042348
 11
2328.2467844739
 21
598.118176308
  0
LINE
  5
5D7
100
AcDbEntity
  8
3_AXES_OTHER
100
AcDbLine
 62
7
  6
CENTER
 10
2480.1833996185
 20
567.3295104073
 11
2457.2136834693
 21
573.4842272998
  0
LINE
  5
5D8
100
AcDbEntity
  8
3_AXES_OTHER
100
AcDbLine
 62
7
  6
CENTER
 10
2375.9600029619
 20
595.2560853738
 11
2352.9902868127
 21
601.4108022664
  0
LINE
  5
5D9
100
AcDbEntity
  8
3_AXES_OTHER
100
AcDbLine
 62
7
  6
CENTER
 10
2375.9600029619
 20
595.2560853738
 11
2457.2136834693
 21
573.4842272998
  0
LINE
  5
5DA
100
AcDbEntity
  8
3_AXES_OTHER
100
AcDbLine
 62
7
  6
CENTER
 10
2480.1833996185
 20
567.3295104073
 11
2503.1531157676
 21
561.1747935147
  0
LINE
  5
5DB
100
AcDbEntity
  8
0
100
AcDbLine
 62
7
  6
CONTINUOUS
 10
2219.6337012495
 20
639.1106164162
 11
2235.0885144702
 21
634.9695116945
  0
LINE
  5
5DC
100
AcDbEntity
  8
0
100
AcDbLine
 62
7
  6
CONTINUOUS
 10
2469.2682246603
 20
499.547599754
 11
2469.1475718167
 21
500.0812419397
  0
LINE
  5
5DD
100
AcDbEntity
  8
0
100
AcDbLine
 62
7
  6
CONTINUOUS
 10
2472.6711794042
 20
512.247599754
 11
2472.5505265606
 21
512.7812419397
  0
LINE
  5
5DE
100
AcDbEntity
  8
3_AXES_OTHER
100
AcDbLine
 62
7
  6
CENTER
 10
2493.3314071097
 20
616.3985423827
 11
2482.7672184579
 21
576.9724535938
  0
LINE
  5
5DF
100
AcDbEntity
  8
3_AXES_OTHER
100
AcDbLine
 62
7
  6
CENTER
 10
2480.1833996185
 20
567.3295104073
 11
2474.0286827259
 21
544.3597942581
  0
LINE
  5
5E0
100
AcDbEntity
  8
3_AXES_OTHER
100
AcDbLine
 62
7
  6
CENTER
 10
2480.1833996185
 20
567.3295104073
 11
2482.7672184579
 21
576.9724535938
  0
LINE
  5
5E1
100
AcDbEntity
  8
3_AXES_OTHER
100
AcDbLine
 62
7
  6
CENTER
 10
2493.3314071097
 20
616.3985423827
 11
2499.4861240022
 21
639.3682585319
  0
LINE
  5
5E2
100
AcDbEntity
  8
0
100
AcDbLine
 62
7
  6
CONTINUOUS
 10
2247.25300959
 20
680.3680255301
 11
2231.7981963694
 21
684.5091302517
  0
LINE
  5
5E3
100
AcDbEntity
  8
3_AXES_OTHER
100
AcDbLine
 62
7
  6
CENTER
 10
2493.3314071097
 20
616.3985423827
 11
2470.3616909605
 21
622.5532592753
  0
LINE
  5
5E4
100
AcDbEntity
  8
3_AXES_OTHER
100
AcDbLine
 62
7
  6
CENTER
 10
2389.1080104531
 20
644.3251173493
 11
2366.1382943039
 21
650.4798342418
  0
LINE
  5
5E5
100
AcDbEntity
  8
3_AXES_OTHER
100
AcDbLine
 62
7
  6
CENTER
 10
2389.1080104531
 20
644.3251173493
 11
2470.3616909605
 21
622.5532592753
  0
LINE
  5
5E6
100
AcDbEntity
  8
3_AXES_OTHER
100
AcDbLine
 62
7
  6
CENTER
 10
2493.3314071097
 20
616.3985423827
 11
2516.3011232588
 21
610.2438254902
  0
LINE
  5
5E7
100
AcDbEntity
  8
0
100
AcDbLine
 62
7
  6
CONTINUOUS
 10
2346.356105679
 20
665.7030831363
 11
2301.6882049525
 21
677.6718110641
  0
LINE
  5
5E8
100
AcDbEntity
  8
0
100
AcDbLine
 62
7
  6
CONTINUOUS
 10
2285.5027795136
 20
682.0086827396
 11
2240.834878787
 21
693.9774106664
  0
LINE
  5
5E9
100
AcDbEntity
  8
0
100
AcDbLine
 62
7
  6
CONTINUOUS
 10
2459.5195273566
 20
516.272887653
 11
2459.1482178362
 21
515.8710663854
  0
LINE
  5
5EA
100
AcDbEntity
  8
0
100
AcDbLine
 62
7
  6
CONTINUOUS
 10
2456.1165726127
 20
503.572887653
 11
2455.7452630923
 21
503.1710663854
  0
LWPOLYLINE
  5
5EB
100
AcDbEntity
  8
0
100
AcDbPolyline
 62
2
  6
CONTINUOUS
 90
5
 70
0
 10
2604.7921445039
 20
665.1611820409
 10
2633.1674381842
 20
665.1611820409
 10
2633.1674381842
 20
697.1651820409
 10
2604.7921445039
 20
697.1651820409
 10
2604.7921445039
 20
665.1611820409
  0
LINE
  5
5EC
100
AcDbEntity
  8
0
100
AcDbLine
 62
7
  6
CONTINUOUS
 10
2364.4334513074
 20
687.2748394784
 11
2235.9653164109
 21
721.697772477
  0
LINE
  5
5ED
100
AcDbEntity
  8
0
100
AcDbLine
 62
7
  6
CONTINUOUS
 10
2202.4303346546
 20
743.7506126581
 11
2704.7117643249
 21
609.1647092048
  0
LINE
  5
5EE
100
AcDbEntity
  8
0
100
AcDbLine
 62
7
  6
CONTINUOUS
 10
2647.8787834251
 20
419.8569864415
 11
2648.9592121113
 21
423.8892011924
  0
LINE
  5
5EF
100
AcDbEntity
  8
0
100
AcDbLine
 62
7
  6
CONTINUOUS
 10
2653.5777458002
 20
418.3299540754
 11
2704.7117643249
 21
609.1647092048
  0
LINE
  5
5F0
100
AcDbEntity
  8
0
100
AcDbLine
 62
7
  6
CONTINUOUS
 10
1780.940243611
 20
1278.2510178053
 11
1518.9115824466
 21
1348.4613859581
  0
LINE
  5
5F1
100
AcDbEntity
  8
0
100
AcDbLine
 62
7
  6
CONTINUOUS
 10
1520.4386148127
 20
1354.1603483332
 11
1548.399209145
 21
1346.668329662
  0
LINE
  5
5F2
100
AcDbEntity
  8
0
100
AcDbLine
 62
7
  6
CONTINUOUS
 10
1653.4974858905
 20
1850.742815631
 11
1651.9704535244
 21
1845.0438532559
  0
LINE
  5
5F3
100
AcDbEntity
  8
0
100
AcDbLine
 62
7
  6
CONTINUOUS
 10
1520.4386148033
 20
1354.1603483357
 11
1518.9115824372
 21
1348.4613859606
  0
LINE
  5
5F4
100
AcDbEntity
  8
0
100
AcDbLine
 62
9
  6
CONTINUOUS
 10
1519.1576780915
 20
1348.3954448288
 11
1520.6847104576
 21
1354.0944072039
  0
LINE
  5
5F5
100
AcDbEntity
  8
0
100
AcDbLine
 62
9
  6
CONTINUOUS
 10
1652.2165491787
 20
1844.977912124
 11
1653.7435815448
 21
1850.6768744991
  0
LINE
  5
5F6
100
AcDbEntity
  8
0
100
AcDbLine
 62
7
  6
CONTINUOUS
 10
1654.6211405837
 20
1844.3336037989
 11
1651.5047004616
 21
1832.7028909246
  0
LINE
  5
5F7
100
AcDbEntity
  8
0
100
AcDbLine
 62
7
  6
CONTINUOUS
 10
1528.5739746681
 20
1373.9191764517
 11
1523.0893018626
 21
1353.4500988788
  0
LINE
  5
5F8
100
AcDbEntity
  8
0
100
AcDbLine
 62
7
  6
CONTINUOUS
 10
1657.0803781924
 20
1831.2088925794
 11
1606.0771248115
 21
1640.8621596103
  0
LINE
  5
5F9
100
AcDbEntity
  8
0
100
AcDbLine
 62
9
  6
CONTINUOUS
 10
1530.8751820198
 20
1345.2557491139
 11
1532.4022143859
 21
1350.954711489
  0
LINE
  5
5FA
100
AcDbEntity
  8
0
100
AcDbLine
 62
9
  6
CONTINUOUS
 10
1663.934053107
 20
1841.8382164091
 11
1665.4610854731
 21
1847.5371787842
  0
LINE
  5
5FB
100
AcDbEntity
  8
0
100
AcDbLine
 62
7
  6
CONTINUOUS
 10
1666.1956113453
 20
1841.2322337055
 11
1610.0757824549
 21
1631.7901809746
  0
LINE
  5
5FC
100
AcDbEntity
  8
0
100
AcDbLine
 62
7
  6
CONTINUOUS
 10
1544.4032286322
 20
1386.6968734454
 11
1534.6637726242
 21
1350.3487287854
  0
LINE
  5
5FD
100
AcDbEntity
  8
0
100
AcDbLine
 62
9
  6
CONTINUOUS
 10
1533.3362110252
 20
1344.5963183794
 11
1534.8632433913
 21
1350.2952807545
  0
LINE
  5
5FE
100
AcDbEntity
  8
0
100
AcDbLine
 62
9
  6
CONTINUOUS
 10
1666.3950821124
 20
1841.1787856746
 11
1667.9221144785
 21
1846.8777480497
  0
LINE
  5
5FF
100
AcDbEntity
  8
0
100
AcDbLine
 62
7
  6
CONTINUOUS
 10
1550.7264603201
 20
1390.5012381888
 11
1554.2870480065
 21
1403.7895323392
  0
LINE
  5
600
100
AcDbEntity
  8
0
100
AcDbLine
 62
7
  6
CONTINUOUS
 10
1610.125694213
 20
1612.1821970076
 11
1613.6496793589
 21
1625.3338886176
  0
LINE
  5
601
100
AcDbEntity
  8
0
100
AcDbLine
 62
7
  6
CONTINUOUS
 10
1679.9310478661
 20
1837.5518345821
 11
1622.7073579047
 21
1623.9901162497
  0
LINE
  5
602
100
AcDbEntity
  8
0
100
AcDbLine
 62
7
  6
CONTINUOUS
 10
1559.242526224
 20
1387.1361399234
 11
1548.399209145
 21
1346.668329662
  0
LINE
  5
603
100
AcDbEntity
  8
0
100
AcDbLine
 62
7
  6
CONTINUOUS
 10
1623.160464635
 20
1623.2053123716
 11
1617.0112378514
 21
1600.256085588
  0
LINE
  5
604
100
AcDbEntity
  8
0
100
AcDbLine
 62
7
  6
CONTINUOUS
 10
1566.2131594261
 20
1410.6750759776
 11
1560.0273301021
 21
1387.5892466537
  0
LINE
  5
605
100
AcDbEntity
  8
0
100
AcDbLine
 62
7
  6
CONTINUOUS
 10
1548.3449174399
 20
1340.5747476161
 11
1561.1098865558
 21
1388.2142609137
  0
LINE
  5
606
100
AcDbEntity
  8
0
100
AcDbLine
 62
7
  6
CONTINUOUS
 10
1623.785478895
 20
1622.1227559179
 11
1682.9308208932
 21
1842.8561772864
  0
LINE
  5
607
100
AcDbEntity
  8
0
100
AcDbLine
 62
7
  6
CONTINUOUS
 10
1610.125694213
 20
1612.1821970076
 11
1682.4027034439
 21
1486.9947448004
  0
LINE
  5
608
100
AcDbEntity
  8
3_AXES_OTHER
100
AcDbLine
 62
7
  6
CENTER
 10
1788.1952459403
 20
1489.6257027636
 11
1765.2255297912
 21
1495.7804196561
  0
LINE
  5
609
100
AcDbEntity
  8
3_AXES_OTHER
100
AcDbLine
 62
7
  6
CENTER
 10
1739.1262139649
 20
1502.7737102548
 11
1716.1564978157
 21
1508.9284271473
  0
LINE
  5
60A
100
AcDbEntity
  8
3_AXES_OTHER
100
AcDbLine
 62
7
  6
CENTER
 10
1739.1262139649
 20
1502.7737102548
 11
1765.2255297912
 21
1495.7804196561
  0
LINE
  5
60B
100
AcDbEntity
  8
3_AXES_OTHER
100
AcDbLine
 62
7
  6
CENTER
 10
1788.1952459403
 20
1489.6257027636
 11
1811.1649620895
 21
1483.4709858711
  0
LINE
  5
60C
100
AcDbEntity
  8
0
100
AcDbLine
 62
7
  6
CONTINUOUS
 10
1706.2019302275
 20
1479.3732748304
 11
1622.7073579047
 21
1623.9901162497
  0
LINE
  5
60D
100
AcDbEntity
  8
0
100
AcDbLine
 62
7
  6
CONTINUOUS
 10
1610.0757824549
 20
1631.7901809746
 11
1613.6496793589
 21
1625.3338886176
  0
LINE
  5
60E
100
AcDbEntity
  8
3_AXES_OTHER
100
AcDbLine
 62
7
  6
CENTER
 10
1767.0527889314
 20
1606.9971069114
 11
1743.695412303
 21
1519.8261906028
  0
LINE
  5
60F
100
AcDbEntity
  8
3_AXES_OTHER
100
AcDbLine
 62
7
  6
CENTER
 10
1739.1262139649
 20
1502.7737102548
 11
1732.9714970723
 21
1479.8039941056
  0
LINE
  5
610
100
AcDbEntity
  8
3_AXES_OTHER
100
AcDbLine
 62
7
  6
CENTER
 10
1739.1262139649
 20
1502.7737102548
 11
1743.695412303
 21
1519.8261906028
  0
LINE
  5
611
100
AcDbEntity
  8
3_AXES_OTHER
100
AcDbLine
 62
7
  6
CENTER
 10
1767.0527889314
 20
1606.9971069114
 11
1773.207505824
 21
1629.9668230605
  0
LWPOLYLINE
  5
612
100
AcDbEntity
  8
0
100
AcDbPolyline
 62
2
  6
CONTINUOUS
 90
5
 70
0
 10
1949.5934134594
 20
1612.0192871427
 10
1977.9687071397
 20
1612.0192871427
 10
1977.9687071397
 20
1644.0232871427
 10
1949.5934134594
 20
1644.0232871427
 10
1949.5934134594
 20
1612.0192871427
  0
LINE
  5
613
100
AcDbEntity
  8
0
100
AcDbLine
 62
7
  6
CONTINUOUS
 10
1544.4032286322
 20
1386.6968734454
 11
1550.7264603201
 21
1390.5012381888
  0
LINE
  5
614
100
AcDbEntity
  8
0
100
AcDbLine
 62
7
  6
CONTINUOUS
 10
1679.4745002137
 20
1476.0665415701
 11
1554.2870480065
 21
1403.7895323392
  0
LINE
  5
615
100
AcDbEntity
  8
3_AXES_OTHER
100
AcDbLine
 62
7
  6
CENTER
 10
1816.1218209069
 20
1593.8490994202
 11
1793.1521047578
 21
1600.0038163127
  0
LINE
  5
616
100
AcDbEntity
  8
3_AXES_OTHER
100
AcDbLine
 62
7
  6
CENTER
 10
1767.0527889314
 20
1606.9971069114
 11
1744.0830727823
 21
1613.1518238039
  0
LINE
  5
617
100
AcDbEntity
  8
3_AXES_OTHER
100
AcDbLine
 62
7
  6
CENTER
 10
1767.0527889314
 20
1606.9971069114
 11
1793.1521047578
 21
1600.0038163127
  0
LINE
  5
618
100
AcDbEntity
  8
3_AXES_OTHER
100
AcDbLine
 62
7
  6
CENTER
 10
1816.1218209069
 20
1593.8490994202
 11
1839.0915370561
 21
1587.6943825276
  0
LINE
  5
619
100
AcDbEntity
  8
3_AXES_OTHER
100
AcDbLine
 62
7
  6
CENTER
 10
1816.1218209069
 20
1593.8490994202
 11
1792.1338614497
 21
1504.3248159559
  0
LINE
  5
61A
100
AcDbEntity
  8
3_AXES_OTHER
100
AcDbLine
 62
7
  6
CENTER
 10
1788.1952459403
 20
1489.6257027636
 11
1782.0405290478
 21
1466.6559866144
  0
LINE
  5
61B
100
AcDbEntity
  8
3_AXES_OTHER
100
AcDbLine
 62
7
  6
CENTER
 10
1788.1952459403
 20
1489.6257027636
 11
1792.1338614497
 21
1504.3248159559
  0
LINE
  5
61C
100
AcDbEntity
  8
3_AXES_OTHER
100
AcDbLine
 62
7
  6
CENTER
 10
1816.1218209069
 20
1593.8490994202
 11
1822.2765377994
 21
1616.8188155693
  0
LINE
  5
61D
100
AcDbEntity
  8
0
100
AcDbLine
 62
7
  6
CONTINUOUS
 10
1559.242526224
 20
1387.1361399234
 11
1703.8593676433
 21
1470.6307122462
  0
LINE
  5
61E
100
AcDbEntity
  8
0
100
AcDbLine
 62
7
  6
CONTINUOUS
 10
1780.940243611
 20
1278.2510178053
 11
1915.5261470643
 21
1780.5324474757
  0
LINE
  5
61F
100
AcDbEntity
  8
0
100
AcDbLine
 62
7
  6
CONTINUOUS
 10
1651.5047004616
 20
1832.7028909246
 11
1657.0803781924
 21
1831.2088925794
  0
LINE
  5
620
100
AcDbEntity
  8
0
100
AcDbLine
 62
7
  6
CONTINUOUS
 10
1651.9704535338
 20
1845.0438532534
 11
1679.9310478661
 21
1837.5518345821
  0
LINE
  5
621
100
AcDbEntity
  8
0
100
AcDbLine
 62
7
  6
CONTINUOUS
 10
1915.5261470643
 20
1780.5324474757
 11
1653.4974858999
 21
1850.7428156285
  0
LWPOLYLINE
  5
622
100
AcDbEntity
  8
0
100
AcDbPolyline
 62
7
  6
CONTINUOUS
 90
2
 70
1
 43
1.75
 10
1263.0168601808
 20
65.8327443338
 42
1.0
 10
1280.7968601808
 20
65.8327443338
 42
1.0
  0
LWPOLYLINE
  5
623
100
AcDbEntity
  8
0
100
AcDbPolyline
 62
7
  6
CONTINUOUS
 90
2
 70
1
 43
1.75
 10
1267.4618601808
 20
65.8327443338
 42
1.0
 10
1276.3518601808
 20
65.8327443338
 42
1.0
  0
CIRCLE
  5
624
100
AcDbEntity
  8
0
100
AcDbCircle
 62
7
  6
CONTINUOUS
 10
744.0903125
 20
847.2516032081
 40
12.0
  0
ARC
  5
625
100
AcDbEntity
  8
0
100
AcDbCircle
 62
7
  6
CONTINUOUS
 10
1950.4542985313
 20
847.2516032081
 40
550.0
100
AcDbArc
 50
171.4483714314
 51
188.5516285686
  0
ARC
  5
626
100
AcDbEntity
  8
0
100
AcDbCircle
 62
7
  6
CONTINUOUS
 10
1441.6317362414
 20
910.6689500903
 40
40.0
100
AcDbArc
 50
116.0653786981
 51
148.7789452361
  0
ARC
  5
627
100
AcDbEntity
  8
0
100
AcDbCircle
 62
7
  6
CONTINUOUS
 10
1441.6317362414
 20
783.8342563259
 40
40.0
100
AcDbArc
 50
211.2210547639
 51
243.9346213019
  0
CIRCLE
  5
628
100
AcDbEntity
  8
0
100
AcDbCircle
 62
7
  6
CONTINUOUS
 10
1537.2542985313
 20
835.9516032081
 40
9.0
  0
CIRCLE
  5
629
100
AcDbEntity
  8
0
100
AcDbCircle
 62
7
  6
CONTINUOUS
 10
1537.2542985313
 20
835.9516032081
 40
8.0
  0
ARC
  5
62A
100
AcDbEntity
  8
0
100
AcDbCircle
 62
7
  6
CONTINUOUS
 10
1426.8680154783
 20
940.8516032081
 40
6.4
100
AcDbArc
 50
90.0
 51
116.0653786981
  0
ARC
  5
62B
100
AcDbEntity
  8
0
100
AcDbCircle
 62
7
  6
CONTINUOUS
 10
1426.8680154783
 20
753.6516032081
 40
6.4
100
AcDbArc
 50
243.9346213019
 51
270.0
  0
ARC
  5
62C
100
AcDbEntity
  8
0
100
AcDbCircle
 62
7
  6
CONTINUOUS
 10
1412.8978952019
 20
766.4179886684
 40
6.4
100
AcDbArc
 50
188.5516285686
 51
211.2210547639
  0
ARC
  5
62D
100
AcDbEntity
  8
0
100
AcDbCircle
 62
7
  6
CONTINUOUS
 10
1412.8978952019
 20
928.0852177478
 40
6.4
100
AcDbArc
 50
148.7789452361
 51
171.4483714314
  0
ARC
  5
62E
100
AcDbEntity
  8
0
100
AcDbCircle
 62
7
  6
CONTINUOUS
 10
2453.6081826157
 20
1632.1669175382
 40
63.3026057118
100
AcDbArc
 50
146.543290261
 51
158.6871932875
  0
ARC
  5
62F
100
AcDbEntity
  8
0
100
AcDbCircle
 62
7
  6
CONTINUOUS
 10
2760.3923375024
 20
1322.8044594165
 40
15.2416406944
100
AcDbArc
 50
216.9827678424
 51
220.6074342901
  0
ARC
  5
630
100
AcDbEntity
  8
0
100
AcDbCircle
 62
7
  6
CONTINUOUS
 10
2396.8687412944
 20
1532.7398677651
 40
15.2416406944
100
AcDbArc
 50
216.9827678424
 51
220.6074342901
  0
ARC
  5
631
100
AcDbEntity
  8
0
100
AcDbCircle
 62
7
  6
CONTINUOUS
 10
-151.6373007396
 20
847.2516032081
 40
550.0
100
AcDbArc
 50
351.4483714314
 51
8.5516285686
  0
ARC
  5
632
100
AcDbEntity
  8
0
100
AcDbCircle
 62
7
  6
CONTINUOUS
 10
357.1852615504
 20
910.6689500903
 40
40.0
100
AcDbArc
 50
31.2210547639
 51
63.9346213019
  0
ARC
  5
633
100
AcDbEntity
  8
0
100
AcDbCircle
 62
7
  6
CONTINUOUS
 10
357.1852615504
 20
783.8342563259
 40
40.0
100
AcDbArc
 50
296.0653786981
 51
328.7789452361
  0
CIRCLE
  5
634
100
AcDbEntity
  8
0
100
AcDbCircle
 62
7
  6
CONTINUOUS
 10
261.5626992604
 20
835.9516032081
 40
9.0
  0
CIRCLE
  5
635
100
AcDbEntity
  8
0
100
AcDbCircle
 62
7
  6
CONTINUOUS
 10
261.5626992604
 20
835.9516032081
 40
8.0
  0
ARC
  5
636
100
AcDbEntity
  8
0
100
AcDbCircle
 62
7
  6
CONTINUOUS
 10
385.9191025898
 20
928.0852177478
 40
6.4
100
AcDbArc
 50
8.5516285686
 51
31.2210547639
  0
ARC
  5
637
100
AcDbEntity
  8
0
100
AcDbCircle
 62
7
  6
CONTINUOUS
 10
385.9191025898
 20
766.4179886684
 40
6.4
100
AcDbArc
 50
328.7789452361
 51
351.4483714314
  0
ARC
  5
638
100
AcDbEntity
  8
0
100
AcDbCircle
 62
7
  6
CONTINUOUS
 10
371.9489823135
 20
753.6516032081
 40
6.4
100
AcDbArc
 50
270.0
 51
296.0653786981
  0
ARC
  5
639
100
AcDbEntity
  8
0
100
AcDbCircle
 62
7
  6
CONTINUOUS
 10
371.9489823135
 20
940.8516032081
 40
6.4
100
AcDbArc
 50
63.9346213019
 51
90.0
  0
ARC
  5
63A
100
AcDbEntity
  8
0
100
AcDbCircle
 62
7
  6
CONTINUOUS
 10
963.0835079281
 20
426.5023248066
 40
7.906823306
100
AcDbArc
 50
226.017934794
 51
233.1434812834
  0
ARC
  5
63B
100
AcDbEntity
  8
0
100
AcDbCircle
 62
7
  6
CONTINUOUS
 10
963.4269363621
 20
426.4896688268
 40
7.8899107579
100
AcDbArc
 50
307.6948934083
 51
313.9871517628
  0
CIRCLE
  5
63C
100
AcDbEntity
  8
0
100
AcDbCircle
 62
7
  6
CONTINUOUS
 10
927.6703125
 20
355.1143804768
 40
7.0
  0
CIRCLE
  5
63D
100
AcDbEntity
  8
0
100
AcDbCircle
 62
7
  6
CONTINUOUS
 10
819.7703125
 20
355.1143804768
 40
7.0
  0
CIRCLE
  5
63E
100
AcDbEntity
  8
0
100
AcDbCircle
 62
7
  6
CONTINUOUS
 10
819.7703125
 20
405.9143804768
 40
7.0
  0
CIRCLE
  5
63F
100
AcDbEntity
  8
0
100
AcDbCircle
 62
7
  6
CONTINUOUS
 10
927.6703125
 20
405.9143804768
 40
7.0
  0
ARC
  5
640
100
AcDbEntity
  8
0
100
AcDbCircle
 62
7
  6
CONTINUOUS
 10
963.3203125
 20
398.835347276
 40
6.4
100
AcDbArc
 50
225.0
 51
315.0
  0
CIRCLE
  5
641
100
AcDbEntity
  8
0
100
AcDbCircle
 62
7
  6
CONTINUOUS
 10
819.7703125
 20
355.1143804768
 40
6.0
  0
CIRCLE
  5
642
100
AcDbEntity
  8
0
100
AcDbCircle
 62
7
  6
CONTINUOUS
 10
927.6703125
 20
355.1143804768
 40
6.0
  0
CIRCLE
  5
643
100
AcDbEntity
  8
0
100
AcDbCircle
 62
7
  6
CONTINUOUS
 10
927.6703125
 20
405.9143804768
 40
6.0
  0
CIRCLE
  5
644
100
AcDbEntity
  8
0
100
AcDbCircle
 62
7
  6
CONTINUOUS
 10
819.7703125
 20
405.9143804768
 40
6.0
  0
CIRCLE
  5
645
100
AcDbEntity
  8
0
100
AcDbCircle
 62
7
  6
CONTINUOUS
 10
2305.2735617186
 20
638.4219228424
 40
11.9650898701
  0
ARC
  5
646
100
AcDbEntity
  8
0
100
AcDbCircle
 62
7
  6
CONTINUOUS
 10
2207.4952214496
 20
615.4459315852
 40
11.0
100
AcDbArc
 50
165.0
 51
255.0
  0
ARC
  5
647
100
AcDbEntity
  8
0
100
AcDbCircle
 62
7
  6
CONTINUOUS
 10
2335.9633563461
 20
581.0229985866
 40
11.0
100
AcDbArc
 50
255.0
 51
345.0
  0
ARC
  5
648
100
AcDbEntity
  8
0
100
AcDbCircle
 62
7
  6
CONTINUOUS
 10
2336.4649016306
 20
596.4177526388
 40
6.5154779035
100
AcDbArc
 50
85.2423842391
 51
154.7576389149
  0
ARC
  5
649
100
AcDbEntity
  8
0
100
AcDbCircle
 62
7
  6
CONTINUOUS
 10
2214.7582475182
 20
629.0289523217
 40
6.5154779035
100
AcDbArc
 50
355.2423610299
 51
64.7576159482
  0
ARC
  5
64A
100
AcDbEntity
  8
0
100
AcDbCircle
 62
7
  6
CONTINUOUS
 10
2275.6115745744
 20
612.7233524802
 40
6.5154778931
100
AcDbArc
 50
355.2423962304
 51
154.7576040363
  0
ARC
  5
64B
100
AcDbEntity
  8
0
100
AcDbCircle
 62
7
  6
CONTINUOUS
 10
2223.24405347
 20
628.3236954043
 40
1.9995829922
100
AcDbArc
 50
175.2708698194
 51
254.9713766662
  0
ARC
  5
64C
100
AcDbEntity
  8
0
100
AcDbCircle
 62
7
  6
CONTINUOUS
 10
2328.7633498739
 20
600.0498847167
 40
1.9995825068
100
AcDbArc
 50
255.0286270521
 51
334.7291403031
  0
ARC
  5
64D
100
AcDbEntity
  8
0
100
AcDbCircle
 62
7
  6
CONTINUOUS
 10
2337.1701606103
 20
604.9035560767
 40
1.9995798264
100
AcDbArc
 50
265.2707293589
 51
344.9713873324
  0
ARC
  5
64E
100
AcDbEntity
  8
0
100
AcDbCircle
 62
7
  6
CONTINUOUS
 10
2218.3903770456
 20
636.7305031608
 40
1.9995798264
100
AcDbArc
 50
165.0286126966
 51
244.7292700089
  0
ARC
  5
64F
100
AcDbEntity
  8
0
100
AcDbCircle
 62
7
  6
CONTINUOUS
 10
2284.0973779877
 20
612.0180935092
 40
1.9995798019
100
AcDbArc
 50
175.2706904702
 51
254.971391575
  0
ARC
  5
650
100
AcDbEntity
  8
0
100
AcDbCircle
 62
7
  6
CONTINUOUS
 10
2267.9100237608
 20
616.355482003
 40
1.9995798021
100
AcDbArc
 50
255.0285593445
 51
334.7293086362
  0
CIRCLE
  5
651
100
AcDbEntity
  8
0
100
AcDbCircle
 62
7
  6
CONTINUOUS
 10
2266.636528667
 20
648.7746846465
 40
11.9650898701
  0
ARC
  5
652
100
AcDbEntity
  8
0
100
AcDbCircle
 62
7
  6
CONTINUOUS
 10
2233.1183069148
 20
711.0725883878
 40
11.0
100
AcDbArc
 50
75.0
 51
165.0
  0
ARC
  5
653
100
AcDbEntity
  8
0
100
AcDbCircle
 62
7
  6
CONTINUOUS
 10
2232.6167616303
 20
695.6778343356
 40
6.5154779035
100
AcDbArc
 50
265.2423842391
 51
334.7576389149
  0
ARC
  5
654
100
AcDbEntity
  8
0
100
AcDbCircle
 62
7
  6
CONTINUOUS
 10
2293.4700886865
 20
679.3722344942
 40
6.5154778931
100
AcDbArc
 50
175.2423962304
 51
334.7576040363
  0
ARC
  5
655
100
AcDbEntity
  8
0
100
AcDbCircle
 62
7
  6
CONTINUOUS
 10
2345.8376098437
 20
663.7718916072
 40
1.9995829921
100
AcDbArc
 50
355.2708684035
 51
74.9713641909
  0
ARC
  5
656
100
AcDbEntity
  8
0
100
AcDbCircle
 62
7
  6
CONTINUOUS
 10
2240.318313361
 20
692.0457023136
 40
1.9995825068
100
AcDbArc
 50
75.02862592
 51
154.7291414348
  0
ARC
  5
657
100
AcDbEntity
  8
0
100
AcDbCircle
 62
7
  6
CONTINUOUS
 10
2231.9115026506
 20
687.1920308977
 40
1.9995798264
100
AcDbArc
 50
85.2707293588
 51
164.9713873324
  0
ARC
  5
658
100
AcDbEntity
  8
0
100
AcDbCircle
 62
7
  6
CONTINUOUS
 10
2284.9842852732
 20
680.0774934652
 40
1.9995798019
100
AcDbArc
 50
355.2706904703
 51
74.971391575
  0
ARC
  5
659
100
AcDbEntity
  8
0
100
AcDbCircle
 62
7
  6
CONTINUOUS
 10
2301.1716394999
 20
675.7401049716
 40
1.9995798019
100
AcDbArc
 50
75.0286084534
 51
154.7293086388
  0
CIRCLE
  5
65A
100
AcDbEntity
  8
0
100
AcDbCircle
 62
7
  6
CONTINUOUS
 10
2493.3314071097
 20
616.3985423827
 40
7.0
  0
CIRCLE
  5
65B
100
AcDbEntity
  8
0
100
AcDbCircle
 62
7
  6
CONTINUOUS
 10
2480.1833996185
 20
567.3295104073
 40
7.0
  0
CIRCLE
  5
65C
100
AcDbEntity
  8
0
100
AcDbCircle
 62
7
  6
CONTINUOUS
 10
2375.9600029619
 20
595.2560853738
 40
7.0
  0
CIRCLE
  5
65D
100
AcDbEntity
  8
0
100
AcDbCircle
 62
7
  6
CONTINUOUS
 10
2493.3314071097
 20
616.3985423827
 40
6.0
  0
CIRCLE
  5
65E
100
AcDbEntity
  8
0
100
AcDbCircle
 62
7
  6
CONTINUOUS
 10
2480.1833996185
 20
567.3295104073
 40
6.0
  0
CIRCLE
  5
65F
100
AcDbEntity
  8
0
100
AcDbCircle
 62
7
  6
CONTINUOUS
 10
2375.9600029619
 20
595.2560853738
 40
6.0
  0
ARC
  5
660
100
AcDbEntity
  8
0
100
AcDbCircle
 62
7
  6
CONTINUOUS
 10
2361.5864418112
 20
676.6496553892
 40
11.0
100
AcDbArc
 50
345.0
 51
75.0
  0
CIRCLE
  5
661
100
AcDbEntity
  8
0
100
AcDbCircle
 62
7
  6
CONTINUOUS
 10
2389.1080104531
 20
644.3251173493
 40
7.0
  0
ARC
  5
662
100
AcDbEntity
  8
0
100
AcDbCircle
 62
7
  6
CONTINUOUS
 10
2354.3234157427
 20
663.0666346527
 40
6.5154779035
100
AcDbArc
 50
175.242361101
 51
244.7576159482
  0
CIRCLE
  5
663
100
AcDbEntity
  8
0
100
AcDbCircle
 62
7
  6
CONTINUOUS
 10
2389.1080104531
 20
644.3251173493
 40
6.0
  0
ARC
  5
664
100
AcDbEntity
  8
0
100
AcDbCircle
 62
7
  6
CONTINUOUS
 10
2350.6912862153
 20
655.3650838136
 40
1.9995798264
100
AcDbArc
 50
345.0286126965
 51
64.7292700089
  0
ARC
  5
665
100
AcDbEntity
  8
0
100
AcDbCircle
 62
7
  6
CONTINUOUS
 10
1675.4745002137
 20
1482.9947448004
 40
8.0
100
AcDbArc
 50
300.0
 51
30.0
  0
CIRCLE
  5
666
100
AcDbEntity
  8
0
100
AcDbCircle
 62
7
  6
CONTINUOUS
 10
1739.1262139649
 20
1502.7737102548
 40
7.0
  0
CIRCLE
  5
667
100
AcDbEntity
  8
0
100
AcDbCircle
 62
7
  6
CONTINUOUS
 10
1767.0527889314
 20
1606.9971069114
 40
7.0
  0
CIRCLE
  5
668
100
AcDbEntity
  8
0
100
AcDbCircle
 62
7
  6
CONTINUOUS
 10
1816.1218209069
 20
1593.8490994202
 40
7.0
  0
CIRCLE
  5
669
100
AcDbEntity
  8
0
100
AcDbCircle
 62
7
  6
CONTINUOUS
 10
1788.1952459403
 20
1489.6257027636
 40
7.0
  0
ARC
  5
66A
100
AcDbEntity
  8
0
100
AcDbCircle
 62
7
  6
CONTINUOUS
 10
1700.6593676433
 20
1476.1732748304
 40
6.4
100
AcDbArc
 50
300.0
 51
30.0
  0
CIRCLE
  5
66B
100
AcDbEntity
  8
0
100
AcDbCircle
 62
7
  6
CONTINUOUS
 10
1767.0527889314
 20
1606.9971069114
 40
6.0
  0
CIRCLE
  5
66C
100
AcDbEntity
  8
0
100
AcDbCircle
 62
7
  6
CONTINUOUS
 10
1739.1262139649
 20
1502.7737102548
 40
6.0
  0
CIRCLE
  5
66D
100
AcDbEntity
  8
0
100
AcDbCircle
 62
7
  6
CONTINUOUS
 10
1816.1218209069
 20
1593.8490994202
 40
6.0
  0
CIRCLE
  5
66E
100
AcDbEntity
  8
0
100
AcDbCircle
 62
7
  6
CONTINUOUS
 10
1788.1952459403
 20
1489.6257027636
 40
6.0
  0
SPLINE
  5
66F
100
AcDbEntity
  8
0
100
AcDbSpline
 62
7
  6
CONTINUOUS
 70
0
 71
3
 72
13
 73
9
 74
0
 42
0.0000001
 43
0.0000001
 44
0.0000000001
 40
0.0
 40
0.0
 40
0.0
 40
0.0
 40
0.1034560837
 40
0.2106691689
 40
0.3244983472
 40
0.4464322035
 40
0.7129528424
 40
1.0
 40
1.0
 40
1.0
 40
1.0
 10
1022.9787252672
 20
912.2516032081
 30
0.0
 10
1026.3214783648
 20
912.2516032081
 30
0.0
 10
1033.1630950146
 20
911.28148604
 30
0.0
 10
1042.8711288995
 20
907.0364448868
 30
0.0
 10
1051.7374046938
 20
900.2270702571
 30
0.0
 10
1062.3072086534
 20
887.7809376897
 30
0.0
 10
1071.4752446213
 20
867.5038000624
 30
0.0
 10
1073.8904135127
 20
849.5263383482
 30
0.0
 10
1073.8904135127
 20
840.2516032081
 30
0.0
  0
SPLINE
  5
670
100
AcDbEntity
  8
0
100
AcDbSpline
 62
7
  6
CONTINUOUS
 70
0
 71
3
 72
13
 73
9
 74
0
 42
0.0000001
 43
0.0000001
 44
0.0000000001
 40
0.0
 40
0.0
 40
0.0
 40
0.0
 40
0.1034559316
 40
0.2106687871
 40
0.3244977277
 40
0.4464315225
 40
0.7129520448
 40
1.0
 40
1.0
 40
1.0
 40
1.0
 10
1022.9787252672
 20
757.4518570234
 30
0.0
 10
1019.1345677774
 20
757.4518570234
 30
0.0
 10
1011.266728679
 20
758.567447488
 30
0.0
 10
1000.1024802916
 20
763.4491411117
 30
0.0
 10
989.9062263568
 20
771.2798299113
 30
0.0
 10
977.750919609
 20
785.5928203764
 30
0.0
 10
967.2076523515
 20
808.9115365171
 30
0.0
 10
964.430283785
 20
829.585636262
 30
0.0
 10
964.430283785
 20
840.2516032081
 30
0.0
  0
SPLINE
  5
671
100
AcDbEntity
  8
0
100
AcDbSpline
 62
7
  6
CONTINUOUS
 70
0
 71
3
 72
13
 73
9
 74
0
 42
0.0000001
 43
0.0000001
 44
0.0000000001
 40
0.0
 40
0.0
 40
0.0
 40
0.0
 40
0.1034560837
 40
0.2106691689
 40
0.3244983472
 40
0.4464322035
 40
0.7129528424
 40
1.0
 40
1.0
 40
1.0
 40
1.0
 10
903.6618997328
 20
912.2516032081
 30
0.0
 10
900.3191466352
 20
912.2516032081
 30
0.0
 10
893.4775299854
 20
911.28148604
 30
0.0
 10
883.7694961005
 20
907.0364448868
 30
0.0
 10
874.9032203062
 20
900.2270702571
 30
0.0
 10
864.3334163466
 20
887.7809376897
 30
0.0
 10
855.1653803787
 20
867.5038000624
 30
0.0
 10
852.7502114873
 20
849.5263383482
 30
0.0
 10
852.7502114873
 20
840.2516032081
 30
0.0
  0
SPLINE
  5
672
100
AcDbEntity
  8
0
100
AcDbSpline
 62
7
  6
CONTINUOUS
 70
0
 71
3
 72
13
 73
9
 74
0
 42
0.0000001
 43
0.0000001
 44
0.0000000001
 40
0.0
 40
0.0
 40
0.0
 40
0.0
 40
0.1034559316
 40
0.2106687871
 40
0.3244977277
 40
0.4464315225
 40
0.7129520448
 40
1.0
 40
1.0
 40
1.0
 40
1.0
 10
903.6618997328
 20
757.4518570234
 30
0.0
 10
907.5060572226
 20
757.4518570234
 30
0.0
 10
915.373896321
 20
758.567447488
 30
0.0
 10
926.5381447084
 20
763.4491411117
 30
0.0
 10
936.7343986432
 20
771.2798299113
 30
0.0
 10
948.889705391
 20
785.5928203764
 30
0.0
 10
959.4329726485
 20
808.9115365171
 30
0.0
 10
962.210341215
 20
829.585636262
 30
0.0
 10
962.210341215
 20
840.2516032081
 30
0.0
  0
SPLINE
  5
673
100
AcDbEntity
  8
0
100
AcDbSpline
 62
7
  6
CONTINUOUS
 70
0
 71
3
 72
9
 73
5
 74
0
 42
0.0000001
 43
0.0000001
 44
0.0000000001
 40
0.0
 40
0.0
 40
0.0
 40
0.0
 40
0.5
 40
1.0
 40
1.0
 40
1.0
 40
1.0
 10
957.5927475724
 20
920.8408443938
 30
0.0
 10
959.4286720473
 20
920.3656721743
 30
0.0
 10
963.2496018219
 20
920.1033075095
 30
0.0
 10
967.0705315964
 20
920.3656721743
 30
0.0
 10
968.9064560714
 20
920.8408443938
 30
0.0
  0
SPLINE
  5
674
100
AcDbEntity
  8
0
100
AcDbSpline
 62
7
  6
CONTINUOUS
 70
0
 71
3
 72
13
 73
9
 74
0
 42
0.0000001
 43
0.0000001
 44
0.0000000001
 40
0.0
 40
0.0
 40
0.0
 40
0.0
 40
0.2870479552
 40
0.5535684775
 40
0.6755022723
 40
0.7893312129
 40
0.8965440684
 40
1.0
 40
1.0
 40
1.0
 40
1.0
 10
962.210341215
 20
840.2516032081
 30
0.0
 10
962.210341215
 20
850.9175701542
 30
0.0
 10
959.4329726485
 20
871.591669899
 30
0.0
 10
948.889705391
 20
894.9103860398
 30
0.0
 10
936.7343986432
 20
909.2233765049
 30
0.0
 10
926.5381447084
 20
917.0540653045
 30
0.0
 10
915.373896321
 20
921.9357589282
 30
0.0
 10
907.5060572226
 20
923.0513493928
 30
0.0
 10
903.6618997328
 20
923.0513493928
 30
0.0
  0
SPLINE
  5
675
100
AcDbEntity
  8
0
100
AcDbSpline
 62
7
  6
CONTINUOUS
 70
0
 71
3
 72
13
 73
9
 74
0
 42
0.0000001
 43
0.0000001
 44
0.0000000001
 40
0.0
 40
0.0
 40
0.0
 40
0.0
 40
0.2870471576
 40
0.5535677965
 40
0.6755016528
 40
0.7893308311
 40
0.8965439163
 40
1.0
 40
1.0
 40
1.0
 40
1.0
 10
852.7502114873
 20
840.2516032081
 30
0.0
 10
852.7502114873
 20
830.976868068
 30
0.0
 10
855.1653803787
 20
812.9994063538
 30
0.0
 10
864.3334163466
 20
792.7222687265
 30
0.0
 10
874.9032203062
 20
780.2761361591
 30
0.0
 10
883.7694961005
 20
773.4667615294
 30
0.0
 10
893.4775299854
 20
769.2217203762
 30
0.0
 10
900.3191466352
 20
768.2516032081
 30
0.0
 10
903.6618997328
 20
768.2516032081
 30
0.0
  0
SPLINE
  5
676
100
AcDbEntity
  8
0
100
AcDbSpline
 62
7
  6
CONTINUOUS
 70
0
 71
3
 72
13
 73
9
 74
0
 42
0.0000001
 43
0.0000001
 44
0.0000000001
 40
0.0
 40
0.0
 40
0.0
 40
0.0
 40
0.2870479552
 40
0.5535684775
 40
0.6755022723
 40
0.7893312129
 40
0.8965440684
 40
1.0
 40
1.0
 40
1.0
 40
1.0
 10
964.430283785
 20
840.2516032081
 30
0.0
 10
964.430283785
 20
850.9175701542
 30
0.0
 10
967.2076523515
 20
871.591669899
 30
0.0
 10
977.750919609
 20
894.9103860398
 30
0.0
 10
989.9062263568
 20
909.2233765049
 30
0.0
 10
1000.1024802916
 20
917.0540653045
 30
0.0
 10
1011.266728679
 20
921.9357589282
 30
0.0
 10
1019.1345677774
 20
923.0513493928
 30
0.0
 10
1022.9787252672
 20
923.0513493928
 30
0.0
  0
SPLINE
  5
677
100
AcDbEntity
  8
0
100
AcDbSpline
 62
7
  6
CONTINUOUS
 70
0
 71
3
 72
13
 73
9
 74
0
 42
0.0000001
 43
0.0000001
 44
0.0000000001
 40
0.0
 40
0.0
 40
0.0
 40
0.0
 40
0.2870471576
 40
0.5535677965
 40
0.6755016528
 40
0.7893308311
 40
0.8965439163
 40
1.0
 40
1.0
 40
1.0
 40
1.0
 10
1073.8904135127
 20
840.2516032081
 30
0.0
 10
1073.8904135127
 20
830.976868068
 30
0.0
 10
1071.4752446213
 20
812.9994063538
 30
0.0
 10
1062.3072086534
 20
792.7222687265
 30
0.0
 10
1051.7374046938
 20
780.2761361591
 30
0.0
 10
1042.8711288995
 20
773.4667615294
 30
0.0
 10
1033.1630950146
 20
769.2217203762
 30
0.0
 10
1026.3214783648
 20
768.2516032081
 30
0.0
 10
1022.9787252672
 20
768.2516032081
 30
0.0
  0
SPLINE
  5
678
100
AcDbEntity
  8
0
100
AcDbSpline
 62
7
  6
CONTINUOUS
 70
0
 71
3
 72
13
 73
9
 74
0
 42
0.0000001
 43
0.0000001
 44
0.0000000001
 40
0.0
 40
0.0
 40
0.0
 40
0.0
 40
0.1034560837
 40
0.2106691689
 40
0.3244983472
 40
0.4464322035
 40
0.7129528424
 40
1.0
 40
1.0
 40
1.0
 40
1.0
 10
1022.9787252672
 20
768.2516032081
 30
0.0
 10
1019.6359721697
 20
768.2516032081
 30
0.0
 10
1012.7943555199
 20
769.2217203762
 30
0.0
 10
1003.086321635
 20
773.4667615294
 30
0.0
 10
994.2200458407
 20
780.2761361591
 30
0.0
 10
983.6502418811
 20
792.7222687265
 30
0.0
 10
974.4822059132
 20
812.9994063538
 30
0.0
 10
972.0670370218
 20
830.976868068
 30
0.0
 10
972.0670370218
 20
840.2516032081
 30
0.0
  0
SPLINE
  5
679
100
AcDbEntity
  8
0
100
AcDbSpline
 62
7
  6
CONTINUOUS
 70
0
 71
3
 72
13
 73
9
 74
0
 42
0.0000001
 43
0.0000001
 44
0.0000000001
 40
0.0
 40
0.0
 40
0.0
 40
0.0
 40
0.1034559316
 40
0.2106687871
 40
0.3244977277
 40
0.4464315225
 40
0.7129520448
 40
1.0
 40
1.0
 40
1.0
 40
1.0
 10
903.6618997328
 20
923.0513493928
 30
0.0
 10
899.8177422429
 20
923.0513493928
 30
0.0
 10
891.9499031445
 20
921.9357589282
 30
0.0
 10
880.7856547571
 20
917.0540653045
 30
0.0
 10
870.5894008223
 20
909.2233765049
 30
0.0
 10
858.4340940745
 20
894.9103860398
 30
0.0
 10
847.890826817
 20
871.591669899
 30
0.0
 10
845.1134582505
 20
850.9175701542
 30
0.0
 10
845.1134582505
 20
840.2516032081
 30
0.0
  0
SPLINE
  5
67A
100
AcDbEntity
  8
0
100
AcDbSpline
 62
7
  6
CONTINUOUS
 70
0
 71
3
 72
13
 73
9
 74
0
 42
0.0000001
 43
0.0000001
 44
0.0000000001
 40
0.0
 40
0.0
 40
0.0
 40
0.0
 40
0.1034561828
 40
0.2106683904
 40
0.3244965751
 40
0.4464297454
 40
0.7129506713
 40
1.0
 40
1.0
 40
1.0
 40
1.0
 10
899.423924853
 20
923.0515295716
 30
0.0
 10
895.579595255
 20
923.0521804825
 30
0.0
 10
887.7112908049
 20
921.9371500369
 30
0.0
 10
876.546184326
 20
917.0562719795
 30
0.0
 10
866.3491294566
 20
909.2257904208
 30
0.0
 10
854.1927721481
 20
894.9126890628
 30
0.0
 10
843.6485474973
 20
871.5931093281
 30
0.0
 10
840.8708175634
 20
850.9180729811
 30
0.0
 10
840.8708175634
 20
840.2516032081
 30
0.0
  0
SPLINE
  5
67B
100
AcDbEntity
  8
0
100
AcDbSpline
 62
7
  6
CONTINUOUS
 70
0
 71
3
 72
13
 73
9
 74
0
 42
0.0000001
 43
0.0000001
 44
0.0000000001
 40
0.0
 40
0.0
 40
0.0
 40
0.0
 40
0.1034101471
 40
0.2111201669
 40
0.3255765289
 40
0.4479500102
 40
0.7143176676
 40
1.0
 40
1.0
 40
1.0
 40
1.0
 10
1022.986409749
 20
768.3315338822
 30
0.0
 10
1019.733922091
 20
768.5480580649
 30
0.0
 10
1013.1250275847
 20
769.9104914118
 30
0.0
 10
1003.8492544439
 20
774.5244038071
 30
0.0
 10
995.4169559554
 20
781.5046248085
 30
0.0
 10
985.4101300932
 20
793.9244278169
 30
0.0
 10
976.754929424
 20
813.7609416803
 30
0.0
 10
974.4712000778
 20
831.2463461537
 30
0.0
 10
974.4712000778
 20
840.2516032081
 30
0.0
  0
SPLINE
  5
67C
100
AcDbEntity
  8
0
100
AcDbSpline
 62
7
  6
CONTINUOUS
 70
0
 71
3
 72
13
 73
9
 74
0
 42
0.0000001
 43
0.0000001
 44
0.0000000001
 40
0.0
 40
0.0
 40
0.0
 40
0.0
 40
0.2870493287
 40
0.5535702546
 40
0.6755034249
 40
0.7893316096
 40
0.8965438172
 40
1.0
 40
1.0
 40
1.0
 40
1.0
 10
840.8708175634
 20
840.2516032081
 30
0.0
 10
840.8708175634
 20
829.5851334351
 30
0.0
 10
843.6485474973
 20
808.9100970881
 30
0.0
 10
854.1927721481
 20
785.5905173534
 30
0.0
 10
866.3491294566
 20
771.2774159954
 30
0.0
 10
876.546184326
 20
763.4469344366
 30
0.0
 10
887.7112908049
 20
758.5660563792
 30
0.0
 10
895.579595255
 20
757.4510259337
 30
0.0
 10
899.423924853
 20
757.4516768446
 30
0.0
  0
SPLINE
  5
67D
100
AcDbEntity
  8
0
100
AcDbSpline
 62
7
  6
CONTINUOUS
 70
0
 71
3
 72
13
 73
9
 74
0
 42
0.0000001
 43
0.0000001
 44
0.0000000001
 40
0.0
 40
0.0
 40
0.0
 40
0.0
 40
0.2870493287
 40
0.5535702546
 40
0.6755034249
 40
0.7893316096
 40
0.8965438172
 40
1.0
 40
1.0
 40
1.0
 40
1.0
 10
1085.7698074366
 20
840.2516032081
 30
0.0
 10
1085.7698074366
 20
829.5851334351
 30
0.0
 10
1082.9920775027
 20
808.9100970881
 30
0.0
 10
1072.4478528519
 20
785.5905173534
 30
0.0
 10
1060.2914955434
 20
771.2774159954
 30
0.0
 10
1050.094440674
 20
763.4469344366
 30
0.0
 10
1038.9293341951
 20
758.5660563792
 30
0.0
 10
1031.061029745
 20
757.4510259337
 30
0.0
 10
1027.216700147
 20
757.4516768446
 30
0.0
  0
SPLINE
  5
67E
100
AcDbEntity
  8
0
100
AcDbSpline
 62
7
  6
CONTINUOUS
 70
0
 71
3
 72
9
 73
5
 74
0
 42
0.0000001
 43
0.0000001
 44
0.0000000001
 40
0.0
 40
0.0
 40
0.0
 40
0.0
 40
0.2352692937
 40
1.0
 40
1.0
 40
1.0
 40
1.0
 10
957.5927475724
 20
917.9430669149
 30
0.0
 10
957.6911379688
 20
917.9176016065
 30
0.0
 10
958.1107340704
 20
917.8147574084
 30
0.0
 10
958.5350052325
 20
917.7315132269
 30
0.0
 10
958.8606860476
 20
917.6761617641
 30
0.0
  0
SPLINE
  5
67F
100
AcDbEntity
  8
0
100
AcDbSpline
 62
7
  6
CONTINUOUS
 70
0
 71
3
 72
9
 73
5
 74
0
 42
0.0000001
 43
0.0000001
 44
0.0000000001
 40
0.0
 40
0.0
 40
0.0
 40
0.0
 40
0.5014972857
 40
1.0
 40
1.0
 40
1.0
 40
1.0
 10
958.8606860476
 20
917.6761617641
 30
0.0
 10
960.3352109457
 20
917.4255571655
 30
0.0
 10
963.3259567304
 20
917.2406421202
 30
0.0
 10
966.3164297093
 20
917.4403831535
 30
0.0
 10
967.7801832439
 20
917.7007981207
 30
0.0
  0
SPLINE
  5
680
100
AcDbEntity
  8
0
100
AcDbSpline
 62
7
  6
CONTINUOUS
 70
0
 71
3
 72
8
 73
4
 74
0
 42
0.0000001
 43
0.0000001
 44
0.0000000001
 40
0.0
 40
0.0
 40
0.0
 40
0.0
 40
1.0
 40
1.0
 40
1.0
 40
1.0
 10
967.7801832439
 20
917.7007981207
 30
0.0
 10
968.1582581803
 20
917.7680610648
 30
0.0
 10
968.5346942428
 20
917.8468478734
 30
0.0
 10
968.9064560714
 20
917.9430669149
 30
0.0
  0
SPLINE
  5
681
100
AcDbEntity
  8
0
100
AcDbSpline
 62
7
  6
CONTINUOUS
 70
0
 71
3
 72
13
 73
9
 74
0
 42
0.0000001
 43
0.0000001
 44
0.0000000001
 40
0.0
 40
0.0
 40
0.0
 40
0.0
 40
0.1034561828
 40
0.2106683904
 40
0.3244965751
 40
0.4464297454
 40
0.7129506713
 40
1.0
 40
1.0
 40
1.0
 40
1.0
 10
1027.216700147
 20
923.0515295716
 30
0.0
 10
1031.061029745
 20
923.0521804825
 30
0.0
 10
1038.9293341951
 20
921.9371500369
 30
0.0
 10
1050.094440674
 20
917.0562719795
 30
0.0
 10
1060.2914955434
 20
909.2257904208
 30
0.0
 10
1072.4478528519
 20
894.9126890628
 30
0.0
 10
1082.9920775027
 20
871.5931093281
 30
0.0
 10
1085.7698074366
 20
850.9180729811
 30
0.0
 10
1085.7698074366
 20
840.2516032081
 30
0.0
  0
SPLINE
  5
682
100
AcDbEntity
  8
0
100
AcDbSpline
 62
7
  6
CONTINUOUS
 70
0
 71
3
 72
13
 73
9
 74
0
 42
0.0000001
 43
0.0000001
 44
0.0000000001
 40
0.0
 40
0.0
 40
0.0
 40
0.0
 40
0.2870479552
 40
0.5535684775
 40
0.6755022723
 40
0.7893312129
 40
0.8965440684
 40
1.0
 40
1.0
 40
1.0
 40
1.0
 10
845.1134582505
 20
840.2516032081
 30
0.0
 10
845.1134582505
 20
829.585636262
 30
0.0
 10
847.890826817
 20
808.9115365171
 30
0.0
 10
858.4340940745
 20
785.5928203764
 30
0.0
 10
870.5894008223
 20
771.2798299113
 30
0.0
 10
880.7856547571
 20
763.4491411117
 30
0.0
 10
891.9499031445
 20
758.567447488
 30
0.0
 10
899.8177422429
 20
757.4518570234
 30
0.0
 10
903.6618997328
 20
757.4518570234
 30
0.0
  0
SPLINE
  5
683
100
AcDbEntity
  8
0
100
AcDbSpline
 62
7
  6
CONTINUOUS
 70
0
 71
3
 72
13
 73
9
 74
0
 42
0.0000001
 43
0.0000001
 44
0.0000000001
 40
0.0
 40
0.0
 40
0.0
 40
0.0
 40
0.2870471576
 40
0.5535677965
 40
0.6755016528
 40
0.7893308311
 40
0.8965439163
 40
1.0
 40
1.0
 40
1.0
 40
1.0
 10
954.5735879782
 20
840.2516032081
 30
0.0
 10
954.5735879782
 20
849.5263383482
 30
0.0
 10
952.1584190868
 20
867.5038000624
 30
0.0
 10
942.9903831189
 20
887.7809376897
 30
0.0
 10
932.4205791593
 20
900.2270702571
 30
0.0
 10
923.554303365
 20
907.0364448868
 30
0.0
 10
913.8462694801
 20
911.28148604
 30
0.0
 10
907.0046528303
 20
912.2516032081
 30
0.0
 10
903.6618997328
 20
912.2516032081
 30
0.0
  0
SPLINE
  5
684
100
AcDbEntity
  8
0
100
AcDbSpline
 62
7
  6
CONTINUOUS
 70
0
 71
3
 72
13
 73
9
 74
0
 42
0.0000001
 43
0.0000001
 44
0.0000000001
 40
0.0
 40
0.0
 40
0.0
 40
0.0
 40
0.2856823324
 40
0.5520499898
 40
0.6744234711
 40
0.7888798331
 40
0.8965898529
 40
1.0
 40
1.0
 40
1.0
 40
1.0
 10
952.1694249222
 20
840.2516032081
 30
0.0
 10
952.1694249222
 20
849.2568602625
 30
0.0
 10
949.885695576
 20
866.7422647358
 30
0.0
 10
941.2304949068
 20
886.5787785993
 30
0.0
 10
931.2236690446
 20
898.9985816077
 30
0.0
 10
922.7913705561
 20
905.9788026091
 30
0.0
 10
913.5155974153
 20
910.5927150044
 30
0.0
 10
906.906702909
 20
911.9551483513
 30
0.0
 10
903.654215251
 20
912.1716725339
 30
0.0
  0
SPLINE
  5
685
100
AcDbEntity
  8
0
100
AcDbSpline
 62
7
  6
CONTINUOUS
 70
0
 71
3
 72
13
 73
9
 74
0
 42
0.0000001
 43
0.0000001
 44
0.0000000001
 40
0.0
 40
0.0
 40
0.0
 40
0.0
 40
0.1034559316
 40
0.2106687871
 40
0.3244977277
 40
0.4464315225
 40
0.7129520448
 40
1.0
 40
1.0
 40
1.0
 40
1.0
 10
1022.9787252672
 20
923.0513493928
 30
0.0
 10
1026.8228827571
 20
923.0513493928
 30
0.0
 10
1034.6907218555
 20
921.9357589282
 30
0.0
 10
1045.8549702429
 20
917.0540653045
 30
0.0
 10
1056.0512241777
 20
909.2233765049
 30
0.0
 10
1068.2065309255
 20
894.9103860398
 30
0.0
 10
1078.749798183
 20
871.591669899
 30
0.0
 10
1081.5271667495
 20
850.9175701542
 30
0.0
 10
1081.5271667495
 20
840.2516032081
 30
0.0
  0
SPLINE
  5
686
100
AcDbEntity
  8
0
100
AcDbSpline
 62
7
  6
CONTINUOUS
 70
0
 71
3
 72
17
 73
13
 74
0
 42
0.0000001
 43
0.0000001
 44
0.0000000001
 40
0.0
 40
0.0
 40
0.0
 40
0.0
 40
0.1437145101
 40
0.2771516783
 40
0.3945257718
 40
0.4482033637
 40
0.5
 40
0.5517966363
 40
0.6054742282
 40
0.7228483217
 40
0.8562854899
 40
1.0
 40
1.0
 40
1.0
 40
1.0
 10
944.7889978935
 20
840.2516032081
 30
0.0
 10
944.7889978935
 20
848.1818398037
 30
0.0
 10
942.7034269482
 20
863.5708398589
 30
0.0
 10
933.642524198
 20
883.7243374715
 30
0.0
 10
921.3538479927
 20
896.0097125118
 30
0.0
 10
909.9617883095
 20
900.9837611623
 30
0.0
 10
901.2577366767
 20
902.2215889653
 30
0.0
 10
892.5536850439
 20
900.9837611623
 30
0.0
 10
881.1616253608
 20
896.0097125118
 30
0.0
 10
868.8729491555
 20
883.7243374715
 30
0.0
 10
859.8120464052
 20
863.5708398589
 30
0.0
 10
857.7264754599
 20
848.1818398037
 30
0.0
 10
857.7264754599
 20
840.2516032081
 30
0.0
  0
SPLINE
  5
687
100
AcDbEntity
  8
0
100
AcDbSpline
 62
7
  6
CONTINUOUS
 70
0
 71
3
 72
17
 73
13
 74
0
 42
0.0000001
 43
0.0000001
 44
0.0000000001
 40
0.0
 40
0.0
 40
0.0
 40
0.0
 40
0.1437145101
 40
0.2771516783
 40
0.3945257718
 40
0.4482033637
 40
0.5
 40
0.5517966363
 40
0.6054742282
 40
0.7228483217
 40
0.8562854899
 40
1.0
 40
1.0
 40
1.0
 40
1.0
 10
857.7264754599
 20
840.2516032081
 30
0.0
 10
857.7264754599
 20
832.3213666124
 30
0.0
 10
859.8120464052
 20
816.9323665573
 30
0.0
 10
868.8729491555
 20
796.7788689446
 30
0.0
 10
881.1616253608
 20
784.4934939043
 30
0.0
 10
892.5536850439
 20
779.5194452539
 30
0.0
 10
901.2577366767
 20
778.2816174509
 30
0.0
 10
909.9617883095
 20
779.5194452539
 30
0.0
 10
921.3538479927
 20
784.4934939043
 30
0.0
 10
933.642524198
 20
796.7788689446
 30
0.0
 10
942.7034269482
 20
816.9323665573
 30
0.0
 10
944.7889978935
 20
832.3213666124
 30
0.0
 10
944.7889978935
 20
840.2516032081
 30
0.0
  0
SPLINE
  5
688
100
AcDbEntity
  8
0
100
AcDbSpline
 62
7
  6
CONTINUOUS
 70
0
 71
3
 72
15
 73
11
 74
0
 42
0.0000001
 43
0.0000001
 44
0.0000000001
 40
0.0
 40
0.0
 40
0.0
 40
0.0
 40
0.1439867549
 40
0.2776727591
 40
0.3952668634
 40
0.5
 40
0.6047331366
 40
0.7223272409
 40
0.8560132451
 40
1.0
 40
1.0
 40
1.0
 40
1.0
 10
921.8941496432
 20
840.2516032081
 30
0.0
 10
921.8941496432
 20
845.1240550451
 30
0.0
 10
920.618974824
 20
854.5795581547
 30
0.0
 10
915.0268029503
 20
866.9603089545
 30
0.0
 10
906.2923012163
 20
875.7740788875
 30
0.0
 10
895.1483340873
 20
879.1599501046
 30
0.0
 10
884.0043669582
 20
875.7740788875
 30
0.0
 10
875.2698652242
 20
866.9603089545
 30
0.0
 10
869.6776933506
 20
854.5795581547
 30
0.0
 10
868.4025185313
 20
845.1240550451
 30
0.0
 10
868.4025185313
 20
840.2516032081
 30
0.0
  0
SPLINE
  5
689
100
AcDbEntity
  8
0
100
AcDbSpline
 62
7
  6
CONTINUOUS
 70
0
 71
3
 72
15
 73
11
 74
0
 42
0.0000001
 43
0.0000001
 44
0.0000000001
 40
0.0
 40
0.0
 40
0.0
 40
0.0
 40
0.1439867549
 40
0.2776727591
 40
0.3952668634
 40
0.5
 40
0.6047331366
 40
0.7223272409
 40
0.8560132451
 40
1.0
 40
1.0
 40
1.0
 40
1.0
 10
921.8941496432
 20
840.2516032081
 30
0.0
 10
921.8941496432
 20
835.3791513711
 30
0.0
 10
920.618974824
 20
825.9236482615
 30
0.0
 10
915.0268029503
 20
813.5428974617
 30
0.0
 10
906.2923012163
 20
804.7291275287
 30
0.0
 10
895.1483340873
 20
801.3432563116
 30
0.0
 10
884.0043669582
 20
804.7291275287
 30
0.0
 10
875.2698652242
 20
813.5428974617
 30
0.0
 10
869.6776933506
 20
825.9236482615
 30
0.0
 10
868.4025185313
 20
835.3791513711
 30
0.0
 10
868.4025185313
 20
840.2516032081
 30
0.0
  0
SPLINE
  5
68A
100
AcDbEntity
  8
0
100
AcDbSpline
 62
7
  6
CONTINUOUS
 70
0
 71
3
 72
13
 73
9
 74
0
 42
0.0000001
 43
0.0000001
 44
0.0000000001
 40
0.0
 40
0.0
 40
0.0
 40
0.0
 40
0.2870479552
 40
0.5535684775
 40
0.6755022723
 40
0.7893312129
 40
0.8965440684
 40
1.0
 40
1.0
 40
1.0
 40
1.0
 10
1081.5271667495
 20
840.2516032081
 30
0.0
 10
1081.5271667495
 20
829.585636262
 30
0.0
 10
1078.749798183
 20
808.9115365171
 30
0.0
 10
1068.2065309255
 20
785.5928203764
 30
0.0
 10
1056.0512241777
 20
771.2798299113
 30
0.0
 10
1045.8549702429
 20
763.4491411117
 30
0.0
 10
1034.6907218555
 20
758.567447488
 30
0.0
 10
1026.8228827571
 20
757.4518570234
 30
0.0
 10
1022.9787252672
 20
757.4518570234
 30
0.0
  0
SPLINE
  5
68B
100
AcDbEntity
  8
0
100
AcDbSpline
 62
7
  6
CONTINUOUS
 70
0
 71
3
 72
13
 73
9
 74
0
 42
0.0000001
 43
0.0000001
 44
0.0000000001
 40
0.0
 40
0.0
 40
0.0
 40
0.0
 40
0.2870471576
 40
0.5535677965
 40
0.6755016528
 40
0.7893308311
 40
0.8965439163
 40
1.0
 40
1.0
 40
1.0
 40
1.0
 10
972.0670370218
 20
840.2516032081
 30
0.0
 10
972.0670370218
 20
849.5263383482
 30
0.0
 10
974.4822059132
 20
867.5038000624
 30
0.0
 10
983.6502418811
 20
887.7809376897
 30
0.0
 10
994.2200458407
 20
900.2270702571
 30
0.0
 10
1003.086321635
 20
907.0364448868
 30
0.0
 10
1012.7943555199
 20
911.28148604
 30
0.0
 10
1019.6359721697
 20
912.2516032081
 30
0.0
 10
1022.9787252672
 20
912.2516032081
 30
0.0
  0
SPLINE
  5
68C
100
AcDbEntity
  8
0
100
AcDbSpline
 62
7
  6
CONTINUOUS
 70
0
 71
3
 72
13
 73
9
 74
0
 42
0.0000001
 43
0.0000001
 44
0.0000000001
 40
0.0
 40
0.0
 40
0.0
 40
0.0
 40
0.2856823324
 40
0.5520499898
 40
0.6744234711
 40
0.7888798331
 40
0.8965898529
 40
1.0
 40
1.0
 40
1.0
 40
1.0
 10
974.4712000778
 20
840.2516032081
 30
0.0
 10
974.4712000778
 20
849.2568602625
 30
0.0
 10
976.754929424
 20
866.7422647358
 30
0.0
 10
985.4101300932
 20
886.5787785993
 30
0.0
 10
995.4169559554
 20
898.9985816077
 30
0.0
 10
1003.8492544439
 20
905.9788026091
 30
0.0
 10
1013.1250275847
 20
910.5927150044
 30
0.0
 10
1019.733922091
 20
911.9551483513
 30
0.0
 10
1022.986409749
 20
912.1716725339
 30
0.0
  0
SPLINE
  5
68D
100
AcDbEntity
  8
0
100
AcDbSpline
 62
7
  6
CONTINUOUS
 70
0
 71
3
 72
17
 73
13
 74
0
 42
0.0000001
 43
0.0000001
 44
0.0000000001
 40
0.0
 40
0.0
 40
0.0
 40
0.0
 40
0.1437145101
 40
0.2771516783
 40
0.3945257718
 40
0.4482033637
 40
0.5
 40
0.5517966363
 40
0.6054742282
 40
0.7228483217
 40
0.8562854899
 40
1.0
 40
1.0
 40
1.0
 40
1.0
 10
981.8516271065
 20
840.2516032081
 30
0.0
 10
981.8516271065
 20
848.1818398037
 30
0.0
 10
983.9371980518
 20
863.5708398589
 30
0.0
 10
992.998100802
 20
883.7243374715
 30
0.0
 10
1005.2867770073
 20
896.0097125118
 30
0.0
 10
1016.6788366905
 20
900.9837611623
 30
0.0
 10
1025.3828883233
 20
902.2215889653
 30
0.0
 10
1034.0869399561
 20
900.9837611623
 30
0.0
 10
1045.4789996392
 20
896.0097125118
 30
0.0
 10
1057.7676758445
 20
883.7243374715
 30
0.0
 10
1066.8285785948
 20
863.5708398589
 30
0.0
 10
1068.9141495401
 20
848.1818398037
 30
0.0
 10
1068.9141495401
 20
840.2516032081
 30
0.0
  0
SPLINE
  5
68E
100
AcDbEntity
  8
0
100
AcDbSpline
 62
7
  6
CONTINUOUS
 70
0
 71
3
 72
17
 73
13
 74
0
 42
0.0000001
 43
0.0000001
 44
0.0000000001
 40
0.0
 40
0.0
 40
0.0
 40
0.0
 40
0.1437145101
 40
0.2771516783
 40
0.3945257718
 40
0.4482033637
 40
0.5
 40
0.5517966363
 40
0.6054742282
 40
0.7228483217
 40
0.8562854899
 40
1.0
 40
1.0
 40
1.0
 40
1.0
 10
1068.9141495401
 20
840.2516032081
 30
0.0
 10
1068.9141495401
 20
832.3213666124
 30
0.0
 10
1066.8285785948
 20
816.9323665573
 30
0.0
 10
1057.7676758445
 20
796.7788689446
 30
0.0
 10
1045.4789996392
 20
784.4934939043
 30
0.0
 10
1034.0869399561
 20
779.5194452539
 30
0.0
 10
1025.3828883233
 20
778.2816174509
 30
0.0
 10
1016.6788366905
 20
779.5194452539
 30
0.0
 10
1005.2867770073
 20
784.4934939043
 30
0.0
 10
992.998100802
 20
796.7788689446
 30
0.0
 10
983.9371980518
 20
816.9323665573
 30
0.0
 10
981.8516271065
 20
832.3213666124
 30
0.0
 10
981.8516271065
 20
840.2516032081
 30
0.0
  0
SPLINE
  5
68F
100
AcDbEntity
  8
0
100
AcDbSpline
 62
7
  6
CONTINUOUS
 70
0
 71
3
 72
15
 73
11
 74
0
 42
0.0000001
 43
0.0000001
 44
0.0000000001
 40
0.0
 40
0.0
 40
0.0
 40
0.0
 40
0.1439867549
 40
0.2776727591
 40
0.3952668634
 40
0.5
 40
0.6047331366
 40
0.7223272409
 40
0.8560132451
 40
1.0
 40
1.0
 40
1.0
 40
1.0
 10
1004.7464753568
 20
840.2516032081
 30
0.0
 10
1004.7464753568
 20
845.1240550451
 30
0.0
 10
1006.021650176
 20
854.5795581547
 30
0.0
 10
1011.6138220497
 20
866.9603089545
 30
0.0
 10
1020.3483237837
 20
875.7740788875
 30
0.0
 10
1031.4922909127
 20
879.1599501046
 30
0.0
 10
1042.6362580418
 20
875.7740788875
 30
0.0
 10
1051.3707597758
 20
866.9603089545
 30
0.0
 10
1056.9629316494
 20
854.5795581547
 30
0.0
 10
1058.2381064687
 20
845.1240550451
 30
0.0
 10
1058.2381064687
 20
840.2516032081
 30
0.0
  0
SPLINE
  5
690
100
AcDbEntity
  8
0
100
AcDbSpline
 62
7
  6
CONTINUOUS
 70
0
 71
3
 72
15
 73
11
 74
0
 42
0.0000001
 43
0.0000001
 44
0.0000000001
 40
0.0
 40
0.0
 40
0.0
 40
0.0
 40
0.1439867549
 40
0.2776727591
 40
0.3952668634
 40
0.5
 40
0.6047331366
 40
0.7223272409
 40
0.8560132451
 40
1.0
 40
1.0
 40
1.0
 40
1.0
 10
1004.7464753568
 20
840.2516032081
 30
0.0
 10
1004.7464753568
 20
835.3791513711
 30
0.0
 10
1006.021650176
 20
825.9236482615
 30
0.0
 10
1011.6138220497
 20
813.5428974617
 30
0.0
 10
1020.3483237837
 20
804.7291275287
 30
0.0
 10
1031.4922909127
 20
801.3432563116
 30
0.0
 10
1042.6362580418
 20
804.7291275287
 30
0.0
 10
1051.3707597758
 20
813.5428974617
 30
0.0
 10
1056.9629316494
 20
825.9236482615
 30
0.0
 10
1058.2381064687
 20
835.3791513711
 30
0.0
 10
1058.2381064687
 20
840.2516032081
 30
0.0
  0
SPLINE
  5
691
100
AcDbEntity
  8
0
100
AcDbSpline
 62
7
  6
CONTINUOUS
 70
0
 71
3
 72
13
 73
9
 74
0
 42
0.0000001
 43
0.0000001
 44
0.0000000001
 40
0.0
 40
0.0
 40
0.0
 40
0.0
 40
0.1034560837
 40
0.2106691689
 40
0.3244983472
 40
0.4464322035
 40
0.7129528424
 40
1.0
 40
1.0
 40
1.0
 40
1.0
 10
903.6618997328
 20
768.2516032081
 30
0.0
 10
907.0046528303
 20
768.2516032081
 30
0.0
 10
913.8462694801
 20
769.2217203762
 30
0.0
 10
923.554303365
 20
773.4667615294
 30
0.0
 10
932.4205791593
 20
780.2761361591
 30
0.0
 10
942.9903831189
 20
792.7222687265
 30
0.0
 10
952.1584190868
 20
812.9994063538
 30
0.0
 10
954.5735879782
 20
830.976868068
 30
0.0
 10
954.5735879782
 20
840.2516032081
 30
0.0
  0
SPLINE
  5
692
100
AcDbEntity
  8
0
100
AcDbSpline
 62
7
  6
CONTINUOUS
 70
0
 71
3
 72
13
 73
9
 74
0
 42
0.0000001
 43
0.0000001
 44
0.0000000001
 40
0.0
 40
0.0
 40
0.0
 40
0.0
 40
0.1034101471
 40
0.2111201669
 40
0.3255765289
 40
0.4479500102
 40
0.7143176676
 40
1.0
 40
1.0
 40
1.0
 40
1.0
 10
903.654215251
 20
768.3315338822
 30
0.0
 10
906.906702909
 20
768.5480580649
 30
0.0
 10
913.5155974153
 20
769.9104914118
 30
0.0
 10
922.7913705561
 20
774.5244038071
 30
0.0
 10
931.2236690446
 20
781.5046248085
 30
0.0
 10
941.2304949068
 20
793.9244278169
 30
0.0
 10
949.885695576
 20
813.7609416803
 30
0.0
 10
952.1694249222
 20
831.2463461537
 30
0.0
 10
952.1694249222
 20
840.2516032081
 30
0.0
  0
SPLINE
  5
693
100
AcDbEntity
  8
0
100
AcDbSpline
 62
7
  6
CONTINUOUS
 70
0
 71
3
 72
9
 73
5
 74
0
 42
0.0000001
 43
0.0000001
 44
0.0000000001
 40
0.0
 40
0.0
 40
0.0
 40
0.0
 40
0.5
 40
1.0
 40
1.0
 40
1.0
 40
1.0
 10
957.5927475724
 20
1341.5281249383
 30
0.0
 10
959.0534803808
 20
1342.9390844832
 30
0.0
 10
963.2496018219
 20
1344.6430573835
 30
0.0
 10
967.4457232629
 20
1342.9390844832
 30
0.0
 10
968.9064560714
 20
1341.5281249383
 30
0.0
  0
SPLINE
  5
694
100
AcDbEntity
  8
0
100
AcDbSpline
 62
7
  6
CONTINUOUS
 70
0
 71
3
 72
11
 73
7
 74
0
 42
0.0000001
 43
0.0000001
 44
0.0000000001
 40
0.0
 40
0.0
 40
0.0
 40
0.0
 40
0.2469336798
 40
0.5
 40
0.7530663202
 40
1.0
 40
1.0
 40
1.0
 40
1.0
 10
933.6703125
 20
1440.8185027786
 30
0.0
 10
933.6703125
 20
1439.3322185356
 30
0.0
 10
932.3198437824
 20
1436.2106508552
 30
0.0
 10
927.6703125
 20
1434.4218125481
 30
0.0
 10
923.0207812176
 20
1436.2106508552
 30
0.0
 10
921.6703125
 20
1439.3322185356
 30
0.0
 10
921.6703125
 20
1440.8185027786
 30
0.0
  0
SPLINE
  5
695
100
AcDbEntity
  8
0
100
AcDbSpline
 62
7
  6
CONTINUOUS
 70
0
 71
3
 72
11
 73
7
 74
0
 42
0.0000001
 43
0.0000001
 44
0.0000000001
 40
0.0
 40
0.0
 40
0.0
 40
0.0
 40
0.2469336798
 40
0.5
 40
0.7530663202
 40
1.0
 40
1.0
 40
1.0
 40
1.0
 10
825.7703125
 20
1440.8185027786
 30
0.0
 10
825.7703125
 20
1439.3322185356
 30
0.0
 10
824.4198437824
 20
1436.2106508552
 30
0.0
 10
819.7703125
 20
1434.4218125481
 30
0.0
 10
815.1207812176
 20
1436.2106508552
 30
0.0
 10
813.7703125
 20
1439.3322185356
 30
0.0
 10
813.7703125
 20
1440.8185027786
 30
0.0
  0
SPLINE
  5
696
100
AcDbEntity
  8
0
100
AcDbSpline
 62
7
  6
CONTINUOUS
 70
0
 71
3
 72
11
 73
7
 74
0
 42
0.0000001
 43
0.0000001
 44
0.0000000001
 40
0.0
 40
0.0
 40
0.0
 40
0.0
 40
0.2469336798
 40
0.5
 40
0.7530663202
 40
1.0
 40
1.0
 40
1.0
 40
1.0
 10
825.7703125
 20
1391.7494708031
 30
0.0
 10
825.7703125
 20
1390.2631865602
 30
0.0
 10
824.4198437824
 20
1387.1416188797
 30
0.0
 10
819.7703125
 20
1385.3527805726
 30
0.0
 10
815.1207812176
 20
1387.1416188797
 30
0.0
 10
813.7703125
 20
1390.2631865602
 30
0.0
 10
813.7703125
 20
1391.7494708031
 30
0.0
  0
SPLINE
  5
697
100
AcDbEntity
  8
0
100
AcDbSpline
 62
7
  6
CONTINUOUS
 70
0
 71
3
 72
11
 73
7
 74
0
 42
0.0000001
 43
0.0000001
 44
0.0000000001
 40
0.0
 40
0.0
 40
0.0
 40
0.0
 40
0.2469336798
 40
0.5
 40
0.7530663202
 40
1.0
 40
1.0
 40
1.0
 40
1.0
 10
933.6703125
 20
1391.7494708031
 30
0.0
 10
933.6703125
 20
1390.2631865602
 30
0.0
 10
932.3198437824
 20
1387.1416188797
 30
0.0
 10
927.6703125
 20
1385.3527805726
 30
0.0
 10
923.0207812176
 20
1387.1416188797
 30
0.0
 10
921.6703125
 20
1390.2631865602
 30
0.0
 10
921.6703125
 20
1391.7494708031
 30
0.0
  0
SPLINE
  5
698
100
AcDbEntity
  8
0
100
AcDbSpline
 62
7
  6
CONTINUOUS
 70
0
 71
3
 72
11
 73
7
 74
0
 42
0.0000001
 43
0.0000001
 44
0.0000000001
 40
0.0
 40
0.0
 40
0.0
 40
0.0
 40
0.2469336798
 40
0.5
 40
0.7530663202
 40
1.0
 40
1.0
 40
1.0
 40
1.0
 10
825.7703125
 20
1391.7494708031
 30
0.0
 10
825.7703125
 20
1393.2357550461
 30
0.0
 10
824.4198437824
 20
1396.3573227265
 30
0.0
 10
819.7703125
 20
1398.1461610336
 30
0.0
 10
815.1207812176
 20
1396.3573227265
 30
0.0
 10
813.7703125
 20
1393.2357550461
 30
0.0
 10
813.7703125
 20
1391.7494708031
 30
0.0
  0
SPLINE
  5
699
100
AcDbEntity
  8
0
100
AcDbSpline
 62
7
  6
CONTINUOUS
 70
0
 71
3
 72
11
 73
7
 74
0
 42
0.0000001
 43
0.0000001
 44
0.0000000001
 40
0.0
 40
0.0
 40
0.0
 40
0.0
 40
0.2469336798
 40
0.5
 40
0.7530663202
 40
1.0
 40
1.0
 40
1.0
 40
1.0
 10
933.6703125
 20
1391.7494708031
 30
0.0
 10
933.6703125
 20
1393.2357550461
 30
0.0
 10
932.3198437824
 20
1396.3573227265
 30
0.0
 10
927.6703125
 20
1398.1461610336
 30
0.0
 10
923.0207812176
 20
1396.3573227265
 30
0.0
 10
921.6703125
 20
1393.2357550461
 30
0.0
 10
921.6703125
 20
1391.7494708031
 30
0.0
  0
SPLINE
  5
69A
100
AcDbEntity
  8
0
100
AcDbSpline
 62
7
  6
CONTINUOUS
 70
0
 71
3
 72
11
 73
7
 74
0
 42
0.0000001
 43
0.0000001
 44
0.0000000001
 40
0.0
 40
0.0
 40
0.0
 40
0.0
 40
0.2469336798
 40
0.5
 40
0.7530663202
 40
1.0
 40
1.0
 40
1.0
 40
1.0
 10
825.7703125
 20
1440.8185027786
 30
0.0
 10
825.7703125
 20
1442.3047870215
 30
0.0
 10
824.4198437824
 20
1445.426354702
 30
0.0
 10
819.7703125
 20
1447.2151930091
 30
0.0
 10
815.1207812176
 20
1445.426354702
 30
0.0
 10
813.7703125
 20
1442.3047870215
 30
0.0
 10
813.7703125
 20
1440.8185027786
 30
0.0
  0
SPLINE
  5
69B
100
AcDbEntity
  8
0
100
AcDbSpline
 62
7
  6
CONTINUOUS
 70
0
 71
3
 72
11
 73
7
 74
0
 42
0.0000001
 43
0.0000001
 44
0.0000000001
 40
0.0
 40
0.0
 40
0.0
 40
0.0
 40
0.2469336798
 40
0.5
 40
0.7530663202
 40
1.0
 40
1.0
 40
1.0
 40
1.0
 10
933.6703125
 20
1440.8185027786
 30
0.0
 10
933.6703125
 20
1442.3047870215
 30
0.0
 10
932.3198437824
 20
1445.426354702
 30
0.0
 10
927.6703125
 20
1447.2151930091
 30
0.0
 10
923.0207812176
 20
1445.426354702
 30
0.0
 10
921.6703125
 20
1442.3047870215
 30
0.0
 10
921.6703125
 20
1440.8185027786
 30
0.0
  0
SPLINE
  5
69C
100
AcDbEntity
  8
0
100
AcDbSpline
 62
7
  6
CONTINUOUS
 70
0
 71
3
 72
9
 73
5
 74
0
 42
0.0000001
 43
0.0000001
 44
0.0000000001
 40
0.0
 40
0.0
 40
0.0
 40
0.0
 40
0.5
 40
1.0
 40
1.0
 40
1.0
 40
1.0
 10
967.8457958996
 20
1367.1396237767
 30
0.0
 10
966.6772096528
 20
1368.2683914126
 30
0.0
 10
963.3203125
 20
1369.6315697329
 30
0.0
 10
959.9634153472
 20
1368.2683914126
 30
0.0
 10
958.7948291004
 20
1367.1396237767
 30
0.0
  0
SPLINE
  5
69D
100
AcDbEntity
  8
0
100
AcDbSpline
 62
7
  6
CONTINUOUS
 70
0
 71
3
 72
13
 73
9
 74
0
 42
0.0000001
 43
0.0000001
 44
0.0000000001
 40
0.0
 40
0.0
 40
0.0
 40
0.0
 40
0.1241574937
 40
0.2494781585
 40
0.5
 40
0.7505218415
 40
0.8758425063
 40
1.0
 40
1.0
 40
1.0
 40
1.0
 10
920.6703125
 20
1392.0082898482
 30
0.0
 10
920.6703125
 20
1391.1275857305
 30
0.0
 10
921.0421197919
 20
1389.3374137144
 30
0.0
 10
923.1051320881
 20
1386.3542412448
 30
0.0
 10
927.6703125
 20
1384.5086383025
 30
0.0
 10
932.2354929119
 20
1386.3542412448
 30
0.0
 10
934.2985052081
 20
1389.3374137144
 30
0.0
 10
934.6703125
 20
1391.1275857305
 30
0.0
 10
934.6703125
 20
1392.0082898482
 30
0.0
  0
SPLINE
  5
69E
100
AcDbEntity
  8
0
100
AcDbSpline
 62
7
  6
CONTINUOUS
 70
0
 71
3
 72
13
 73
9
 74
0
 42
0.0000001
 43
0.0000001
 44
0.0000000001
 40
0.0
 40
0.0
 40
0.0
 40
0.0
 40
0.1241574937
 40
0.2494781585
 40
0.5
 40
0.7505218415
 40
0.8758425063
 40
1.0
 40
1.0
 40
1.0
 40
1.0
 10
934.6703125
 20
1392.0082898482
 30
0.0
 10
934.6703125
 20
1392.8889939659
 30
0.0
 10
934.2985052081
 20
1394.679165982
 30
0.0
 10
932.2354929119
 20
1397.6623384517
 30
0.0
 10
927.6703125
 20
1399.5079413939
 30
0.0
 10
923.1051320881
 20
1397.6623384517
 30
0.0
 10
921.0421197919
 20
1394.679165982
 30
0.0
 10
920.6703125
 20
1392.8889939659
 30
0.0
 10
920.6703125
 20
1392.0082898482
 30
0.0
  0
SPLINE
  5
69F
100
AcDbEntity
  8
0
100
AcDbSpline
 62
7
  6
CONTINUOUS
 70
0
 71
3
 72
13
 73
9
 74
0
 42
0.0000001
 43
0.0000001
 44
0.0000000001
 40
0.0
 40
0.0
 40
0.0
 40
0.0
 40
0.1241574937
 40
0.2494781585
 40
0.5
 40
0.7505218415
 40
0.8758425063
 40
1.0
 40
1.0
 40
1.0
 40
1.0
 10
812.7703125
 20
1392.0082898482
 30
0.0
 10
812.7703125
 20
1391.1275857305
 30
0.0
 10
813.1421197919
 20
1389.3374137144
 30
0.0
 10
815.2051320881
 20
1386.3542412448
 30
0.0
 10
819.7703125
 20
1384.5086383025
 30
0.0
 10
824.3354929119
 20
1386.3542412448
 30
0.0
 10
826.3985052081
 20
1389.3374137144
 30
0.0
 10
826.7703125
 20
1391.1275857305
 30
0.0
 10
826.7703125
 20
1392.0082898482
 30
0.0
  0
SPLINE
  5
6A0
100
AcDbEntity
  8
0
100
AcDbSpline
 62
7
  6
CONTINUOUS
 70
0
 71
3
 72
13
 73
9
 74
0
 42
0.0000001
 43
0.0000001
 44
0.0000000001
 40
0.0
 40
0.0
 40
0.0
 40
0.0
 40
0.1241574937
 40
0.2494781585
 40
0.5
 40
0.7505218415
 40
0.8758425063
 40
1.0
 40
1.0
 40
1.0
 40
1.0
 10
826.7703125
 20
1392.0082898482
 30
0.0
 10
826.7703125
 20
1392.8889939659
 30
0.0
 10
826.3985052081
 20
1394.679165982
 30
0.0
 10
824.3354929119
 20
1397.6623384517
 30
0.0
 10
819.7703125
 20
1399.5079413939
 30
0.0
 10
815.2051320881
 20
1397.6623384517
 30
0.0
 10
813.1421197919
 20
1394.679165982
 30
0.0
 10
812.7703125
 20
1392.8889939659
 30
0.0
 10
812.7703125
 20
1392.0082898482
 30
0.0
  0
SPLINE
  5
6A1
100
AcDbEntity
  8
0
100
AcDbSpline
 62
7
  6
CONTINUOUS
 70
0
 71
3
 72
13
 73
9
 74
0
 42
0.0000001
 43
0.0000001
 44
0.0000000001
 40
0.0
 40
0.0
 40
0.0
 40
0.0
 40
0.1241574937
 40
0.2494781585
 40
0.5
 40
0.7505218415
 40
0.8758425063
 40
1.0
 40
1.0
 40
1.0
 40
1.0
 10
812.7703125
 20
1441.0773218237
 30
0.0
 10
812.7703125
 20
1440.196617706
 30
0.0
 10
813.1421197919
 20
1438.4064456899
 30
0.0
 10
815.2051320881
 20
1435.4232732202
 30
0.0
 10
819.7703125
 20
1433.577670278
 30
0.0
 10
824.3354929119
 20
1435.4232732202
 30
0.0
 10
826.3985052081
 20
1438.4064456899
 30
0.0
 10
826.7703125
 20
1440.196617706
 30
0.0
 10
826.7703125
 20
1441.0773218237
 30
0.0
  0
SPLINE
  5
6A2
100
AcDbEntity
  8
0
100
AcDbSpline
 62
7
  6
CONTINUOUS
 70
0
 71
3
 72
13
 73
9
 74
0
 42
0.0000001
 43
0.0000001
 44
0.0000000001
 40
0.0
 40
0.0
 40
0.0
 40
0.0
 40
0.1241574937
 40
0.2494781585
 40
0.5
 40
0.7505218415
 40
0.8758425063
 40
1.0
 40
1.0
 40
1.0
 40
1.0
 10
826.7703125
 20
1441.0773218237
 30
0.0
 10
826.7703125
 20
1441.9580259414
 30
0.0
 10
826.3985052081
 20
1443.7481979575
 30
0.0
 10
824.3354929119
 20
1446.7313704271
 30
0.0
 10
819.7703125
 20
1448.5769733694
 30
0.0
 10
815.2051320881
 20
1446.7313704271
 30
0.0
 10
813.1421197919
 20
1443.7481979575
 30
0.0
 10
812.7703125
 20
1441.9580259414
 30
0.0
 10
812.7703125
 20
1441.0773218237
 30
0.0
  0
SPLINE
  5
6A3
100
AcDbEntity
  8
0
100
AcDbSpline
 62
7
  6
CONTINUOUS
 70
0
 71
3
 72
13
 73
9
 74
0
 42
0.0000001
 43
0.0000001
 44
0.0000000001
 40
0.0
 40
0.0
 40
0.0
 40
0.0
 40
0.1241574937
 40
0.2494781585
 40
0.5
 40
0.7505218415
 40
0.8758425063
 40
1.0
 40
1.0
 40
1.0
 40
1.0
 10
920.6703125
 20
1441.0773218237
 30
0.0
 10
920.6703125
 20
1440.196617706
 30
0.0
 10
921.0421197919
 20
1438.4064456899
 30
0.0
 10
923.1051320881
 20
1435.4232732202
 30
0.0
 10
927.6703125
 20
1433.577670278
 30
0.0
 10
932.2354929119
 20
1435.4232732202
 30
0.0
 10
934.2985052081
 20
1438.4064456899
 30
0.0
 10
934.6703125
 20
1440.196617706
 30
0.0
 10
934.6703125
 20
1441.0773218237
 30
0.0
  0
SPLINE
  5
6A4
100
AcDbEntity
  8
0
100
AcDbSpline
 62
7
  6
CONTINUOUS
 70
0
 71
3
 72
13
 73
9
 74
0
 42
0.0000001
 43
0.0000001
 44
0.0000000001
 40
0.0
 40
0.0
 40
0.0
 40
0.0
 40
0.1241574937
 40
0.2494781585
 40
0.5
 40
0.7505218415
 40
0.8758425063
 40
1.0
 40
1.0
 40
1.0
 40
1.0
 10
934.6703125
 20
1441.0773218237
 30
0.0
 10
934.6703125
 20
1441.9580259414
 30
0.0
 10
934.2985052081
 20
1443.7481979575
 30
0.0
 10
932.2354929119
 20
1446.7313704271
 30
0.0
 10
927.6703125
 20
1448.5769733694
 30
0.0
 10
923.1051320881
 20
1446.7313704271
 30
0.0
 10
921.0421197919
 20
1443.7481979575
 30
0.0
 10
920.6703125
 20
1441.9580259414
 30
0.0
 10
920.6703125
 20
1441.0773218237
 30
0.0
  0
SPLINE
  5
6A5
100
AcDbEntity
  8
0
100
AcDbSpline
 62
7
  6
CONTINUOUS
 70
0
 71
3
 72
9
 73
5
 74
0
 42
0.0000001
 43
0.0000001
 44
0.0000000001
 40
0.0
 40
0.0
 40
0.0
 40
0.0
 40
0.5
 40
1.0
 40
1.0
 40
1.0
 40
1.0
 10
957.5927475724
 20
1342.3045820736
 30
0.0
 10
959.0534803808
 20
1343.7155416186
 30
0.0
 10
963.2496018219
 20
1345.4195145189
 30
0.0
 10
967.4457232629
 20
1343.7155416186
 30
0.0
 10
968.9064560714
 20
1342.3045820736
 30
0.0
  0
SPLINE
  5
6A6
100
AcDbEntity
  8
0
100
AcDbSpline
 62
7
  6
CONTINUOUS
 70
0
 71
3
 72
9
 73
5
 74
0
 42
0.0000001
 43
0.0000001
 44
0.0000000001
 40
0.0
 40
0.0
 40
0.0
 40
0.0
 40
0.5
 40
1.0
 40
1.0
 40
1.0
 40
1.0
 10
967.8457958996
 20
1366.4149304504
 30
0.0
 10
966.6771840764
 20
1367.5437227913
 30
0.0
 10
963.3203125
 20
1368.9074261017
 30
0.0
 10
959.9634409236
 20
1367.5437227913
 30
0.0
 10
958.7948291004
 20
1366.4149304504
 30
0.0
  0
SPLINE
  5
6A7
100
AcDbEntity
  8
0
100
AcDbSpline
 62
7
  6
CONTINUOUS
 70
0
 71
3
 72
9
 73
5
 74
0
 42
0.0000001
 43
0.0000001
 44
0.0000000001
 40
0.0
 40
0.0
 40
0.0
 40
0.0
 40
0.227240862
 40
1.0
 40
1.0
 40
1.0
 40
1.0
 10
2759.9770242707
 20
1308.0193132952
 30
0.0
 10
2760.1357297499
 20
1308.0213381245
 30
0.0
 10
2760.8335991585
 20
1308.0890898251
 30
0.0
 10
2761.4981072582
 20
1308.3663339682
 30
0.0
 10
2761.9655056169
 20
1308.6362572037
 30
0.0
  0
SPLINE
  5
6A8
100
AcDbEntity
  8
0
100
AcDbSpline
 62
7
  6
CONTINUOUS
 70
0
 71
3
 72
9
 73
5
 74
0
 42
0.0000001
 43
0.0000001
 44
0.0000000001
 40
0.0
 40
0.0
 40
0.0
 40
0.0
 40
0.2471055775
 40
1.0
 40
1.0
 40
1.0
 40
1.0
 10
2392.2814980537
 20
1682.5791334384
 30
0.0
 10
2391.0567723642
 20
1681.1801972355
 30
0.0
 10
2386.3573181951
 20
1675.299072705
 30
0.0
 10
2382.6383718003
 20
1668.6348219718
 30
0.0
 10
2380.5215375997
 20
1663.3801855548
 30
0.0
  0
SPLINE
  5
6A9
100
AcDbEntity
  8
0
100
AcDbSpline
 62
7
  6
CONTINUOUS
 70
0
 71
3
 72
9
 73
5
 74
0
 42
0.0000001
 43
0.0000001
 44
0.0000000001
 40
0.0
 40
0.0
 40
0.0
 40
0.0
 40
0.2603269448
 40
1.0
 40
1.0
 40
1.0
 40
1.0
 10
2380.5215375997
 20
1663.3801855548
 30
0.0
 10
2380.4449058759
 20
1663.1899619434
 30
0.0
 10
2380.1722203695
 20
1662.4509642423
 30
0.0
 10
2379.9865134083
 20
1661.6778760718
 30
0.0
 10
2379.9164423101
 20
1661.0994084523
 30
0.0
  0
SPLINE
  5
6AA
100
AcDbEntity
  8
0
100
AcDbSpline
 62
7
  6
CONTINUOUS
 70
0
 71
3
 72
9
 73
5
 74
0
 42
0.0000001
 43
0.0000001
 44
0.0000000001
 40
0.0
 40
0.0
 40
0.0
 40
0.0
 40
0.2640358862
 40
1.0
 40
1.0
 40
1.0
 40
1.0
 10
2379.9164423101
 20
1661.0994084523
 30
0.0
 10
2378.5009771144
 20
1649.4141230243
 30
0.0
 10
2374.3697774976
 20
1605.03450736
 30
0.0
 10
2375.3408622751
 20
1560.0506765902
 30
0.0
 10
2379.9164423101
 20
1527.5620667665
 30
0.0
  0
SPLINE
  5
6AB
100
AcDbEntity
  8
0
100
AcDbSpline
 62
7
  6
CONTINUOUS
 70
0
 71
3
 72
9
 73
5
 74
0
 42
0.0000001
 43
0.0000001
 44
0.0000000001
 40
0.0
 40
0.0
 40
0.0
 40
0.0
 40
0.2723484727
 40
1.0
 40
1.0
 40
1.0
 40
1.0
 10
2379.9164423101
 20
1527.5620667665
 30
0.0
 10
2379.9380064825
 20
1527.4089517563
 30
0.0
 10
2380.0437729545
 20
1526.8519360546
 30
0.0
 10
2380.2729441309
 20
1526.3101360944
 30
0.0
 10
2380.5215375997
 20
1525.9801764929
 30
0.0
  0
SPLINE
  5
6AC
100
AcDbEntity
  8
0
100
AcDbSpline
 62
7
  6
CONTINUOUS
 70
0
 71
3
 72
9
 73
5
 74
0
 42
0.0000001
 43
0.0000001
 44
0.0000000001
 40
0.0
 40
0.0
 40
0.0
 40
0.0
 40
0.2564016281
 40
1.0
 40
1.0
 40
1.0
 40
1.0
 10
2380.5215375997
 20
1525.9801764929
 30
0.0
 10
2380.8114848236
 20
1525.5953278043
 30
0.0
 10
2382.0102148585
 20
1524.1472335146
 30
0.0
 10
2383.4974081625
 20
1522.9341038468
 30
0.0
 10
2384.7076361827
 20
1522.2354329202
 30
0.0
  0
SPLINE
  5
6AD
100
AcDbEntity
  8
0
100
AcDbSpline
 62
7
  6
CONTINUOUS
 70
0
 71
3
 72
9
 73
5
 74
0
 42
0.0000001
 43
0.0000001
 44
0.0000000001
 40
0.0
 40
0.0
 40
0.0
 40
0.0
 40
0.2339723116
 40
1.0
 40
1.0
 40
1.0
 40
1.0
 10
2394.2699793998
 20
1684.2588912998
 30
0.0
 10
2394.0937260454
 20
1684.1571047299
 30
0.0
 10
2393.3625375329
 20
1683.6839525672
 30
0.0
 10
2392.7204387737
 20
1683.0805110689
 30
0.0
 10
2392.2814980537
 20
1682.5791334384
 30
0.0
  0
SPLINE
  5
6AE
100
AcDbEntity
  8
0
100
AcDbSpline
 62
7
  6
CONTINUOUS
 70
0
 71
3
 72
9
 73
5
 74
0
 42
0.0000001
 43
0.0000001
 44
0.0000000001
 40
0.0
 40
0.0
 40
0.0
 40
0.0
 40
0.2471055775
 40
1.0
 40
1.0
 40
1.0
 40
1.0
 10
2755.8050942617
 20
1472.6437250898
 30
0.0
 10
2754.5803685722
 20
1471.2447888869
 30
0.0
 10
2749.8809144031
 20
1465.3636643563
 30
0.0
 10
2746.1619680083
 20
1458.6994136232
 30
0.0
 10
2744.0451338077
 20
1453.4447772062
 30
0.0
  0
SPLINE
  5
6AF
100
AcDbEntity
  8
0
100
AcDbSpline
 62
7
  6
CONTINUOUS
 70
0
 71
3
 72
9
 73
5
 74
0
 42
0.0000001
 43
0.0000001
 44
0.0000000001
 40
0.0
 40
0.0
 40
0.0
 40
0.0
 40
0.2603269448
 40
1.0
 40
1.0
 40
1.0
 40
1.0
 10
2744.0451338077
 20
1453.4447772062
 30
0.0
 10
2743.9685020839
 20
1453.2545535947
 30
0.0
 10
2743.6958165775
 20
1452.5155558936
 30
0.0
 10
2743.5101096163
 20
1451.7424677231
 30
0.0
 10
2743.4400385181
 20
1451.1640001036
 30
0.0
  0
SPLINE
  5
6B0
100
AcDbEntity
  8
0
100
AcDbSpline
 62
7
  6
CONTINUOUS
 70
0
 71
3
 72
9
 73
5
 74
0
 42
0.0000001
 43
0.0000001
 44
0.0000000001
 40
0.0
 40
0.0
 40
0.0
 40
0.0
 40
0.2640358809
 40
1.0
 40
1.0
 40
1.0
 40
1.0
 10
2743.4400385181
 20
1451.1640001036
 30
0.0
 10
2742.0245733508
 20
1439.4787149107
 30
0.0
 10
2737.893373696
 20
1395.0990992516
 30
0.0
 10
2738.8644584502
 20
1350.1152684752
 30
0.0
 10
2743.4400385181
 20
1317.6266584178
 30
0.0
  0
SPLINE
  5
6B1
100
AcDbEntity
  8
0
100
AcDbSpline
 62
7
  6
CONTINUOUS
 70
0
 71
3
 72
9
 73
5
 74
0
 42
0.0000001
 43
0.0000001
 44
0.0000000001
 40
0.0
 40
0.0
 40
0.0
 40
0.0
 40
0.2723484727
 40
1.0
 40
1.0
 40
1.0
 40
1.0
 10
2743.4400385181
 20
1317.6266584178
 30
0.0
 10
2743.4616026905
 20
1317.4735434076
 30
0.0
 10
2743.5673691625
 20
1316.9165277059
 30
0.0
 10
2743.7965403389
 20
1316.3747277457
 30
0.0
 10
2744.0451338077
 20
1316.0447681442
 30
0.0
  0
SPLINE
  5
6B2
100
AcDbEntity
  8
0
100
AcDbSpline
 62
7
  6
CONTINUOUS
 70
0
 71
3
 72
9
 73
5
 74
0
 42
0.0000001
 43
0.0000001
 44
0.0000000001
 40
0.0
 40
0.0
 40
0.0
 40
0.0
 40
0.2564016281
 40
1.0
 40
1.0
 40
1.0
 40
1.0
 10
2744.0451338077
 20
1316.0447681442
 30
0.0
 10
2744.3350810316
 20
1315.6599194557
 30
0.0
 10
2745.5338110665
 20
1314.2118251659
 30
0.0
 10
2747.0210043705
 20
1312.9986954981
 30
0.0
 10
2748.2312323907
 20
1312.3000245715
 30
0.0
  0
SPLINE
  5
6B3
100
AcDbEntity
  8
0
100
AcDbSpline
 62
7
  6
CONTINUOUS
 70
0
 71
3
 72
8
 73
4
 74
0
 42
0.0000001
 43
0.0000001
 44
0.0000000001
 40
0.0
 40
0.0
 40
0.0
 40
0.0
 40
1.0
 40
1.0
 40
1.0
 40
1.0
 10
2396.4534280627
 20
1517.9547216439
 30
0.0
 10
2396.777357957
 20
1517.9588544736
 30
0.0
 10
2397.1025211981
 20
1518.0187588473
 30
0.0
 10
2397.4121502459
 20
1518.1140348118
 30
0.0
  0
SPLINE
  5
6B4
100
AcDbEntity
  8
0
100
AcDbSpline
 62
7
  6
CONTINUOUS
 70
0
 71
3
 72
11
 73
7
 74
0
 42
0.0000001
 43
0.0000001
 44
0.0000000001
 40
0.0
 40
0.0
 40
0.0
 40
0.0
 40
0.206509554
 40
0.4769158129
 40
0.7601654904
 40
1.0
 40
1.0
 40
1.0
 40
1.0
 10
2753.1405102415
 20
1597.9929152227
 30
0.0
 10
2753.6661966062
 20
1597.3476955662
 30
0.0
 10
2755.3340892257
 20
1596.2685550871
 30
0.0
 10
2758.2267427095
 20
1595.2458628456
 30
0.0
 10
2761.405801784
 20
1594.7660323068
 30
0.0
 10
2763.5470644053
 20
1594.8809865752
 30
0.0
 10
2764.4806471801
 20
1595.1313183057
 30
0.0
  0
SPLINE
  5
6B5
100
AcDbEntity
  8
0
100
AcDbSpline
 62
7
  6
CONTINUOUS
 70
0
 71
3
 72
11
 73
7
 74
0
 42
0.0000001
 43
0.0000001
 44
0.0000000001
 40
0.0
 40
0.0
 40
0.0
 40
0.0
 40
0.206509554
 40
0.4769158129
 40
0.7601654904
 40
1.0
 40
1.0
 40
1.0
 40
1.0
 10
2676.8436885515
 20
1642.0544413087
 30
0.0
 10
2677.3693749162
 20
1641.4092216522
 30
0.0
 10
2679.0372675357
 20
1640.3300811731
 30
0.0
 10
2681.9299210195
 20
1639.3073889316
 30
0.0
 10
2685.108980094
 20
1638.8275583928
 30
0.0
 10
2687.2502427152
 20
1638.9425126612
 30
0.0
 10
2688.1838254901
 20
1639.1928443918
 30
0.0
  0
SPLINE
  5
6B6
100
AcDbEntity
  8
0
100
AcDbSpline
 62
7
  6
CONTINUOUS
 70
0
 71
3
 72
11
 73
7
 74
0
 42
0.0000001
 43
0.0000001
 44
0.0000000001
 40
0.0
 40
0.0
 40
0.0
 40
0.0
 40
0.206509554
 40
0.4769158129
 40
0.7601654904
 40
1.0
 40
1.0
 40
1.0
 40
1.0
 10
2642.1466432954
 20
1632.7507441782
 30
0.0
 10
2642.6723296601
 20
1632.1055245217
 30
0.0
 10
2644.3402222796
 20
1631.0263840426
 30
0.0
 10
2647.2328757633
 20
1630.0036918011
 30
0.0
 10
2650.4119348379
 20
1629.5238612622
 30
0.0
 10
2652.5531974591
 20
1629.6388155307
 30
0.0
 10
2653.486780234
 20
1629.8891472612
 30
0.0
  0
SPLINE
  5
6B7
100
AcDbEntity
  8
0
100
AcDbSpline
 62
7
  6
CONTINUOUS
 70
0
 71
3
 72
11
 73
7
 74
0
 42
0.0000001
 43
0.0000001
 44
0.0000000001
 40
0.0
 40
0.0
 40
0.0
 40
0.0
 40
0.206509554
 40
0.4769158129
 40
0.7601654904
 40
1.0
 40
1.0
 40
1.0
 40
1.0
 10
2718.4434649854
 20
1588.6892180922
 30
0.0
 10
2718.9691513501
 20
1588.0439984357
 30
0.0
 10
2720.6370439696
 20
1586.9648579566
 30
0.0
 10
2723.5296974534
 20
1585.9421657151
 30
0.0
 10
2726.7087565279
 20
1585.4623351762
 30
0.0
 10
2728.8500191491
 20
1585.5772894447
 30
0.0
 10
2729.783601924
 20
1585.8276211752
 30
0.0
  0
SPLINE
  5
6B8
100
AcDbEntity
  8
0
100
AcDbSpline
 62
7
  6
CONTINUOUS
 70
0
 71
3
 72
9
 73
5
 74
0
 42
0.0000001
 43
0.0000001
 44
0.0000000001
 40
0.0
 40
0.0
 40
0.0
 40
0.0
 40
0.4999983613
 40
1.0
 40
1.0
 40
1.0
 40
1.0
 10
2840.0228777008
 20
1433.4756451658
 30
0.0
 10
2838.1333551173
 20
1432.3852912915
 30
0.0
 10
2835.1477394821
 20
1428.9407511652
 30
0.0
 10
2833.656433883
 20
1424.6332009374
 30
0.0
 10
2833.656433883
 20
1422.4516350875
 30
0.0
  0
SPLINE
  5
6B9
100
AcDbEntity
  8
0
100
AcDbSpline
 62
7
  6
CONTINUOUS
 70
0
 71
3
 72
9
 73
5
 74
0
 42
0.0000001
 43
0.0000001
 44
0.0000000001
 40
0.0
 40
0.0
 40
0.0
 40
0.0
 40
0.2339723116
 40
1.0
 40
1.0
 40
1.0
 40
1.0
 10
2757.7935756079
 20
1474.3234829511
 30
0.0
 10
2757.6173222534
 20
1474.2216963812
 30
0.0
 10
2756.8861337409
 20
1473.7485442186
 30
0.0
 10
2756.2440349818
 20
1473.1451027202
 30
0.0
 10
2755.8050942617
 20
1472.6437250898
 30
0.0
  0
SPLINE
  5
6BA
100
AcDbEntity
  8
0
100
AcDbSpline
 62
7
  6
CONTINUOUS
 70
0
 71
3
 72
9
 73
5
 74
0
 42
0.0000001
 43
0.0000001
 44
0.0000000001
 40
0.0
 40
0.0
 40
0.0
 40
0.0
 40
0.2431997758
 40
1.0
 40
1.0
 40
1.0
 40
1.0
 10
2752.4031623997
 20
1309.8907288912
 30
0.0
 10
2752.9547706503
 20
1309.5722825809
 30
0.0
 10
2755.3158651358
 20
1308.4235778386
 30
0.0
 10
2757.9951578281
 20
1307.9940278345
 30
0.0
 10
2759.9770242707
 20
1308.0193132952
 30
0.0
  0
SPLINE
  5
6BB
100
AcDbEntity
  8
0
100
AcDbSpline
 62
7
  6
CONTINUOUS
 70
0
 71
3
 72
9
 73
5
 74
0
 42
0.0000001
 43
0.0000001
 44
0.0000000001
 40
0.0
 40
0.0
 40
0.0
 40
0.0
 40
0.2431997758
 40
1.0
 40
1.0
 40
1.0
 40
1.0
 10
2388.8795661917
 20
1519.8261372398
 30
0.0
 10
2389.4311744423
 20
1519.5076909296
 30
0.0
 10
2391.7922689278
 20
1518.3589861872
 30
0.0
 10
2394.4715616201
 20
1517.9294361831
 30
0.0
 10
2396.4534280627
 20
1517.9547216439
 30
0.0
  0
SPLINE
  5
6BC
100
AcDbEntity
  8
0
100
AcDbSpline
 62
7
  6
CONTINUOUS
 70
0
 71
3
 72
10
 73
6
 74
0
 42
0.0000001
 43
0.0000001
 44
0.0000000001
 40
0.0
 40
0.0
 40
0.0
 40
0.0
 40
0.6123343989
 40
0.8420744805
 40
1.0
 40
1.0
 40
1.0
 40
1.0
 10
2710.2973442818
 20
1561.9937768779
 30
0.0
 10
2712.2411945141
 20
1561.6788560813
 30
0.0
 10
2714.914935384
 20
1560.8630811224
 30
0.0
 10
2717.5685207247
 20
1559.0418015211
 30
0.0
 10
2718.2766738853
 20
1557.8812141453
 30
0.0
 10
2718.2973442818
 20
1557.3737651804
 30
0.0
  0
SPLINE
  5
6BD
100
AcDbEntity
  8
0
100
AcDbSpline
 62
7
  6
CONTINUOUS
 70
0
 71
3
 72
17
 73
13
 74
0
 42
0.0000001
 43
0.0000001
 44
0.0000000001
 40
0.0
 40
0.0
 40
0.0
 40
0.0
 40
0.0561655963
 40
0.1133085759
 40
0.2327807296
 40
0.3615833138
 40
0.4969946535
 40
0.6331702126
 40
0.763928324
 40
0.8855829365
 40
0.9434745159
 40
1.0
 40
1.0
 40
1.0
 40
1.0
 10
2557.3180936685
 20
1502.0845344615
 30
0.0
 10
2557.3180936685
 20
1497.7832881576
 30
0.0
 10
2558.3490772376
 20
1489.0721620314
 30
0.0
 10
2564.4777568652
 20
1472.1892628644
 30
0.0
 10
2579.6869061443
 20
1453.4721122333
 30
0.0
 10
2605.8026195692
 20
1438.8034645889
 30
0.0
 10
2636.4106270524
 20
1432.9436654133
 30
0.0
 10
2667.503132117
 20
1436.5938696279
 30
0.0
 10
2695.0121344919
 20
1449.2909220991
 30
0.0
 10
2712.1439286228
 20
1466.7369322886
 30
0.0
 10
2720.1168992082
 20
1483.1056343129
 30
0.0
 10
2722.1118275382
 20
1491.7336011043
 30
0.0
 10
2722.5854355616
 20
1496.0364218072
 30
0.0
  0
SPLINE
  5
6BE
100
AcDbEntity
  8
0
100
AcDbSpline
 62
7
  6
CONTINUOUS
 70
0
 71
3
 72
17
 73
13
 74
0
 42
0.0000001
 43
0.0000001
 44
0.0000000001
 40
0.0
 40
0.0
 40
0.0
 40
0.0
 40
0.0563579086
 40
0.1137500099
 40
0.2339829642
 40
0.3638045736
 40
0.5
 40
0.6361954264
 40
0.7660170358
 40
0.8862499901
 40
0.9436420914
 40
1.0
 40
1.0
 40
1.0
 40
1.0
 10
2712.1180936685
 20
1502.0845344615
 30
0.0
 10
2712.1180936685
 20
1505.9348364564
 30
0.0
 10
2711.1668750821
 20
1513.7379995891
 30
0.0
 10
2705.5154609761
 20
1528.8273489518
 30
0.0
 10
2691.5253774048
 20
1545.3998913056
 30
0.0
 10
2667.722231505
 20
1557.9700633756
 30
0.0
 10
2640.1180936685
 20
1562.3465289266
 30
0.0
 10
2612.513955832
 20
1557.9700633756
 30
0.0
 10
2588.7108099321
 20
1545.3998913056
 30
0.0
 10
2574.7207263608
 20
1528.8273489518
 30
0.0
 10
2569.0693122549
 20
1513.7379995891
 30
0.0
 10
2568.1180936685
 20
1505.9348364564
 30
0.0
 10
2568.1180936685
 20
1502.0845344615
 30
0.0
  0
SPLINE
  5
6BF
100
AcDbEntity
  8
0
100
AcDbSpline
 62
7
  6
CONTINUOUS
 70
0
 71
3
 72
9
 73
5
 74
0
 42
0.0000001
 43
0.0000001
 44
0.0000000001
 40
0.0
 40
0.0
 40
0.0
 40
0.0
 40
0.2471055775
 40
1.0
 40
1.0
 40
1.0
 40
1.0
 10
2396.4534280627
 20
1680.1698377581
 30
0.0
 10
2395.2287023732
 20
1678.7709015552
 30
0.0
 10
2390.5292482041
 20
1672.8897770247
 30
0.0
 10
2386.8103018093
 20
1666.2255262915
 30
0.0
 10
2384.6934676087
 20
1660.9708898745
 30
0.0
  0
SPLINE
  5
6C0
100
AcDbEntity
  8
0
100
AcDbSpline
 62
7
  6
CONTINUOUS
 70
0
 71
3
 72
9
 73
5
 74
0
 42
0.0000001
 43
0.0000001
 44
0.0000000001
 40
0.0
 40
0.0
 40
0.0
 40
0.0
 40
0.2471055775
 40
1.0
 40
1.0
 40
1.0
 40
1.0
 10
2759.9770242707
 20
1470.2344294094
 30
0.0
 10
2758.7522985812
 20
1468.8354932065
 30
0.0
 10
2754.0528444121
 20
1462.954368676
 30
0.0
 10
2750.3338980173
 20
1456.2901179429
 30
0.0
 10
2748.2170638167
 20
1451.0354815258
 30
0.0
  0
SPLINE
  5
6C1
100
AcDbEntity
  8
0
100
AcDbSpline
 62
7
  6
CONTINUOUS
 70
0
 71
3
 72
9
 73
5
 74
0
 42
0.0000001
 43
0.0000001
 44
0.0000000001
 40
0.0
 40
0.0
 40
0.0
 40
0.0
 40
0.2736382037
 40
1.0
 40
1.0
 40
1.0
 40
1.0
 10
2677.2830829041
 20
1641.6120423441
 30
0.0
 10
2677.248470502
 20
1641.6861755212
 30
0.0
 10
2677.1403308251
 20
1641.9646272361
 30
0.0
 10
2677.1377435307
 20
1642.2885365734
 30
0.0
 10
2677.2099081432
 20
1642.4933718221
 30
0.0
  0
SPLINE
  5
6C2
100
AcDbEntity
  8
0
100
AcDbSpline
 62
7
  6
CONTINUOUS
 70
0
 71
3
 72
9
 73
5
 74
0
 42
0.0000001
 43
0.0000001
 44
0.0000000001
 40
0.0
 40
0.0
 40
0.0
 40
0.0
 40
0.2011363348
 40
1.0
 40
1.0
 40
1.0
 40
1.0
 10
2677.2099081432
 20
1642.4933718221
 30
0.0
 10
2677.2543675049
 20
1642.6195672537
 30
0.0
 10
2677.6085151275
 20
1643.2021548075
 30
0.0
 10
2678.2951439485
 20
1643.4695684945
 30
0.0
 10
2678.8084246328
 20
1643.607200042
 30
0.0
  0
SPLINE
  5
6C3
100
AcDbEntity
  8
0
100
AcDbSpline
 62
7
  6
CONTINUOUS
 70
0
 71
3
 72
9
 73
5
 74
0
 42
0.0000001
 43
0.0000001
 44
0.0000000001
 40
0.0
 40
0.0
 40
0.0
 40
0.0
 40
0.2603269448
 40
1.0
 40
1.0
 40
1.0
 40
1.0
 10
2384.6934676087
 20
1660.9708898745
 30
0.0
 10
2384.6168358849
 20
1660.7806662631
 30
0.0
 10
2384.3441503785
 20
1660.041668562
 30
0.0
 10
2384.1584434173
 20
1659.2685803915
 30
0.0
 10
2384.0883723191
 20
1658.6901127719
 30
0.0
  0
SPLINE
  5
6C4
100
AcDbEntity
  8
0
100
AcDbSpline
 62
7
  6
CONTINUOUS
 70
0
 71
3
 72
14
 73
10
 74
0
 42
0.0000001
 43
0.0000001
 44
0.0000000001
 40
0.0
 40
0.0
 40
0.0
 40
0.0
 40
0.0811514096
 40
0.151150694
 40
0.246961909
 40
0.3782348208
 40
0.5361842621
 40
0.7046844297
 40
1.0
 40
1.0
 40
1.0
 40
1.0
 10
2654.4083584666
 20
1630.2367736908
 30
0.0
 10
2654.7702100305
 20
1630.4254090061
 30
0.0
 10
2655.463597436
 20
1630.9351500628
 30
0.0
 10
2655.3993636092
 20
1632.3295056046
 30
0.0
 10
2654.3079136325
 20
1633.444062566
 30
0.0
 10
2652.6613113868
 20
1634.4555845476
 30
0.0
 10
2650.4865825599
 20
1635.2699777168
 30
0.0
 10
2647.4370402688
 20
1635.9187680925
 30
0.0
 10
2645.0216058515
 20
1635.9907200741
 30
0.0
 10
2643.5872852974
 20
1635.606120062
 30
0.0
  0
SPLINE
  5
6C5
100
AcDbEntity
  8
0
100
AcDbSpline
 62
7
  6
CONTINUOUS
 70
0
 71
3
 72
8
 73
4
 74
0
 42
0.0000001
 43
0.0000001
 44
0.0000000001
 40
0.0
 40
0.0
 40
0.0
 40
0.0
 40
1.0
 40
1.0
 40
1.0
 40
1.0
 10
2653.8059458611
 20
1629.978589466
 30
0.0
 10
2653.9743759942
 20
1630.1224036197
 30
0.0
 10
2654.1215839359
 20
1630.3081782184
 30
0.0
 10
2654.1951772405
 20
1630.5170687306
 30
0.0
  0
SPLINE
  5
6C6
100
AcDbEntity
  8
0
100
AcDbSpline
 62
7
  6
CONTINUOUS
 70
0
 71
3
 72
8
 73
4
 74
0
 42
0.0000001
 43
0.0000001
 44
0.0000000001
 40
0.0
 40
0.0
 40
0.0
 40
0.0
 40
1.0
 40
1.0
 40
1.0
 40
1.0
 10
2654.1951772405
 20
1630.5170687306
 30
0.0
 10
2654.2822144051
 20
1630.7641188935
 30
0.0
 10
2654.2582280774
 20
1631.0581326742
 30
0.0
 10
2654.1631949897
 20
1631.3022186493
 30
0.0
  0
SPLINE
  5
6C7
100
AcDbEntity
  8
0
100
AcDbSpline
 62
7
  6
CONTINUOUS
 70
0
 71
3
 72
11
 73
7
 74
0
 42
0.0000001
 43
0.0000001
 44
0.0000000001
 40
0.0
 40
0.0
 40
0.0
 40
0.0
 40
0.1832384477
 40
0.4512461818
 40
0.7473486291
 40
1.0
 40
1.0
 40
1.0
 40
1.0
 10
2654.1631949897
 20
1631.3022186493
 30
0.0
 10
2653.9198142867
 20
1631.9273253105
 30
0.0
 10
2652.5336615414
 20
1633.0514858177
 30
0.0
 10
2650.0190033102
 20
1634.0726143745
 30
0.0
 10
2647.0510840751
 20
1634.6146337155
 30
0.0
 10
2645.0047479104
 20
1634.543051559
 30
0.0
 10
2644.1113793767
 20
1634.3035029114
 30
0.0
  0
SPLINE
  5
6C8
100
AcDbEntity
  8
0
100
AcDbSpline
 62
7
  6
CONTINUOUS
 70
0
 71
3
 72
9
 73
5
 74
0
 42
0.0000001
 43
0.0000001
 44
0.0000000001
 40
0.0
 40
0.0
 40
0.0
 40
0.0
 40
0.2339723116
 40
1.0
 40
1.0
 40
1.0
 40
1.0
 10
2761.9655056169
 20
1471.9141872708
 30
0.0
 10
2761.7892522624
 20
1471.8124007009
 30
0.0
 10
2761.0580637499
 20
1471.3392485382
 30
0.0
 10
2760.4159649908
 20
1470.7358070399
 30
0.0
 10
2759.9770242707
 20
1470.2344294094
 30
0.0
  0
SPLINE
  5
6C9
100
AcDbEntity
  8
0
100
AcDbSpline
 62
7
  6
CONTINUOUS
 70
0
 71
3
 72
9
 73
5
 74
0
 42
0.0000001
 43
0.0000001
 44
0.0000000001
 40
0.0
 40
0.0
 40
0.0
 40
0.0
 40
0.2736382037
 40
1.0
 40
1.0
 40
1.0
 40
1.0
 10
2642.586037648
 20
1632.3083452135
 30
0.0
 10
2642.5514252459
 20
1632.3824783907
 30
0.0
 10
2642.443285569
 20
1632.6609301055
 30
0.0
 10
2642.4406982746
 20
1632.9848394428
 30
0.0
 10
2642.5128628871
 20
1633.1896746916
 30
0.0
  0
SPLINE
  5
6CA
100
AcDbEntity
  8
0
100
AcDbSpline
 62
7
  6
CONTINUOUS
 70
0
 71
3
 72
9
 73
5
 74
0
 42
0.0000001
 43
0.0000001
 44
0.0000000001
 40
0.0
 40
0.0
 40
0.0
 40
0.0
 40
0.2011363348
 40
1.0
 40
1.0
 40
1.0
 40
1.0
 10
2642.5128628871
 20
1633.1896746916
 30
0.0
 10
2642.5573222488
 20
1633.3158701232
 30
0.0
 10
2642.9114698714
 20
1633.898457677
 30
0.0
 10
2643.5980986924
 20
1634.165871364
 30
0.0
 10
2644.1113793767
 20
1634.3035029114
 30
0.0
  0
SPLINE
  5
6CB
100
AcDbEntity
  8
0
100
AcDbSpline
 62
7
  6
CONTINUOUS
 70
0
 71
3
 72
14
 73
10
 74
0
 42
0.0000001
 43
0.0000001
 44
0.0000000001
 40
0.0
 40
0.0
 40
0.0
 40
0.0
 40
0.0811514096
 40
0.151150694
 40
0.246961909
 40
0.3782348208
 40
0.5361842621
 40
0.7046844297
 40
1.0
 40
1.0
 40
1.0
 40
1.0
 10
2730.7051801566
 20
1586.1752476048
 30
0.0
 10
2731.0670317205
 20
1586.3638829201
 30
0.0
 10
2731.760419126
 20
1586.8736239768
 30
0.0
 10
2731.6961852993
 20
1588.2679795186
 30
0.0
 10
2730.6047353225
 20
1589.38253648
 30
0.0
 10
2728.9581330769
 20
1590.3940584616
 30
0.0
 10
2726.7834042499
 20
1591.2084516308
 30
0.0
 10
2723.7338619588
 20
1591.8572420065
 30
0.0
 10
2721.3184275415
 20
1591.929193988
 30
0.0
 10
2719.8841069874
 20
1591.544593976
 30
0.0
  0
SPLINE
  5
6CC
100
AcDbEntity
  8
0
100
AcDbSpline
 62
7
  6
CONTINUOUS
 70
0
 71
3
 72
8
 73
4
 74
0
 42
0.0000001
 43
0.0000001
 44
0.0000000001
 40
0.0
 40
0.0
 40
0.0
 40
0.0
 40
1.0
 40
1.0
 40
1.0
 40
1.0
 10
2730.1027675511
 20
1585.9170633799
 30
0.0
 10
2730.2711976843
 20
1586.0608775337
 30
0.0
 10
2730.4184056259
 20
1586.2466521324
 30
0.0
 10
2730.4919989305
 20
1586.4555426446
 30
0.0
  0
SPLINE
  5
6CD
100
AcDbEntity
  8
0
100
AcDbSpline
 62
7
  6
CONTINUOUS
 70
0
 71
3
 72
8
 73
4
 74
0
 42
0.0000001
 43
0.0000001
 44
0.0000000001
 40
0.0
 40
0.0
 40
0.0
 40
0.0
 40
1.0
 40
1.0
 40
1.0
 40
1.0
 10
2730.4919989305
 20
1586.4555426446
 30
0.0
 10
2730.5790360951
 20
1586.7025928075
 30
0.0
 10
2730.5550497674
 20
1586.9966065881
 30
0.0
 10
2730.4600166797
 20
1587.2406925633
 30
0.0
  0
SPLINE
  5
6CE
100
AcDbEntity
  8
0
100
AcDbSpline
 62
7
  6
CONTINUOUS
 70
0
 71
3
 72
11
 73
7
 74
0
 42
0.0000001
 43
0.0000001
 44
0.0000000001
 40
0.0
 40
0.0
 40
0.0
 40
0.0
 40
0.1832384477
 40
0.4512461818
 40
0.7473486291
 40
1.0
 40
1.0
 40
1.0
 40
1.0
 10
2730.4600166797
 20
1587.2406925633
 30
0.0
 10
2730.2166359768
 20
1587.8657992245
 30
0.0
 10
2728.8304832315
 20
1588.9899597317
 30
0.0
 10
2726.3158250002
 20
1590.0110882885
 30
0.0
 10
2723.3479057652
 20
1590.5531076294
 30
0.0
 10
2721.3015696004
 20
1590.4815254729
 30
0.0
 10
2720.4082010667
 20
1590.2419768254
 30
0.0
  0
SPLINE
  5
6CF
100
AcDbEntity
  8
0
100
AcDbSpline
 62
7
  6
CONTINUOUS
 70
0
 71
3
 72
9
 73
5
 74
0
 42
0.0000001
 43
0.0000001
 44
0.0000000001
 40
0.0
 40
0.0
 40
0.0
 40
0.0
 40
0.2457091695
 40
1.0
 40
1.0
 40
1.0
 40
1.0
 10
2398.7928819207
 20
1517.3347176886
 30
0.0
 10
2398.3892852225
 20
1517.5677198413
 30
0.0
 10
2396.8000466147
 20
1518.6075920565
 30
0.0
 10
2395.4603334828
 20
1520.0127704753
 30
0.0
 10
2394.6348414342
 20
1521.1812174627
 30
0.0
  0
SPLINE
  5
6D0
100
AcDbEntity
  8
0
100
AcDbSpline
 62
7
  6
CONTINUOUS
 70
0
 71
3
 72
9
 73
5
 74
0
 42
0.0000001
 43
0.0000001
 44
0.0000000001
 40
0.0
 40
0.0
 40
0.0
 40
0.0
 40
0.2640358809
 40
1.0
 40
1.0
 40
1.0
 40
1.0
 10
2384.0883723191
 20
1658.6901127719
 30
0.0
 10
2382.6729071518
 20
1647.004827579
 30
0.0
 10
2378.541707497
 20
1602.62521192
 30
0.0
 10
2379.5127922512
 20
1557.6413811435
 30
0.0
 10
2384.0883723191
 20
1525.1527710862
 30
0.0
  0
SPLINE
  5
6D1
100
AcDbEntity
  8
0
100
AcDbSpline
 62
7
  6
CONTINUOUS
 70
0
 71
3
 72
9
 73
5
 74
0
 42
0.0000001
 43
0.0000001
 44
0.0000000001
 40
0.0
 40
0.0
 40
0.0
 40
0.0
 40
0.2457275047
 40
1.0
 40
1.0
 40
1.0
 40
1.0
 10
2390.2799919826
 20
1522.2507328168
 30
0.0
 10
2389.876238295
 20
1522.4838064336
 30
0.0
 10
2388.2866718998
 20
1523.5241843837
 30
0.0
 10
2386.9462831622
 20
1524.9294605971
 30
0.0
 10
2386.120568682
 20
1526.0982224266
 30
0.0
  0
SPLINE
  5
6D2
100
AcDbEntity
  8
0
100
AcDbSpline
 62
7
  6
CONTINUOUS
 70
0
 71
3
 72
9
 73
5
 74
0
 42
0.0000001
 43
0.0000001
 44
0.0000000001
 40
0.0
 40
0.0
 40
0.0
 40
0.0
 40
0.2736382037
 40
1.0
 40
1.0
 40
1.0
 40
1.0
 10
2718.882859338
 20
1588.2468191275
 30
0.0
 10
2718.8482469359
 20
1588.3209523046
 30
0.0
 10
2718.740107259
 20
1588.5994040195
 30
0.0
 10
2718.7375199646
 20
1588.9233133568
 30
0.0
 10
2718.8096845771
 20
1589.1281486056
 30
0.0
  0
SPLINE
  5
6D3
100
AcDbEntity
  8
0
100
AcDbSpline
 62
7
  6
CONTINUOUS
 70
0
 71
3
 72
9
 73
5
 74
0
 42
0.0000001
 43
0.0000001
 44
0.0000000001
 40
0.0
 40
0.0
 40
0.0
 40
0.0
 40
0.2011363348
 40
1.0
 40
1.0
 40
1.0
 40
1.0
 10
2718.8096845771
 20
1589.1281486056
 30
0.0
 10
2718.8541439388
 20
1589.2543440372
 30
0.0
 10
2719.2082915614
 20
1589.8369315909
 30
0.0
 10
2719.8949203824
 20
1590.104345278
 30
0.0
 10
2720.4082010667
 20
1590.2419768254
 30
0.0
  0
SPLINE
  5
6D4
100
AcDbEntity
  8
0
100
AcDbSpline
 62
7
  6
CONTINUOUS
 70
0
 71
3
 72
10
 73
6
 74
0
 42
0.0000001
 43
0.0000001
 44
0.0000000001
 40
0.0
 40
0.0
 40
0.0
 40
0.0
 40
0.2342810848
 40
0.479101364
 40
1.0
 40
1.0
 40
1.0
 40
1.0
 10
2719.8576422128
 20
1523.7573699239
 30
0.0
 10
2718.0826267095
 20
1528.9366624203
 30
0.0
 10
2712.9154053704
 20
1539.0566446206
 30
0.0
 10
2697.2143979804
 20
1556.6105519698
 30
0.0
 10
2680.7344932743
 20
1565.3221351885
 30
0.0
 10
2669.0908520364
 20
1568.8731734224
 30
0.0
  0
SPLINE
  5
6D5
100
AcDbEntity
  8
0
100
AcDbSpline
 62
7
  6
CONTINUOUS
 70
0
 71
3
 72
12
 73
8
 74
0
 42
0.0000001
 43
0.0000001
 44
0.0000000001
 40
0.0
 40
0.0
 40
0.0
 40
0.0
 40
0.2722624494
 40
0.5323118815
 40
0.7728766485
 40
0.8875177811
 40
1.0
 40
1.0
 40
1.0
 40
1.0
 10
2643.2421993396
 20
1573.0983306877
 30
0.0
 10
2632.2718712634
 20
1573.4366429901
 30
0.0
 10
2610.541335213
 20
1570.5961175322
 30
0.0
 10
2582.1359908608
 20
1556.3552618071
 30
0.0
 10
2565.2853509737
 20
1537.0252490693
 30
0.0
 10
2558.4667064292
 20
1519.279084157
 30
0.0
 10
2557.3180936685
 20
1510.0839675753
 30
0.0
 10
2557.3180936685
 20
1505.5495432346
 30
0.0
  0
SPLINE
  5
6D6
100
AcDbEntity
  8
0
100
AcDbSpline
 62
7
  6
CONTINUOUS
 70
0
 71
3
 72
9
 73
5
 74
0
 42
0.0000001
 43
0.0000001
 44
0.0000000001
 40
0.0
 40
0.0
 40
0.0
 40
0.0
 40
0.2723484727
 40
1.0
 40
1.0
 40
1.0
 40
1.0
 10
2384.0883723191
 20
1525.1527710862
 30
0.0
 10
2384.1099364915
 20
1524.999656076
 30
0.0
 10
2384.2157029635
 20
1524.4426403743
 30
0.0
 10
2384.4448741399
 20
1523.900840414
 30
0.0
 10
2384.6934676087
 20
1523.5708808126
 30
0.0
  0
SPLINE
  5
6D7
100
AcDbEntity
  8
0
100
AcDbSpline
 62
7
  6
CONTINUOUS
 70
0
 71
3
 72
9
 73
5
 74
0
 42
0.0000001
 43
0.0000001
 44
0.0000000001
 40
0.0
 40
0.0
 40
0.0
 40
0.0
 40
0.2545879982
 40
1.0
 40
1.0
 40
1.0
 40
1.0
 10
2748.8210841449
 20
1312.8840911372
 30
0.0
 10
2749.0796853367
 20
1312.5825906552
 30
0.0
 10
2750.1416966559
 20
1311.4390096889
 30
0.0
 10
2751.3959534633
 20
1310.4721958454
 30
0.0
 10
2752.4031623997
 20
1309.8907288912
 30
0.0
  0
SPLINE
  5
6D8
100
AcDbEntity
  8
0
100
AcDbSpline
 62
7
  6
CONTINUOUS
 70
0
 71
3
 72
9
 73
5
 74
0
 42
0.0000001
 43
0.0000001
 44
0.0000000001
 40
0.0
 40
0.0
 40
0.0
 40
0.0
 40
0.2545879982
 40
1.0
 40
1.0
 40
1.0
 40
1.0
 10
2385.2974879369
 20
1522.8194994859
 30
0.0
 10
2385.5560891286
 20
1522.5179990039
 30
0.0
 10
2386.6181004479
 20
1521.3744180375
 30
0.0
 10
2387.8723572553
 20
1520.4076041941
 30
0.0
 10
2388.8795661917
 20
1519.8261372398
 30
0.0
  0
SPLINE
  5
6D9
100
AcDbEntity
  8
0
100
AcDbSpline
 62
7
  6
CONTINUOUS
 70
0
 71
3
 72
10
 73
6
 74
0
 42
0.0000001
 43
0.0000001
 44
0.0000000001
 40
0.0
 40
0.0
 40
0.0
 40
0.0
 40
0.1579255195
 40
0.3876656011
 40
1.0
 40
1.0
 40
1.0
 40
1.0
 10
2735.6574087867
 20
1567.5650351725
 30
0.0
 10
2735.6408724696
 20
1567.9709943444
 30
0.0
 10
2735.0743499411
 20
1568.899464245
 30
0.0
 10
2732.9514816685
 20
1570.3564879261
 30
0.0
 10
2730.8124889726
 20
1571.0091078932
 30
0.0
 10
2729.2574087867
 20
1571.2610445305
 30
0.0
  0
SPLINE
  5
6DA
100
AcDbEntity
  8
0
100
AcDbSpline
 62
7
  6
CONTINUOUS
 70
0
 71
3
 72
10
 73
6
 74
0
 42
0.0000001
 43
0.0000001
 44
0.0000000001
 40
0.0
 40
0.0
 40
0.0
 40
0.0
 40
0.6123343989
 40
0.8420744805
 40
1.0
 40
1.0
 40
1.0
 40
1.0
 10
2710.8463823874
 20
1564.6765627294
 30
0.0
 10
2712.7902326197
 20
1564.3616419328
 30
0.0
 10
2715.4639734897
 20
1563.545866974
 30
0.0
 10
2718.1175588303
 20
1561.7245873726
 30
0.0
 10
2718.825711991
 20
1560.5639999968
 30
0.0
 10
2718.8463823874
 20
1560.0565510319
 30
0.0
  0
SPLINE
  5
6DB
100
AcDbEntity
  8
0
100
AcDbSpline
 62
7
  6
CONTINUOUS
 70
0
 71
3
 72
10
 73
6
 74
0
 42
0.0000001
 43
0.0000001
 44
0.0000000001
 40
0.0
 40
0.0
 40
0.0
 40
0.0
 40
0.1579056808
 40
0.3876458059
 40
1.0
 40
1.0
 40
1.0
 40
1.0
 10
2735.1449732214
 20
1565.061101711
 30
0.0
 10
2735.1284389033
 20
1565.4670118095
 30
0.0
 10
2734.5619184745
 20
1566.3953950315
 30
0.0
 10
2732.4393598346
 20
1567.852855397
 30
0.0
 10
2730.3001110477
 20
1568.5051650935
 30
0.0
 10
2728.7449732214
 20
1568.757111069
 30
0.0
  0
SPLINE
  5
6DC
100
AcDbEntity
  8
0
100
AcDbSpline
 62
7
  6
CONTINUOUS
 70
0
 71
3
 72
11
 73
7
 74
0
 42
0.0000001
 43
0.0000001
 44
0.0000000001
 40
0.0
 40
0.0
 40
0.0
 40
0.0
 40
0.3113604064
 40
0.545637063
 40
0.7503808741
 40
1.0
 40
1.0
 40
1.0
 40
1.0
 10
2719.8841069874
 20
1591.544593976
 30
0.0
 10
2719.4826275772
 20
1591.4369409234
 30
0.0
 10
2718.7944806558
 20
1591.1850954467
 30
0.0
 10
2717.9997220174
 20
1590.4805367374
 30
0.0
 10
2717.8908757599
 20
1589.4882469828
 30
0.0
 10
2718.2329790134
 20
1588.9475654561
 30
0.0
 10
2718.4434649854
 20
1588.6892180922
 30
0.0
  0
SPLINE
  5
6DD
100
AcDbEntity
  8
0
100
AcDbSpline
 62
7
  6
CONTINUOUS
 70
0
 71
3
 72
11
 73
7
 74
0
 42
0.0000001
 43
0.0000001
 44
0.0000000001
 40
0.0
 40
0.0
 40
0.0
 40
0.0
 40
0.3113604064
 40
0.545637063
 40
0.7503808741
 40
1.0
 40
1.0
 40
1.0
 40
1.0
 10
2643.5872852974
 20
1635.606120062
 30
0.0
 10
2643.1858058871
 20
1635.4984670094
 30
0.0
 10
2642.4976589657
 20
1635.2466215327
 30
0.0
 10
2641.7029003274
 20
1634.5420628234
 30
0.0
 10
2641.5940540699
 20
1633.5497730688
 30
0.0
 10
2641.9361573234
 20
1633.0090915421
 30
0.0
 10
2642.1466432954
 20
1632.7507441782
 30
0.0
  0
SPLINE
  5
6DE
100
AcDbEntity
  8
0
100
AcDbSpline
 62
7
  6
CONTINUOUS
 70
0
 71
3
 72
9
 73
5
 74
0
 42
0.0000001
 43
0.0000001
 44
0.0000000001
 40
0.0
 40
0.0
 40
0.0
 40
0.0
 40
0.2723484727
 40
1.0
 40
1.0
 40
1.0
 40
1.0
 10
2747.6119685271
 20
1315.2173627375
 30
0.0
 10
2747.6335326995
 20
1315.0642477273
 30
0.0
 10
2747.7392991715
 20
1314.5072320256
 30
0.0
 10
2747.9684703479
 20
1313.9654320654
 30
0.0
 10
2748.2170638167
 20
1313.6354724639
 30
0.0
  0
SPLINE
  5
6DF
100
AcDbEntity
  8
0
100
AcDbSpline
 62
7
  6
CONTINUOUS
 70
0
 71
3
 72
9
 73
5
 74
0
 42
0.0000001
 43
0.0000001
 44
0.0000000001
 40
0.0
 40
0.0
 40
0.0
 40
0.0
 40
0.2360299943
 40
1.0
 40
1.0
 40
1.0
 40
1.0
 10
2394.6348414342
 20
1521.1812174627
 30
0.0
 10
2393.1485194867
 20
1531.6357926754
 30
0.0
 10
2388.5839141747
 20
1576.1730960677
 30
0.0
 10
2390.4917642852
 20
1621.2477730714
 30
0.0
 10
2394.6348414342
 20
1655.1748492097
 30
0.0
  0
SPLINE
  5
6E0
100
AcDbEntity
  8
0
100
AcDbSpline
 62
7
  6
CONTINUOUS
 70
0
 71
3
 72
11
 73
7
 74
0
 42
0.0000001
 43
0.0000001
 44
0.0000000001
 40
0.0
 40
0.0
 40
0.0
 40
0.0
 40
0.3113604064
 40
0.545637063
 40
0.7503808741
 40
1.0
 40
1.0
 40
1.0
 40
1.0
 10
2678.2843305535
 20
1644.9098171925
 30
0.0
 10
2677.8828511433
 20
1644.80216414
 30
0.0
 10
2677.1947042219
 20
1644.5503186633
 30
0.0
 10
2676.3999455835
 20
1643.8457599539
 30
0.0
 10
2676.291099326
 20
1642.8534701994
 30
0.0
 10
2676.6332025795
 20
1642.3127886726
 30
0.0
 10
2676.8436885515
 20
1642.0544413087
 30
0.0
  0
SPLINE
  5
6E1
100
AcDbEntity
  8
0
100
AcDbSpline
 62
7
  6
CONTINUOUS
 70
0
 71
3
 72
14
 73
10
 74
0
 42
0.0000001
 43
0.0000001
 44
0.0000000001
 40
0.0
 40
0.0
 40
0.0
 40
0.0
 40
0.0811514096
 40
0.151150694
 40
0.246961909
 40
0.3782348208
 40
0.5361842621
 40
0.7046844297
 40
1.0
 40
1.0
 40
1.0
 40
1.0
 10
2765.4022254128
 20
1595.4789447354
 30
0.0
 10
2765.7640769766
 20
1595.6675800507
 30
0.0
 10
2766.4574643822
 20
1596.1773211073
 30
0.0
 10
2766.3932305554
 20
1597.5716766491
 30
0.0
 10
2765.3017805786
 20
1598.6862336105
 30
0.0
 10
2763.655178333
 20
1599.6977555922
 30
0.0
 10
2761.4804495061
 20
1600.5121487613
 30
0.0
 10
2758.4309072149
 20
1601.160939137
 30
0.0
 10
2756.0154727976
 20
1601.2328911186
 30
0.0
 10
2754.5811522435
 20
1600.8482911065
 30
0.0
  0
SPLINE
  5
6E2
100
AcDbEntity
  8
0
100
AcDbSpline
 62
7
  6
CONTINUOUS
 70
0
 71
3
 72
11
 73
7
 74
0
 42
0.0000001
 43
0.0000001
 44
0.0000000001
 40
0.0
 40
0.0
 40
0.0
 40
0.0
 40
0.3113604064
 40
0.545637063
 40
0.7503808741
 40
1.0
 40
1.0
 40
1.0
 40
1.0
 10
2754.5811522435
 20
1600.8482911065
 30
0.0
 10
2754.1796728333
 20
1600.740638054
 30
0.0
 10
2753.4915259119
 20
1600.4887925773
 30
0.0
 10
2752.6967672736
 20
1599.7842338679
 30
0.0
 10
2752.587921016
 20
1598.7919441133
 30
0.0
 10
2752.9300242695
 20
1598.2512625866
 30
0.0
 10
2753.1405102415
 20
1597.9929152227
 30
0.0
  0
SPLINE
  5
6E3
100
AcDbEntity
  8
0
100
AcDbSpline
 62
7
  6
CONTINUOUS
 70
0
 71
3
 72
8
 73
4
 74
0
 42
0.0000001
 43
0.0000001
 44
0.0000000001
 40
0.0
 40
0.0
 40
0.0
 40
0.0
 40
1.0
 40
1.0
 40
1.0
 40
1.0
 10
2764.7998128073
 20
1595.2207605105
 30
0.0
 10
2764.9682429404
 20
1595.3645746643
 30
0.0
 10
2765.115450882
 20
1595.5503492629
 30
0.0
 10
2765.1890441866
 20
1595.7592397751
 30
0.0
  0
SPLINE
  5
6E4
100
AcDbEntity
  8
0
100
AcDbSpline
 62
7
  6
CONTINUOUS
 70
0
 71
3
 72
8
 73
4
 74
0
 42
0.0000001
 43
0.0000001
 44
0.0000000001
 40
0.0
 40
0.0
 40
0.0
 40
0.0
 40
1.0
 40
1.0
 40
1.0
 40
1.0
 10
2765.1890441866
 20
1595.7592397751
 30
0.0
 10
2765.2760813512
 20
1596.006289938
 30
0.0
 10
2765.2520950236
 20
1596.3003037187
 30
0.0
 10
2765.1570619358
 20
1596.5443896938
 30
0.0
  0
SPLINE
  5
6E5
100
AcDbEntity
  8
0
100
AcDbSpline
 62
7
  6
CONTINUOUS
 70
0
 71
3
 72
11
 73
7
 74
0
 42
0.0000001
 43
0.0000001
 44
0.0000000001
 40
0.0
 40
0.0
 40
0.0
 40
0.0
 40
0.1832384477
 40
0.4512461818
 40
0.7473486291
 40
1.0
 40
1.0
 40
1.0
 40
1.0
 10
2765.1570619358
 20
1596.5443896938
 30
0.0
 10
2764.9136812329
 20
1597.1694963551
 30
0.0
 10
2763.5275284876
 20
1598.2936568622
 30
0.0
 10
2761.0128702563
 20
1599.314785419
 30
0.0
 10
2758.0449510213
 20
1599.85680476
 30
0.0
 10
2755.9986148566
 20
1599.7852226035
 30
0.0
 10
2755.1052463228
 20
1599.5456739559
 30
0.0
  0
SPLINE
  5
6E6
100
AcDbEntity
  8
0
100
AcDbSpline
 62
7
  6
CONTINUOUS
 70
0
 71
3
 72
16
 73
12
 74
0
 42
0.0000001
 43
0.0000001
 44
0.0000000001
 40
0.0
 40
0.0
 40
0.0
 40
0.0
 40
0.1158929059
 40
0.2403369609
 40
0.3726247663
 40
0.5085329366
 40
0.6423841438
 40
0.7693152122
 40
0.8874463861
 40
0.9441603082
 40
1.0
 40
1.0
 40
1.0
 40
1.0
 10
2720.1765984983
 20
1519.3348884591
 30
0.0
 10
2717.5821090829
 20
1527.3595269076
 30
0.0
 10
2708.3989916999
 20
1542.9141567206
 30
0.0
 10
2686.5222356525
 20
1559.8054839262
 30
0.0
 10
2659.1130153292
 20
1569.3582293167
 30
0.0
 10
2629.468679607
 20
1570.5704710744
 30
0.0
 10
2601.0767513301
 20
1563.3256322455
 30
0.0
 10
2577.311028646
 20
1548.3830151813
 30
0.0
 10
2563.6991426412
 20
1530.3598958859
 30
0.0
 10
2558.236192387
 20
1514.3674155605
 30
0.0
 10
2557.3180936685
 20
1506.1480409377
 30
0.0
 10
2557.3180936685
 20
1502.0845344615
 30
0.0
  0
SPLINE
  5
6E7
100
AcDbEntity
  8
0
100
AcDbSpline
 62
7
  6
CONTINUOUS
 70
0
 71
3
 72
17
 73
13
 74
0
 42
0.0000001
 43
0.0000001
 44
0.0000000001
 40
0.0
 40
0.0
 40
0.0
 40
0.0
 40
0.0563579086
 40
0.1137500099
 40
0.2339829642
 40
0.3638045736
 40
0.5
 40
0.6361954264
 40
0.7660170358
 40
0.8862499901
 40
0.9436420914
 40
1.0
 40
1.0
 40
1.0
 40
1.0
 10
2568.1180936685
 20
1502.0845344615
 30
0.0
 10
2568.1180936685
 20
1498.2342324665
 30
0.0
 10
2569.0693122549
 20
1490.4310693338
 30
0.0
 10
2574.7207263608
 20
1475.3417199712
 30
0.0
 10
2588.7108099321
 20
1458.7691776173
 30
0.0
 10
2612.513955832
 20
1446.1990055473
 30
0.0
 10
2640.1180936685
 20
1441.8225399963
 30
0.0
 10
2667.722231505
 20
1446.1990055473
 30
0.0
 10
2691.5253774048
 20
1458.7691776173
 30
0.0
 10
2705.5154609761
 20
1475.3417199712
 30
0.0
 10
2711.1668750821
 20
1490.4310693338
 30
0.0
 10
2712.1180936685
 20
1498.2342324665
 30
0.0
 10
2712.1180936685
 20
1502.0845344615
 30
0.0
  0
SPLINE
  5
6E8
100
AcDbEntity
  8
0
100
AcDbSpline
 62
7
  6
CONTINUOUS
 70
0
 71
3
 72
9
 73
5
 74
0
 42
0.0000001
 43
0.0000001
 44
0.0000000001
 40
0.0
 40
0.0
 40
0.0
 40
0.0
 40
0.2640358809
 40
1.0
 40
1.0
 40
1.0
 40
1.0
 10
2747.6119685271
 20
1448.7547044233
 30
0.0
 10
2746.1965033598
 20
1437.0694192303
 30
0.0
 10
2742.065303705
 20
1392.6898035713
 30
0.0
 10
2743.0363884592
 20
1347.7059727949
 30
0.0
 10
2747.6119685271
 20
1315.2173627375
 30
0.0
  0
SPLINE
  5
6E9
100
AcDbEntity
  8
0
100
AcDbSpline
 62
7
  6
CONTINUOUS
 70
0
 71
3
 72
17
 73
13
 74
0
 42
0.0000001
 43
0.0000001
 44
0.0000000001
 40
0.0
 40
0.0
 40
0.0
 40
0.0
 40
0.0563303913
 40
0.113795608
 40
0.2342622174
 40
0.3640705623
 40
0.5
 40
0.6359294377
 40
0.7657377826
 40
0.886204392
 40
0.9436696087
 40
1.0
 40
1.0
 40
1.0
 40
1.0
 10
2568.1576131941
 20
1502.104618469
 30
0.0
 10
2568.3110057545
 20
1498.3310327403
 30
0.0
 10
2569.5337423104
 20
1490.7152666212
 30
0.0
 10
2575.5501287697
 20
1476.0795740599
 30
0.0
 10
2589.6096214625
 20
1460.1252023043
 30
0.0
 10
2613.0701857163
 20
1448.0466506442
 30
0.0
 10
2640.1180936685
 20
1443.8469215825
 30
0.0
 10
2667.1660016207
 20
1448.0466506442
 30
0.0
 10
2690.6265658745
 20
1460.1252023043
 30
0.0
 10
2704.6860585673
 20
1476.0795740599
 30
0.0
 10
2710.7024450265
 20
1490.7152666212
 30
0.0
 10
2711.9251815825
 20
1498.3310327403
 30
0.0
 10
2712.0785741429
 20
1502.104618469
 30
0.0
  0
SPLINE
  5
6EA
100
AcDbEntity
  8
0
100
AcDbSpline
 62
7
  6
CONTINUOUS
 70
0
 71
3
 72
17
 73
13
 74
0
 42
0.0000001
 43
0.0000001
 44
0.0000000001
 40
0.0
 40
0.0
 40
0.0
 40
0.0
 40
0.0563573738
 40
0.1137501647
 40
0.2339830475
 40
0.3638047256
 40
0.5
 40
0.6361952744
 40
0.7660169525
 40
0.8862498353
 40
0.9436426262
 40
1.0
 40
1.0
 40
1.0
 40
1.0
 10
2701.6805936685
 20
1504.0480394329
 30
0.0
 10
2701.6805936685
 20
1507.3401495484
 30
0.0
 10
2700.867247599
 20
1514.0121236823
 30
0.0
 10
2696.0352353726
 20
1526.9140990252
 30
0.0
 10
2684.0731292171
 20
1541.0842056037
 30
0.0
 10
2663.7205777389
 20
1551.8320386497
 30
0.0
 10
2640.1180936685
 20
1555.5739382295
 30
0.0
 10
2616.515609598
 20
1551.8320386497
 30
0.0
 10
2596.1630581198
 20
1541.0842056037
 30
0.0
 10
2584.2009519643
 20
1526.9140990253
 30
0.0
 10
2579.368939738
 20
1514.0121236823
 30
0.0
 10
2578.5555936685
 20
1507.3401495484
 30
0.0
 10
2578.5555936685
 20
1504.0480394329
 30
0.0
  0
SPLINE
  5
6EB
100
AcDbEntity
  8
0
100
AcDbSpline
 62
7
  6
CONTINUOUS
 70
0
 71
3
 72
17
 73
13
 74
0
 42
0.0000001
 43
0.0000001
 44
0.0000000001
 40
0.0
 40
0.0
 40
0.0
 40
0.0
 40
0.0563573738
 40
0.1137501647
 40
0.2339830475
 40
0.3638047256
 40
0.5
 40
0.6361952744
 40
0.7660169525
 40
0.8862498353
 40
0.9436426262
 40
1.0
 40
1.0
 40
1.0
 40
1.0
 10
2578.5555936685
 20
1504.0480394329
 30
0.0
 10
2578.5555936685
 20
1500.7559293174
 30
0.0
 10
2579.368939738
 20
1494.0839551835
 30
0.0
 10
2584.2009519643
 20
1481.1819798406
 30
0.0
 10
2596.1630581198
 20
1467.0118732621
 30
0.0
 10
2616.515609598
 20
1456.2640402161
 30
0.0
 10
2640.1180936685
 20
1452.5221406363
 30
0.0
 10
2663.7205777389
 20
1456.2640402161
 30
0.0
 10
2684.0731292171
 20
1467.0118732621
 30
0.0
 10
2696.0352353726
 20
1481.1819798406
 30
0.0
 10
2700.867247599
 20
1494.0839551835
 30
0.0
 10
2701.6805936685
 20
1500.7559293174
 30
0.0
 10
2701.6805936685
 20
1504.0480394329
 30
0.0
  0
SPLINE
  5
6EC
100
AcDbEntity
  8
0
100
AcDbSpline
 62
7
  6
CONTINUOUS
 70
0
 71
3
 72
15
 73
11
 74
0
 42
0.0000001
 43
0.0000001
 44
0.0000000001
 40
0.0
 40
0.0
 40
0.0
 40
0.0
 40
0.1131414313
 40
0.2335632404
 40
0.3635898219
 40
0.5
 40
0.6364101781
 40
0.7664367596
 40
0.8868585687
 40
1.0
 40
1.0
 40
1.0
 40
1.0
 10
2677.9423887644
 20
1509.0376520662
 30
0.0
 10
2677.9423887644
 20
1513.091934044
 30
0.0
 10
2675.8024644012
 20
1521.5701560987
 30
0.0
 10
2667.1241257065
 20
1531.7757594419
 30
0.0
 10
2654.6195539756
 20
1538.4016312928
 30
0.0
 10
2640.1180936685
 20
1540.6926247099
 30
0.0
 10
2625.6166333614
 20
1538.4016312928
 30
0.0
 10
2613.1120616304
 20
1531.7757594419
 30
0.0
 10
2604.4337229357
 20
1521.5701560987
 30
0.0
 10
2602.2937985726
 20
1513.091934044
 30
0.0
 10
2602.2937985726
 20
1509.0376520662
 30
0.0
  0
SPLINE
  5
6ED
100
AcDbEntity
  8
0
100
AcDbSpline
 62
7
  6
CONTINUOUS
 70
0
 71
3
 72
15
 73
11
 74
0
 42
0.0000001
 43
0.0000001
 44
0.0000000001
 40
0.0
 40
0.0
 40
0.0
 40
0.0
 40
0.1131414313
 40
0.2335632404
 40
0.3635898219
 40
0.5
 40
0.6364101781
 40
0.7664367596
 40
0.8868585687
 40
1.0
 40
1.0
 40
1.0
 40
1.0
 10
2677.9423887644
 20
1509.0376520662
 30
0.0
 10
2677.9423887644
 20
1504.9833700884
 30
0.0
 10
2675.8024644012
 20
1496.5051480336
 30
0.0
 10
2667.1241257065
 20
1486.2995446904
 30
0.0
 10
2654.6195539756
 20
1479.6736728396
 30
0.0
 10
2640.1180936685
 20
1477.3826794224
 30
0.0
 10
2625.6166333614
 20
1479.6736728396
 30
0.0
 10
2613.1120616304
 20
1486.2995446904
 30
0.0
 10
2604.4337229357
 20
1496.5051480336
 30
0.0
 10
2602.2937985726
 20
1504.9833700884
 30
0.0
 10
2602.2937985726
 20
1509.0376520662
 30
0.0
  0
SPLINE
  5
6EE
100
AcDbEntity
  8
0
100
AcDbSpline
 62
7
  6
CONTINUOUS
 70
0
 71
3
 72
13
 73
9
 74
0
 42
0.0000001
 43
0.0000001
 44
0.0000000001
 40
0.0
 40
0.0
 40
0.0
 40
0.0
 40
0.2912897748
 40
0.4468454815
 40
0.5896621729
 40
0.8017405315
 40
0.8929097994
 40
1.0
 40
1.0
 40
1.0
 40
1.0
 10
2844.9701423819
 20
1429.8020286885
 30
0.0
 10
2844.9701423819
 20
1427.9510763517
 30
0.0
 10
2844.0327882461
 20
1425.1127924138
 30
0.0
 10
2841.8578414756
 20
1422.0250972131
 30
0.0
 10
2839.5284910522
 20
1419.8471737143
 30
0.0
 10
2836.3331326367
 20
1418.6957467179
 30
0.0
 10
2834.1447447663
 20
1420.4736406545
 30
0.0
 10
2833.7934413498
 20
1421.7447873106
 30
0.0
 10
2833.7081244708
 20
1422.4199046065
 30
0.0
  0
SPLINE
  5
6EF
100
AcDbEntity
  8
0
100
AcDbSpline
 62
7
  6
CONTINUOUS
 70
0
 71
3
 72
10
 73
6
 74
0
 42
0.0000001
 43
0.0000001
 44
0.0000000001
 40
0.0
 40
0.0
 40
0.0
 40
0.0
 40
0.5088273546
 40
0.7348009373
 40
1.0
 40
1.0
 40
1.0
 40
1.0
 10
2844.9701423819
 20
1429.8020286885
 30
0.0
 10
2844.9701423819
 20
1431.0547277353
 30
0.0
 10
2844.40647802
 20
1433.2118369285
 30
0.0
 10
2841.8936999474
 20
1434.0164513551
 30
0.0
 10
2840.6780549718
 20
1433.6999801807
 30
0.0
 10
2840.0761447344
 20
1433.447026349
 30
0.0
  0
SPLINE
  5
6F0
100
AcDbEntity
  8
0
100
AcDbSpline
 62
7
  6
CONTINUOUS
 70
0
 71
3
 72
9
 73
5
 74
0
 42
0.0000001
 43
0.0000001
 44
0.0000000001
 40
0.0
 40
0.0
 40
0.0
 40
0.0
 40
0.2339723116
 40
1.0
 40
1.0
 40
1.0
 40
1.0
 10
2398.4419094088
 20
1681.8495956195
 30
0.0
 10
2398.2656560544
 20
1681.7478090495
 30
0.0
 10
2397.5344675419
 20
1681.2746568869
 30
0.0
 10
2396.8923687827
 20
1680.6712153886
 30
0.0
 10
2396.4534280627
 20
1680.1698377581
 30
0.0
  0
SPLINE
  5
6F1
100
AcDbEntity
  8
0
100
AcDbSpline
 62
7
  6
CONTINUOUS
 70
0
 71
3
 72
9
 73
5
 74
0
 42
0.0000001
 43
0.0000001
 44
0.0000000001
 40
0.0
 40
0.0
 40
0.0
 40
0.0
 40
0.2603269448
 40
1.0
 40
1.0
 40
1.0
 40
1.0
 10
2748.2170638167
 20
1451.0354815258
 30
0.0
 10
2748.1404320929
 20
1450.8452579144
 30
0.0
 10
2747.8677465865
 20
1450.1062602133
 30
0.0
 10
2747.6820396253
 20
1449.3331720428
 30
0.0
 10
2747.6119685271
 20
1448.7547044233
 30
0.0
  0
SPLINE
  5
6F2
100
AcDbEntity
  8
0
100
AcDbSpline
 62
7
  6
CONTINUOUS
 70
0
 71
3
 72
9
 73
5
 74
0
 42
0.0000001
 43
0.0000001
 44
0.0000000001
 40
0.0
 40
0.0
 40
0.0
 40
0.0
 40
0.7531353111
 40
1.0
 40
1.0
 40
1.0
 40
1.0
 10
2386.120568682
 20
1660.0918541736
 30
0.0
 10
2388.1541748094
 20
1665.3191535033
 30
0.0
 10
2391.8223526287
 20
1671.9393918142
 30
0.0
 10
2396.5185770547
 20
1677.7251135496
 30
0.0
 10
2397.7448525665
 20
1679.0949236446
 30
0.0
  0
SPLINE
  5
6F3
100
AcDbEntity
  8
0
100
AcDbSpline
 62
7
  6
CONTINUOUS
 70
0
 71
3
 72
9
 73
5
 74
0
 42
0.0000001
 43
0.0000001
 44
0.0000000001
 40
0.0
 40
0.0
 40
0.0
 40
0.0
 40
0.2360299943
 40
1.0
 40
1.0
 40
1.0
 40
1.0
 10
2386.120568682
 20
1526.0982224266
 30
0.0
 10
2384.6342467345
 20
1536.5527976392
 30
0.0
 10
2380.0696414224
 20
1581.0901010315
 30
0.0
 10
2381.9774915329
 20
1626.1647780352
 30
0.0
 10
2386.120568682
 20
1660.0918541736
 30
0.0
  0
SPLINE
  5
6F4
100
AcDbEntity
  8
0
100
AcDbSpline
 62
7
  6
CONTINUOUS
 70
0
 71
3
 72
11
 73
7
 74
0
 42
0.0000001
 43
0.0000001
 44
0.0000000001
 40
0.0
 40
0.0
 40
0.0
 40
0.0
 40
0.2754005176
 40
0.4999973897
 40
0.7246205667
 40
1.0
 40
1.0
 40
1.0
 40
1.0
 10
2846.3843559443
 20
1429.8020286885
 30
0.0
 10
2846.3843559443
 20
1430.6612310686
 30
0.0
 10
2846.1754271388
 20
1432.2580612344
 30
0.0
 10
2844.6587178592
 20
1434.1586905275
 30
0.0
 10
2842.2544528175
 20
1434.5223030664
 30
0.0
 10
2840.7670077259
 20
1433.9050473137
 30
0.0
 10
2840.0228777008
 20
1433.4756451658
 30
0.0
  0
SPLINE
  5
6F5
100
AcDbEntity
  8
0
100
AcDbSpline
 62
7
  6
CONTINUOUS
 70
0
 71
3
 72
14
 73
10
 74
0
 42
0.0000001
 43
0.0000001
 44
0.0000000001
 40
0.0
 40
0.0
 40
0.0
 40
0.0
 40
0.1145760308
 40
0.2080137677
 40
0.3014754077
 40
0.416068206
 40
0.5551532688
 40
0.7092237488
 40
1.0
 40
1.0
 40
1.0
 40
1.0
 10
2833.656433883
 20
1422.4516350875
 30
0.0
 10
2833.656433883
 20
1421.5922459892
 30
0.0
 10
2833.8655651152
 20
1419.9952576465
 30
0.0
 10
2835.3826583724
 20
1418.0936238543
 30
0.0
 10
2837.7899188618
 20
1417.7340712909
 30
0.0
 10
2840.2624747971
 20
1418.7500155704
 30
0.0
 10
2842.6340072463
 20
1420.7398262644
 30
0.0
 10
2845.2243326406
 20
1424.2830858962
 30
0.0
 10
2846.3843559443
 20
1427.62103203
 30
0.0
 10
2846.3843559443
 20
1429.8020286885
 30
0.0
  0
SPLINE
  5
6F6
100
AcDbEntity
  8
0
100
AcDbSpline
 62
7
  6
CONTINUOUS
 70
0
 71
3
 72
9
 73
5
 74
0
 42
0.0000001
 43
0.0000001
 44
0.0000000001
 40
0.0
 40
0.0
 40
0.0
 40
0.0
 40
0.2736382037
 40
1.0
 40
1.0
 40
1.0
 40
1.0
 10
2753.5799045941
 20
1597.550516258
 30
0.0
 10
2753.545292192
 20
1597.6246494352
 30
0.0
 10
2753.4371525152
 20
1597.90310115
 30
0.0
 10
2753.4345652208
 20
1598.2270104873
 30
0.0
 10
2753.5067298332
 20
1598.4318457361
 30
0.0
  0
SPLINE
  5
6F7
100
AcDbEntity
  8
0
100
AcDbSpline
 62
7
  6
CONTINUOUS
 70
0
 71
3
 72
9
 73
5
 74
0
 42
0.0000001
 43
0.0000001
 44
0.0000000001
 40
0.0
 40
0.0
 40
0.0
 40
0.0
 40
0.2011363348
 40
1.0
 40
1.0
 40
1.0
 40
1.0
 10
2753.5067298332
 20
1598.4318457361
 30
0.0
 10
2753.5511891949
 20
1598.5580411677
 30
0.0
 10
2753.9053368176
 20
1599.1406287215
 30
0.0
 10
2754.5919656385
 20
1599.4080424085
 30
0.0
 10
2755.1052463228
 20
1599.5456739559
 30
0.0
  0
SPLINE
  5
6F8
100
AcDbEntity
  8
0
100
AcDbSpline
 62
7
  6
CONTINUOUS
 70
0
 71
3
 72
14
 73
10
 74
0
 42
0.0000001
 43
0.0000001
 44
0.0000000001
 40
0.0
 40
0.0
 40
0.0
 40
0.0
 40
0.0811514096
 40
0.151150694
 40
0.246961909
 40
0.3782348208
 40
0.5361842621
 40
0.7046844297
 40
1.0
 40
1.0
 40
1.0
 40
1.0
 10
2689.1054037227
 20
1639.5404708214
 30
0.0
 10
2689.4672552866
 20
1639.7291061367
 30
0.0
 10
2690.1606426921
 20
1640.2388471933
 30
0.0
 10
2690.0964088653
 20
1641.6332027352
 30
0.0
 10
2689.0049588886
 20
1642.7477596966
 30
0.0
 10
2687.358356643
 20
1643.7592816782
 30
0.0
 10
2685.183627816
 20
1644.5736748474
 30
0.0
 10
2682.1340855249
 20
1645.2224652231
 30
0.0
 10
2679.7186511076
 20
1645.2944172046
 30
0.0
 10
2678.2843305535
 20
1644.9098171925
 30
0.0
  0
SPLINE
  5
6F9
100
AcDbEntity
  8
0
100
AcDbSpline
 62
7
  6
CONTINUOUS
 70
0
 71
3
 72
8
 73
4
 74
0
 42
0.0000001
 43
0.0000001
 44
0.0000000001
 40
0.0
 40
0.0
 40
0.0
 40
0.0
 40
1.0
 40
1.0
 40
1.0
 40
1.0
 10
2688.5029911172
 20
1639.2822865965
 30
0.0
 10
2688.6714212504
 20
1639.4261007503
 30
0.0
 10
2688.818629192
 20
1639.6118753489
 30
0.0
 10
2688.8922224966
 20
1639.8207658611
 30
0.0
  0
SPLINE
  5
6FA
100
AcDbEntity
  8
0
100
AcDbSpline
 62
7
  6
CONTINUOUS
 70
0
 71
3
 72
8
 73
4
 74
0
 42
0.0000001
 43
0.0000001
 44
0.0000000001
 40
0.0
 40
0.0
 40
0.0
 40
0.0
 40
1.0
 40
1.0
 40
1.0
 40
1.0
 10
2688.8922224966
 20
1639.8207658611
 30
0.0
 10
2688.9792596612
 20
1640.067816024
 30
0.0
 10
2688.9552733335
 20
1640.3618298047
 30
0.0
 10
2688.8602402458
 20
1640.6059157798
 30
0.0
  0
SPLINE
  5
6FB
100
AcDbEntity
  8
0
100
AcDbSpline
 62
7
  6
CONTINUOUS
 70
0
 71
3
 72
11
 73
7
 74
0
 42
0.0000001
 43
0.0000001
 44
0.0000000001
 40
0.0
 40
0.0
 40
0.0
 40
0.0
 40
0.1832384477
 40
0.4512461818
 40
0.7473486291
 40
1.0
 40
1.0
 40
1.0
 40
1.0
 10
2688.8602402458
 20
1640.6059157798
 30
0.0
 10
2688.6168595429
 20
1641.2310224411
 30
0.0
 10
2687.2307067976
 20
1642.3551829482
 30
0.0
 10
2684.7160485663
 20
1643.376311505
 30
0.0
 10
2681.7481293313
 20
1643.918330846
 30
0.0
 10
2679.7017931665
 20
1643.8467486895
 30
0.0
 10
2678.8084246328
 20
1643.607200042
 30
0.0
  0
SPLINE
  5
6FC
100
AcDbEntity
  8
0
100
AcDbSpline
 62
7
  6
CONTINUOUS
 70
0
 71
3
 72
13
 73
9
 74
0
 42
0.0000001
 43
0.0000001
 44
0.0000000001
 40
0.0
 40
0.0
 40
0.0
 40
0.0
 40
0.0783095237
 40
0.1943569127
 40
0.5
 40
0.8056430873
 40
0.9216904763
 40
1.0
 40
1.0
 40
1.0
 40
1.0
 10
934.4155129534
 20
301.1726239144
 30
0.0
 10
934.1502251265
 20
301.4207090728
 30
0.0
 10
933.3048322943
 20
301.8071351509
 30
0.0
 10
931.0626068273
 20
302.3702489186
 30
0.0
 10
927.6703125
 20
302.5942784118
 30
0.0
 10
924.2780181727
 20
302.3702489186
 30
0.0
 10
922.0357927057
 20
301.8071351509
 30
0.0
 10
921.1903998735
 20
301.4207090728
 30
0.0
 10
920.9251120466
 20
301.1726239144
 30
0.0
  0
SPLINE
  5
6FD
100
AcDbEntity
  8
0
100
AcDbSpline
 62
7
  6
CONTINUOUS
 70
0
 71
3
 72
13
 73
9
 74
0
 42
0.0000001
 43
0.0000001
 44
0.0000000001
 40
0.0
 40
0.0
 40
0.0
 40
0.0
 40
0.0783095237
 40
0.1943569127
 40
0.5
 40
0.8056430873
 40
0.9216904763
 40
1.0
 40
1.0
 40
1.0
 40
1.0
 10
826.5155129534
 20
301.1726239144
 30
0.0
 10
826.2502251265
 20
301.4207090728
 30
0.0
 10
825.4048322943
 20
301.8071351509
 30
0.0
 10
823.1626068273
 20
302.3702489186
 30
0.0
 10
819.7703125
 20
302.5942784118
 30
0.0
 10
816.3780181727
 20
302.3702489186
 30
0.0
 10
814.1357927057
 20
301.8071351509
 30
0.0
 10
813.2903998735
 20
301.4207090728
 30
0.0
 10
813.0251120466
 20
301.1726239144
 30
0.0
  0
SPLINE
  5
6FE
100
AcDbEntity
  8
0
100
AcDbSpline
 62
7
  6
CONTINUOUS
 70
0
 71
3
 72
13
 73
9
 74
0
 42
0.0000001
 43
0.0000001
 44
0.0000000001
 40
0.0
 40
0.0
 40
0.0
 40
0.0
 40
0.0783095237
 40
0.1943569127
 40
0.5
 40
0.8056430873
 40
0.9216904763
 40
1.0
 40
1.0
 40
1.0
 40
1.0
 10
826.5155129534
 20
288.0246164232
 30
0.0
 10
826.2502251265
 20
288.2727015816
 30
0.0
 10
825.4048322943
 20
288.6591276597
 30
0.0
 10
823.1626068273
 20
289.2222414274
 30
0.0
 10
819.7703125
 20
289.4462709206
 30
0.0
 10
816.3780181727
 20
289.2222414274
 30
0.0
 10
814.1357927057
 20
288.6591276597
 30
0.0
 10
813.2903998735
 20
288.2727015816
 30
0.0
 10
813.0251120466
 20
288.0246164232
 30
0.0
  0
SPLINE
  5
6FF
100
AcDbEntity
  8
0
100
AcDbSpline
 62
7
  6
CONTINUOUS
 70
0
 71
3
 72
13
 73
9
 74
0
 42
0.0000001
 43
0.0000001
 44
0.0000000001
 40
0.0
 40
0.0
 40
0.0
 40
0.0
 40
0.0783095237
 40
0.1943569127
 40
0.5
 40
0.8056430873
 40
0.9216904763
 40
1.0
 40
1.0
 40
1.0
 40
1.0
 10
934.4155129534
 20
288.0246164232
 30
0.0
 10
934.1502251265
 20
288.2727015816
 30
0.0
 10
933.3048322943
 20
288.6591276597
 30
0.0
 10
931.0626068273
 20
289.2222414274
 30
0.0
 10
927.6703125
 20
289.4462709206
 30
0.0
 10
924.2780181727
 20
289.2222414274
 30
0.0
 10
922.0357927057
 20
288.6591276597
 30
0.0
 10
921.1903998735
 20
288.2727015816
 30
0.0
 10
920.9251120466
 20
288.0246164232
 30
0.0
  0
SPLINE
  5
700
100
AcDbEntity
  8
0
100
AcDbSpline
 62
7
  6
CONTINUOUS
 70
0
 71
3
 72
12
 73
8
 74
0
 42
0.0000001
 43
0.0000001
 44
0.0000000001
 40
0.0
 40
0.0
 40
0.0
 40
0.0
 40
0.1167116299
 40
0.2126196056
 40
0.3344391022
 40
0.6419934921
 40
1.0
 40
1.0
 40
1.0
 40
1.0
 10
1106.6203125
 20
306.9259414924
 30
0.0
 10
1106.6203125
 20
307.3840195009
 30
0.0
 10
1105.8467430695
 20
308.0551070654
 30
0.0
 10
1104.6915635484
 20
308.5612669525
 30
0.0
 10
1102.695290325
 20
309.1768140885
 30
0.0
 10
1099.6421760308
 20
309.6420193147
 30
0.0
 10
1097.0254416059
 20
309.7729509885
 30
0.0
 10
1095.6203125
 20
309.7729509885
 30
0.0
  0
SPLINE
  5
701
100
AcDbEntity
  8
0
100
AcDbSpline
 62
7
  6
CONTINUOUS
 70
0
 71
3
 72
12
 73
8
 74
0
 42
0.0000001
 43
0.0000001
 44
0.0000000001
 40
0.0
 40
0.0
 40
0.0
 40
0.0
 40
0.3580065079
 40
0.6655608978
 40
0.7873803944
 40
0.8832883701
 40
1.0
 40
1.0
 40
1.0
 40
1.0
 10
962.6203125
 20
309.7729509885
 30
0.0
 10
961.2151833941
 20
309.7729509885
 30
0.0
 10
958.5984489692
 20
309.6420193147
 30
0.0
 10
955.545334675
 20
309.1768140885
 30
0.0
 10
953.5490614516
 20
308.5612669525
 30
0.0
 10
952.3938819305
 20
308.0551070654
 30
0.0
 10
951.6203125
 20
307.3840195009
 30
0.0
 10
951.6203125
 20
306.9259414924
 30
0.0
  0
SPLINE
  5
702
100
AcDbEntity
  8
0
100
AcDbSpline
 62
7
  6
CONTINUOUS
 70
0
 71
3
 72
9
 73
5
 74
0
 42
0.0000001
 43
0.0000001
 44
0.0000000001
 40
0.0
 40
0.0
 40
0.0
 40
0.0
 40
0.5000772508
 40
1.0
 40
1.0
 40
1.0
 40
1.0
 10
958.3408911087
 20
420.1757585581
 30
0.0
 10
959.734700431
 20
419.1302236193
 30
0.0
 10
963.3125047016
 20
417.9446658088
 30
0.0
 10
966.8732830209
 20
419.1811385834
 30
0.0
 10
968.2512737254
 20
420.2465557595
 30
0.0
  0
SPLINE
  5
703
100
AcDbEntity
  8
0
100
AcDbSpline
 62
7
  6
CONTINUOUS
 70
0
 71
3
 72
9
 73
5
 74
0
 42
0.0000001
 43
0.0000001
 44
0.0000000001
 40
0.0
 40
0.0
 40
0.0
 40
0.0
 40
0.3243152878
 40
1.0
 40
1.0
 40
1.0
 40
1.0
 10
965.635790076
 20
303.386627158
 30
0.0
 10
965.6362115698
 20
303.577152257
 30
0.0
 10
966.3983131455
 20
303.8272706569
 30
0.0
 10
966.8823389943
 20
303.8770044487
 30
0.0
 10
967.2788475356
 20
303.8956059373
 30
0.0
  0
SPLINE
  5
704
100
AcDbEntity
  8
0
100
AcDbSpline
 62
7
  6
CONTINUOUS
 70
0
 71
3
 72
10
 73
6
 74
0
 42
0.0000001
 43
0.0000001
 44
0.0000000001
 40
0.0
 40
0.0
 40
0.0
 40
0.0
 40
0.6308812479
 40
0.8549431485
 40
1.0
 40
1.0
 40
1.0
 40
1.0
 10
967.2788473553
 20
303.8956061947
 30
0.0
 10
968.4376097384
 20
303.9497972761
 30
0.0
 10
970.0263476902
 20
304.1168081064
 30
0.0
 10
971.7667456776
 20
304.6695219979
 30
0.0
 10
972.3792802372
 20
305.0365140761
 30
0.0
 10
972.5319619763
 20
305.255212731
 30
0.0
  0
SPLINE
  5
705
100
AcDbEntity
  8
0
100
AcDbSpline
 62
7
  6
CONTINUOUS
 70
0
 71
3
 72
9
 73
5
 74
0
 42
0.0000001
 43
0.0000001
 44
0.0000000001
 40
0.0
 40
0.0
 40
0.0
 40
0.0
 40
0.3683030722
 40
1.0
 40
1.0
 40
1.0
 40
1.0
 10
972.5319625049
 20
305.2552127062
 30
0.0
 10
972.6754213626
 20
305.4600388773
 30
0.0
 10
973.4338268804
 20
305.6107762083
 30
0.0
 10
974.0696000262
 20
305.6804034888
 30
0.0
 10
974.4985061355
 20
305.6804665324
 30
0.0
  0
SPLINE
  5
706
100
AcDbEntity
  8
0
100
AcDbSpline
 62
7
  6
CONTINUOUS
 70
0
 71
3
 72
9
 73
5
 74
0
 42
0.0000001
 43
0.0000001
 44
0.0000000001
 40
0.0
 40
0.0
 40
0.0
 40
0.0
 40
0.631918216
 40
1.0
 40
1.0
 40
1.0
 40
1.0
 10
1020.7421197867
 20
305.6804665885
 30
0.0
 10
1021.171178495
 20
305.6804030124
 30
0.0
 10
1021.8069667648
 20
305.6108124832
 30
0.0
 10
1022.5652987611
 20
305.4599222604
 30
0.0
 10
1022.7086631442
 20
305.2552116853
 30
0.0
  0
SPLINE
  5
707
100
AcDbEntity
  8
0
100
AcDbSpline
 62
7
  6
CONTINUOUS
 70
0
 71
3
 72
15
 73
11
 74
0
 42
0.0000001
 43
0.0000001
 44
0.0000000001
 40
0.0
 40
0.0
 40
0.0
 40
0.0
 40
0.0713663226
 40
0.1853290762
 40
0.3334115923
 40
0.5000000007
 40
0.6665884089
 40
0.8146709247
 40
0.9286336777
 40
1.0
 40
1.0
 40
1.0
 40
1.0
 10
1022.7086643736
 20
305.255211743
 30
0.0
 10
1022.8904792549
 20
304.9947832746
 30
0.0
 10
1023.664253496
 20
304.5841216235
 30
0.0
 10
1025.077628909
 20
304.1936725896
 30
0.0
 10
1026.9798557976
 20
303.9285281558
 30
0.0
 10
1029.1203125148
 20
303.8371454652
 30
0.0
 10
1031.2607692305
 20
303.9285281582
 30
0.0
 10
1033.1629961137
 20
304.1936725942
 30
0.0
 10
1034.5763715217
 20
304.5841216297
 30
0.0
 10
1035.3501457559
 20
304.9947832833
 30
0.0
 10
1035.5319606364
 20
305.2552117505
 30
0.0
  0
SPLINE
  5
708
100
AcDbEntity
  8
0
100
AcDbSpline
 62
7
  6
CONTINUOUS
 70
0
 71
3
 72
9
 73
5
 74
0
 42
0.0000001
 43
0.0000001
 44
0.0000000001
 40
0.0
 40
0.0
 40
0.0
 40
0.0
 40
0.3680818045
 40
1.0
 40
1.0
 40
1.0
 40
1.0
 10
1035.5319618612
 20
305.255211693
 30
0.0
 10
1035.6753263795
 20
305.4599224434
 30
0.0
 10
1036.4336590931
 20
305.610812599
 30
0.0
 10
1037.0694478771
 20
305.680403109
 30
0.0
 10
1037.4985069272
 20
305.6804665887
 30
0.0
  0
SPLINE
  5
709
100
AcDbEntity
  8
0
100
AcDbSpline
 62
7
  6
CONTINUOUS
 70
0
 71
3
 72
9
 73
5
 74
0
 42
0.0000001
 43
0.0000001
 44
0.0000000001
 40
0.0
 40
0.0
 40
0.0
 40
0.0
 40
0.631696793
 40
1.0
 40
1.0
 40
1.0
 40
1.0
 10
1083.7421183877
 20
305.6804665325
 30
0.0
 10
1084.1710245689
 20
305.6804665319
 30
0.0
 10
1084.8067983464
 20
305.6107596664
 30
0.0
 10
1085.565203529
 20
305.4600390285
 30
0.0
 10
1085.708662494
 20
305.2552127078
 30
0.0
  0
SPLINE
  5
70A
100
AcDbEntity
  8
0
100
AcDbSpline
 62
7
  6
CONTINUOUS
 70
0
 71
3
 72
10
 73
6
 74
0
 42
0.0000001
 43
0.0000001
 44
0.0000000001
 40
0.0
 40
0.0
 40
0.0
 40
0.0
 40
0.1450568514
 40
0.369118752
 40
1.0
 40
1.0
 40
1.0
 40
1.0
 10
1085.7086630216
 20
305.2552127325
 30
0.0
 10
1085.8613447613
 20
305.0365140768
 30
0.0
 10
1086.4738793233
 20
304.6695219972
 30
0.0
 10
1088.2142773183
 20
304.1168081043
 30
0.0
 10
1089.803015277
 20
303.9497972745
 30
0.0
 10
1090.9617776651
 20
303.8956061929
 30
0.0
  0
SPLINE
  5
70B
100
AcDbEntity
  8
0
100
AcDbSpline
 62
7
  6
CONTINUOUS
 70
0
 71
3
 72
9
 73
5
 74
0
 42
0.0000001
 43
0.0000001
 44
0.0000000001
 40
0.0
 40
0.0
 40
0.0
 40
0.0
 40
0.6756847123
 40
1.0
 40
1.0
 40
1.0
 40
1.0
 10
1090.9617774854
 20
303.8956059363
 30
0.0
 10
1091.358286022
 20
303.8770044468
 30
0.0
 10
1091.8423118659
 20
303.8272706549
 30
0.0
 10
1092.6044134301
 20
303.5771522548
 30
0.0
 10
1092.604834924
 20
303.3866271581
 30
0.0
  0
SPLINE
  5
70C
100
AcDbEntity
  8
0
100
AcDbSpline
 62
7
  6
CONTINUOUS
 70
0
 71
3
 72
15
 73
11
 74
0
 42
0.0000001
 43
0.0000001
 44
0.0000000001
 40
0.0
 40
0.0
 40
0.0
 40
0.0
 40
0.0607963441
 40
0.1706939826
 40
0.3234653214
 40
0.5
 40
0.6765346786
 40
0.8293060174
 40
0.9392036559
 40
1.0
 40
1.0
 40
1.0
 40
1.0
 10
933.6664551312
 20
301.5990183672
 30
0.0
 10
933.6308282739
 20
301.3432809755
 30
0.0
 10
932.9550148478
 20
300.8362240135
 30
0.0
 10
931.6822065798
 20
300.4677116126
 30
0.0
 10
929.8148518004
 20
300.1612089383
 30
0.0
 10
927.6703125
 20
300.0693591673
 30
0.0
 10
925.5257731996
 20
300.1612089383
 30
0.0
 10
923.6584184202
 20
300.4677116126
 30
0.0
 10
922.3856101522
 20
300.8362240135
 30
0.0
 10
921.7097967261
 20
301.3432809755
 30
0.0
 10
921.6741698688
 20
301.5990183672
 30
0.0
  0
SPLINE
  5
70D
100
AcDbEntity
  8
0
100
AcDbSpline
 62
7
  6
CONTINUOUS
 70
0
 71
3
 72
15
 73
11
 74
0
 42
0.0000001
 43
0.0000001
 44
0.0000000001
 40
0.0
 40
0.0
 40
0.0
 40
0.0
 40
0.0607963441
 40
0.1706939826
 40
0.3234653214
 40
0.5
 40
0.6765346786
 40
0.8293060174
 40
0.9392036559
 40
1.0
 40
1.0
 40
1.0
 40
1.0
 10
825.7664551312
 20
301.5990183672
 30
0.0
 10
825.7308282739
 20
301.3432809755
 30
0.0
 10
825.0550148478
 20
300.8362240135
 30
0.0
 10
823.7822065798
 20
300.4677116126
 30
0.0
 10
821.9148518004
 20
300.1612089383
 30
0.0
 10
819.7703125
 20
300.0693591673
 30
0.0
 10
817.6257731996
 20
300.1612089383
 30
0.0
 10
815.7584184202
 20
300.4677116126
 30
0.0
 10
814.4856101522
 20
300.8362240135
 30
0.0
 10
813.8097967261
 20
301.3432809755
 30
0.0
 10
813.7741698688
 20
301.5990183672
 30
0.0
  0
SPLINE
  5
70E
100
AcDbEntity
  8
0
100
AcDbSpline
 62
7
  6
CONTINUOUS
 70
0
 71
3
 72
15
 73
11
 74
0
 42
0.0000001
 43
0.0000001
 44
0.0000000001
 40
0.0
 40
0.0
 40
0.0
 40
0.0
 40
0.0607963441
 40
0.1706939826
 40
0.3234653214
 40
0.5
 40
0.6765346786
 40
0.8293060174
 40
0.9392036559
 40
1.0
 40
1.0
 40
1.0
 40
1.0
 10
825.7664551312
 20
288.451010876
 30
0.0
 10
825.7308282739
 20
288.1952734843
 30
0.0
 10
825.0550148478
 20
287.6882165222
 30
0.0
 10
823.7822065798
 20
287.3197041214
 30
0.0
 10
821.9148518004
 20
287.0132014471
 30
0.0
 10
819.7703125
 20
286.921351676
 30
0.0
 10
817.6257731996
 20
287.0132014471
 30
0.0
 10
815.7584184202
 20
287.3197041214
 30
0.0
 10
814.4856101522
 20
287.6882165222
 30
0.0
 10
813.8097967261
 20
288.1952734843
 30
0.0
 10
813.7741698688
 20
288.451010876
 30
0.0
  0
SPLINE
  5
70F
100
AcDbEntity
  8
0
100
AcDbSpline
 62
7
  6
CONTINUOUS
 70
0
 71
3
 72
15
 73
11
 74
0
 42
0.0000001
 43
0.0000001
 44
0.0000000001
 40
0.0
 40
0.0
 40
0.0
 40
0.0
 40
0.0607963441
 40
0.1706939826
 40
0.3234653214
 40
0.5
 40
0.6765346786
 40
0.8293060174
 40
0.9392036559
 40
1.0
 40
1.0
 40
1.0
 40
1.0
 10
933.6664551312
 20
288.451010876
 30
0.0
 10
933.6308282739
 20
288.1952734843
 30
0.0
 10
932.9550148478
 20
287.6882165222
 30
0.0
 10
931.6822065798
 20
287.3197041214
 30
0.0
 10
929.8148518004
 20
287.0132014471
 30
0.0
 10
927.6703125
 20
286.921351676
 30
0.0
 10
925.5257731996
 20
287.0132014471
 30
0.0
 10
923.6584184202
 20
287.3197041214
 30
0.0
 10
922.3856101522
 20
287.6882165222
 30
0.0
 10
921.7097967261
 20
288.1952734843
 30
0.0
 10
921.6741698688
 20
288.451010876
 30
0.0
  0
SPLINE
  5
710
100
AcDbEntity
  8
0
100
AcDbSpline
 62
7
  6
CONTINUOUS
 70
0
 71
3
 72
12
 73
8
 74
0
 42
0.0000001
 43
0.0000001
 44
0.0000000001
 40
0.0
 40
0.0
 40
0.0
 40
0.0
 40
0.3580065079
 40
0.6655608978
 40
0.7873803944
 40
0.8832883701
 40
1.0
 40
1.0
 40
1.0
 40
1.0
 10
1095.6203125
 20
278.4558465311
 30
0.0
 10
1097.0254416059
 20
278.4558465311
 30
0.0
 10
1099.6421760308
 20
278.5867782049
 30
0.0
 10
1102.695290325
 20
279.0519834311
 30
0.0
 10
1104.6915635484
 20
279.6675305672
 30
0.0
 10
1105.8467430695
 20
280.1736904542
 30
0.0
 10
1106.6203125
 20
280.8447780187
 30
0.0
 10
1106.6203125
 20
281.3028560272
 30
0.0
  0
SPLINE
  5
711
100
AcDbEntity
  8
0
100
AcDbSpline
 62
7
  6
CONTINUOUS
 70
0
 71
3
 72
12
 73
8
 74
0
 42
0.0000001
 43
0.0000001
 44
0.0000000001
 40
0.0
 40
0.0
 40
0.0
 40
0.0
 40
0.1167116299
 40
0.2126196056
 40
0.3344391022
 40
0.6419934921
 40
1.0
 40
1.0
 40
1.0
 40
1.0
 10
951.6203125
 20
281.3028560272
 30
0.0
 10
951.6203125
 20
280.8447780187
 30
0.0
 10
952.3938819305
 20
280.1736904542
 30
0.0
 10
953.5490614516
 20
279.6675305672
 30
0.0
 10
955.545334675
 20
279.0519834311
 30
0.0
 10
958.5984489692
 20
278.5867782049
 30
0.0
 10
961.2151833941
 20
278.4558465311
 30
0.0
 10
962.6203125
 20
278.4558465311
 30
0.0
  0
SPLINE
  5
712
100
AcDbEntity
  8
0
100
AcDbSpline
 62
7
  6
CONTINUOUS
 70
0
 71
3
 72
9
 73
5
 74
0
 42
0.0000001
 43
0.0000001
 44
0.0000000001
 40
0.0
 40
0.0
 40
0.0
 40
0.0
 40
0.631918216
 40
1.0
 40
1.0
 40
1.0
 40
1.0
 10
1037.4985052133
 20
287.5711452279
 30
0.0
 10
1037.069446505
 20
287.5712088039
 30
0.0
 10
1036.4336582352
 20
287.6407993332
 30
0.0
 10
1035.6753262389
 20
287.7916895559
 30
0.0
 10
1035.5319618558
 20
287.996400131
 30
0.0
  0
SPLINE
  5
713
100
AcDbEntity
  8
0
100
AcDbSpline
 62
7
  6
CONTINUOUS
 70
0
 71
3
 72
15
 73
11
 74
0
 42
0.0000001
 43
0.0000001
 44
0.0000000001
 40
0.0
 40
0.0
 40
0.0
 40
0.0
 40
0.0713663226
 40
0.1853290762
 40
0.3334115923
 40
0.5000000007
 40
0.6665884089
 40
0.8146709247
 40
0.9286336777
 40
1.0
 40
1.0
 40
1.0
 40
1.0
 10
1035.5319606264
 20
287.9964000733
 30
0.0
 10
1035.3501457451
 20
288.2568285417
 30
0.0
 10
1034.576371504
 20
288.6674901928
 30
0.0
 10
1033.162996091
 20
289.0579392268
 30
0.0
 10
1031.2607692024
 20
289.3230836606
 30
0.0
 10
1029.1203124852
 20
289.4144663511
 30
0.0
 10
1026.9798557695
 20
289.3230836581
 30
0.0
 10
1025.0776288863
 20
289.0579392221
 30
0.0
 10
1023.6642534783
 20
288.6674901866
 30
0.0
 10
1022.8904792441
 20
288.2568285331
 30
0.0
 10
1022.7086643636
 20
287.9964000658
 30
0.0
  0
SPLINE
  5
714
100
AcDbEntity
  8
0
100
AcDbSpline
 62
7
  6
CONTINUOUS
 70
0
 71
3
 72
9
 73
5
 74
0
 42
0.0000001
 43
0.0000001
 44
0.0000000001
 40
0.0
 40
0.0
 40
0.0
 40
0.0
 40
0.3680817872
 40
1.0
 40
1.0
 40
1.0
 40
1.0
 10
1022.7086631388
 20
287.9964001233
 30
0.0
 10
1022.5652987467
 20
287.7916895531
 30
0.0
 10
1021.8069667635
 20
287.6407993319
 30
0.0
 10
1021.1711784912
 20
287.5712088039
 30
0.0
 10
1020.7421197869
 20
287.5711452279
 30
0.0
  0
SPLINE
  5
715
100
AcDbEntity
  8
0
100
AcDbSpline
 62
7
  6
CONTINUOUS
 70
0
 71
3
 72
13
 73
9
 74
0
 42
0.0000001
 43
0.0000001
 44
0.0000000001
 40
0.0
 40
0.0
 40
0.0
 40
0.0
 40
0.0584602222
 40
0.167237166
 40
0.5
 40
0.832762834
 40
0.9415397778
 40
1.0
 40
1.0
 40
1.0
 40
1.0
 10
920.6703125
 20
287.5403950142
 30
0.0
 10
920.6703125
 20
287.248881757
 30
0.0
 10
921.4298755299
 20
286.5986540843
 30
0.0
 10
923.7472283527
 20
285.9441861646
 30
0.0
 10
927.6703125
 20
285.5662334513
 30
0.0
 10
931.5933966473
 20
285.9441861646
 30
0.0
 10
933.9107494701
 20
286.5986540843
 30
0.0
 10
934.6703125
 20
287.248881757
 30
0.0
 10
934.6703125
 20
287.5403950142
 30
0.0
  0
SPLINE
  5
716
100
AcDbEntity
  8
0
100
AcDbSpline
 62
7
  6
CONTINUOUS
 70
0
 71
3
 72
9
 73
5
 74
0
 42
0.0000001
 43
0.0000001
 44
0.0000000001
 40
0.0
 40
0.0
 40
0.0
 40
0.0
 40
0.631696928
 40
1.0
 40
1.0
 40
1.0
 40
1.0
 10
974.4985061355
 20
287.5711452839
 30
0.0
 10
974.069600026
 20
287.5712083275
 30
0.0
 10
973.4338268803
 20
287.6408356081
 30
0.0
 10
972.6754213617
 20
287.7915729392
 30
0.0
 10
972.5319625045
 20
287.9963991106
 30
0.0
  0
SPLINE
  5
717
100
AcDbEntity
  8
0
100
AcDbSpline
 62
7
  6
CONTINUOUS
 70
0
 71
3
 72
10
 73
6
 74
0
 42
0.0000001
 43
0.0000001
 44
0.0000000001
 40
0.0
 40
0.0
 40
0.0
 40
0.0
 40
0.1450568515
 40
0.3691187522
 40
1.0
 40
1.0
 40
1.0
 40
1.0
 10
972.5319619758
 20
287.9963990858
 30
0.0
 10
972.3792802361
 20
288.2150977414
 30
0.0
 10
971.7667456736
 20
288.5820898203
 30
0.0
 10
970.0263476797
 20
289.1348037122
 30
0.0
 10
968.437609722
 20
289.3018145418
 30
0.0
 10
967.2788473349
 20
289.3560056234
 30
0.0
  0
SPLINE
  5
718
100
AcDbEntity
  8
0
100
AcDbSpline
 62
7
  6
CONTINUOUS
 70
0
 71
3
 72
9
 73
5
 74
0
 42
0.0000001
 43
0.0000001
 44
0.0000000001
 40
0.0
 40
0.0
 40
0.0
 40
0.0
 40
0.6756847123
 40
1.0
 40
1.0
 40
1.0
 40
1.0
 10
967.2788475146
 20
289.35600588
 30
0.0
 10
966.882338978
 20
289.3746073695
 30
0.0
 10
966.3983131341
 20
289.4243411615
 30
0.0
 10
965.6362115699
 20
289.6744595615
 30
0.0
 10
965.635790076
 20
289.8649846582
 30
0.0
  0
SPLINE
  5
719
100
AcDbEntity
  8
0
100
AcDbSpline
 62
7
  6
CONTINUOUS
 70
0
 71
3
 72
13
 73
9
 74
0
 42
0.0000001
 43
0.0000001
 44
0.0000000001
 40
0.0
 40
0.0
 40
0.0
 40
0.0
 40
0.0584602222
 40
0.167237166
 40
0.5
 40
0.832762834
 40
0.9415397778
 40
1.0
 40
1.0
 40
1.0
 40
1.0
 10
812.7703125
 20
287.5403950142
 30
0.0
 10
812.7703125
 20
287.248881757
 30
0.0
 10
813.5298755299
 20
286.5986540843
 30
0.0
 10
815.8472283527
 20
285.9441861646
 30
0.0
 10
819.7703125
 20
285.5662334513
 30
0.0
 10
823.6933966473
 20
285.9441861646
 30
0.0
 10
826.0107494701
 20
286.5986540843
 30
0.0
 10
826.7703125
 20
287.248881757
 30
0.0
 10
826.7703125
 20
287.5403950142
 30
0.0
  0
SPLINE
  5
71A
100
AcDbEntity
  8
0
100
AcDbSpline
 62
7
  6
CONTINUOUS
 70
0
 71
3
 72
13
 73
9
 74
0
 42
0.0000001
 43
0.0000001
 44
0.0000000001
 40
0.0
 40
0.0
 40
0.0
 40
0.0
 40
0.0584602222
 40
0.167237166
 40
0.5
 40
0.832762834
 40
0.9415397778
 40
1.0
 40
1.0
 40
1.0
 40
1.0
 10
812.7703125
 20
300.6884025054
 30
0.0
 10
812.7703125
 20
300.3968892482
 30
0.0
 10
813.5298755299
 20
299.7466615756
 30
0.0
 10
815.8472283527
 20
299.0921936559
 30
0.0
 10
819.7703125
 20
298.7142409426
 30
0.0
 10
823.6933966473
 20
299.0921936559
 30
0.0
 10
826.0107494701
 20
299.7466615756
 30
0.0
 10
826.7703125
 20
300.3968892482
 30
0.0
 10
826.7703125
 20
300.6884025054
 30
0.0
  0
SPLINE
  5
71B
100
AcDbEntity
  8
0
100
AcDbSpline
 62
7
  6
CONTINUOUS
 70
0
 71
3
 72
13
 73
9
 74
0
 42
0.0000001
 43
0.0000001
 44
0.0000000001
 40
0.0
 40
0.0
 40
0.0
 40
0.0
 40
0.0584602222
 40
0.167237166
 40
0.5
 40
0.832762834
 40
0.9415397778
 40
1.0
 40
1.0
 40
1.0
 40
1.0
 10
920.6703125
 20
300.6884025054
 30
0.0
 10
920.6703125
 20
300.3968892482
 30
0.0
 10
921.4298755299
 20
299.7466615756
 30
0.0
 10
923.7472283527
 20
299.0921936559
 30
0.0
 10
927.6703125
 20
298.7142409426
 30
0.0
 10
931.5933966473
 20
299.0921936559
 30
0.0
 10
933.9107494701
 20
299.7466615756
 30
0.0
 10
934.6703125
 20
300.3968892482
 30
0.0
 10
934.6703125
 20
300.6884025054
 30
0.0
  0
SPLINE
  5
71C
100
AcDbEntity
  8
0
100
AcDbSpline
 62
7
  6
CONTINUOUS
 70
0
 71
3
 72
9
 73
5
 74
0
 42
0.0000001
 43
0.0000001
 44
0.0000000001
 40
0.0
 40
0.0
 40
0.0
 40
0.0
 40
0.3243152878
 40
1.0
 40
1.0
 40
1.0
 40
1.0
 10
1092.604834924
 20
289.8649846583
 30
0.0
 10
1092.6044134302
 20
289.6744595594
 30
0.0
 10
1091.8423118544
 20
289.4243411595
 30
0.0
 10
1091.3582860057
 20
289.3746073676
 30
0.0
 10
1090.9617774644
 20
289.3560058791
 30
0.0
  0
SPLINE
  5
71D
100
AcDbEntity
  8
0
100
AcDbSpline
 62
7
  6
CONTINUOUS
 70
0
 71
3
 72
10
 73
6
 74
0
 42
0.0000001
 43
0.0000001
 44
0.0000000001
 40
0.0
 40
0.0
 40
0.0
 40
0.0
 40
0.6308812479
 40
0.8549431485
 40
1.0
 40
1.0
 40
1.0
 40
1.0
 10
1090.9617776447
 20
289.3560056216
 30
0.0
 10
1089.8030152615
 20
289.3018145402
 30
0.0
 10
1088.2142773097
 20
289.1348037099
 30
0.0
 10
1086.4738793223
 20
288.5820898185
 30
0.0
 10
1085.8613447628
 20
288.2150977402
 30
0.0
 10
1085.7086630236
 20
287.9963990853
 30
0.0
  0
SPLINE
  5
71E
100
AcDbEntity
  8
0
100
AcDbSpline
 62
7
  6
CONTINUOUS
 70
0
 71
3
 72
9
 73
5
 74
0
 42
0.0000001
 43
0.0000001
 44
0.0000000001
 40
0.0
 40
0.0
 40
0.0
 40
0.0
 40
0.3683030722
 40
1.0
 40
1.0
 40
1.0
 40
1.0
 10
1085.7086624951
 20
287.9963991101
 30
0.0
 10
1085.5652036374
 20
287.791572939
 30
0.0
 10
1084.8067981196
 20
287.640835608
 30
0.0
 10
1084.1710249738
 20
287.5712083275
 30
0.0
 10
1083.7421188645
 20
287.5711452839
 30
0.0
  0
SPLINE
  5
71F
100
AcDbEntity
  8
0
100
AcDbSpline
 62
7
  6
CONTINUOUS
 70
0
 71
3
 72
9
 73
5
 74
0
 42
0.0000001
 43
0.0000001
 44
0.0000000001
 40
0.0
 40
0.0
 40
0.0
 40
0.0
 40
0.2061972817
 40
1.0
 40
1.0
 40
1.0
 40
1.0
 10
951.6203125
 20
283.8142631756
 30
0.0
 10
951.6203125
 20
283.7278507186
 30
0.0
 10
951.70093283
 20
283.3063965118
 30
0.0
 10
952.0516874048
 20
282.9994629673
 30
0.0
 10
952.3258249069
 20
282.8110112067
 30
0.0
  0
SPLINE
  5
720
100
AcDbEntity
  8
0
100
AcDbSpline
 62
7
  6
CONTINUOUS
 70
0
 71
3
 72
10
 73
6
 74
0
 42
0.0000001
 43
0.0000001
 44
0.0000000001
 40
0.0
 40
0.0
 40
0.0
 40
0.0
 40
0.1694333912
 40
0.4047374987
 40
1.0
 40
1.0
 40
1.0
 40
1.0
 10
952.3258249069
 20
282.8110112067
 30
0.0
 10
952.8168430587
 20
282.4734680595
 30
0.0
 10
954.1601415957
 20
281.9365027209
 30
0.0
 10
957.5862664121
 20
281.1546607083
 30
0.0
 10
960.5269491441
 20
280.9672536795
 30
0.0
 10
962.6203125
 20
280.9672536795
 30
0.0
  0
SPLINE
  5
721
100
AcDbEntity
  8
0
100
AcDbSpline
 62
7
  6
CONTINUOUS
 70
0
 71
3
 72
10
 73
6
 74
0
 42
0.0000001
 43
0.0000001
 44
0.0000000001
 40
0.0
 40
0.0
 40
0.0
 40
0.0
 40
0.5952625013
 40
0.8305666088
 40
1.0
 40
1.0
 40
1.0
 40
1.0
 10
1095.6203125
 20
280.9672536795
 30
0.0
 10
1097.7136758559
 20
280.9672536795
 30
0.0
 10
1100.6543585879
 20
281.1546607083
 30
0.0
 10
1104.0804834043
 20
281.9365027209
 30
0.0
 10
1105.4237819413
 20
282.4734680595
 30
0.0
 10
1105.9148000931
 20
282.8110112067
 30
0.0
  0
SPLINE
  5
722
100
AcDbEntity
  8
0
100
AcDbSpline
 62
7
  6
CONTINUOUS
 70
0
 71
3
 72
9
 73
5
 74
0
 42
0.0000001
 43
0.0000001
 44
0.0000000001
 40
0.0
 40
0.0
 40
0.0
 40
0.0
 40
0.3135812487
 40
1.0
 40
1.0
 40
1.0
 40
1.0
 10
1105.9148000931
 20
282.8110112067
 30
0.0
 10
1106.0224363382
 20
282.8850041473
 30
0.0
 10
1106.3483395023
 20
283.1326142369
 30
0.0
 10
1106.6203125
 20
283.5283493599
 30
0.0
 10
1106.6203125
 20
283.8142631756
 30
0.0
  0
SPLINE
  5
723
100
AcDbEntity
  8
0
100
AcDbSpline
 62
7
  6
CONTINUOUS
 70
0
 71
3
 72
13
 73
9
 74
0
 42
0.0000001
 43
0.0000001
 44
0.0000000001
 40
0.0
 40
0.0
 40
0.0
 40
0.0
 40
0.0783095237
 40
0.1943569127
 40
0.5
 40
0.8056430873
 40
0.9216904763
 40
1.0
 40
1.0
 40
1.0
 40
1.0
 10
2364.9240362639
 20
528.0078436604
 30
0.0
 10
2364.7319970643
 20
528.3161370641
 30
0.0
 10
2364.0154247228
 20
528.9081997585
 30
0.0
 10
2361.9953458035
 20
530.0324565441
 30
0.0
 10
2358.7766242019
 20
531.1268427959
 30
0.0
 10
2355.4419364013
 20
531.7884373011
 30
0.0
 10
2353.1303683467
 20
531.824841824
 30
0.0
 10
2352.2137671482
 20
531.6703866608
 30
0.0
 10
2351.8933096209
 20
531.4994163412
 30
0.0
  0
SPLINE
  5
724
100
AcDbEntity
  8
0
100
AcDbSpline
 62
7
  6
CONTINUOUS
 70
0
 71
3
 72
13
 73
9
 74
0
 42
0.0000001
 43
0.0000001
 44
0.0000000001
 40
0.0
 40
0.0
 40
0.0
 40
0.0
 40
0.0783095237
 40
0.1943569127
 40
0.5
 40
0.8056430873
 40
0.9216904763
 40
1.0
 40
1.0
 40
1.0
 40
1.0
 10
2469.1474329205
 20
500.0812686938
 30
0.0
 10
2468.9553937208
 20
500.3895620976
 30
0.0
 10
2468.2388213793
 20
500.9816247919
 30
0.0
 10
2466.2187424601
 20
502.1058815775
 30
0.0
 10
2463.0000208585
 20
503.2002678293
 30
0.0
 10
2459.6653330579
 20
503.8618623345
 30
0.0
 10
2457.3537650033
 20
503.8982668574
 30
0.0
 10
2456.4371638048
 20
503.7438116942
 30
0.0
 10
2456.1167062775
 20
503.5728413746
 30
0.0
  0
SPLINE
  5
725
100
AcDbEntity
  8
0
100
AcDbSpline
 62
7
  6
CONTINUOUS
 70
0
 71
3
 72
13
 73
9
 74
0
 42
0.0000001
 43
0.0000001
 44
0.0000000001
 40
0.0
 40
0.0
 40
0.0
 40
0.0
 40
0.0783095237
 40
0.1943569127
 40
0.5
 40
0.8056430873
 40
0.9216904763
 40
1.0
 40
1.0
 40
1.0
 40
1.0
 10
2472.5503876643
 20
512.7812686938
 30
0.0
 10
2472.3583484647
 20
513.0895620976
 30
0.0
 10
2471.6417761232
 20
513.6816247919
 30
0.0
 10
2469.621697204
 20
514.8058815775
 30
0.0
 10
2466.4029756024
 20
515.9002678293
 30
0.0
 10
2463.0682878017
 20
516.5618623345
 30
0.0
 10
2460.7567197472
 20
516.5982668574
 30
0.0
 10
2459.8401185486
 20
516.4438116942
 30
0.0
 10
2459.5196610214
 20
516.2728413746
 30
0.0
  0
SPLINE
  5
726
100
AcDbEntity
  8
0
100
AcDbSpline
 62
7
  6
CONTINUOUS
 70
0
 71
3
 72
13
 73
9
 74
0
 42
0.0000001
 43
0.0000001
 44
0.0000000001
 40
0.0
 40
0.0
 40
0.0
 40
0.0
 40
0.0783095237
 40
0.1943569127
 40
0.5
 40
0.8056430873
 40
0.9216904763
 40
1.0
 40
1.0
 40
1.0
 40
1.0
 10
2368.3269910078
 20
540.7078436604
 30
0.0
 10
2368.1349518081
 20
541.0161370641
 30
0.0
 10
2367.4183794666
 20
541.6081997585
 30
0.0
 10
2365.3983005474
 20
542.7324565441
 30
0.0
 10
2362.1795789458
 20
543.8268427959
 30
0.0
 10
2358.8448911452
 20
544.4884373011
 30
0.0
 10
2356.5333230906
 20
544.524841824
 30
0.0
 10
2355.6167218921
 20
544.3703866608
 30
0.0
 10
2355.2962643648
 20
544.1994163412
 30
0.0
  0
SPLINE
  5
727
100
AcDbEntity
  8
0
100
AcDbSpline
 62
7
  6
CONTINUOUS
 70
0
 71
3
 72
9
 73
5
 74
0
 42
0.0000001
 43
0.0000001
 44
0.0000000001
 40
0.0
 40
0.0
 40
0.0
 40
0.0
 40
0.5
 40
1.0
 40
1.0
 40
1.0
 40
1.0
 10
2328.9967280175
 20
540.2426548521
 30
0.0
 10
2327.6764214213
 20
540.9899775227
 30
0.0
 10
2324.7781575991
 20
541.9838608838
 30
0.0
 10
2321.7712458218
 20
542.5722645558
 30
0.0
 10
2320.2541654333
 20
542.5852174364
 30
0.0
  0
SPLINE
  5
728
100
AcDbEntity
  8
0
100
AcDbSpline
 62
7
  6
CONTINUOUS
 70
0
 71
3
 72
13
 73
9
 74
0
 42
0.0000001
 43
0.0000001
 44
0.0000000001
 40
0.0
 40
0.0
 40
0.0
 40
0.0
 40
0.0558797631
 40
0.1536333863
 40
0.4526341329
 40
0.7811733352
 40
0.911094813
 40
1.0
 40
1.0
 40
1.0
 40
1.0
 10
2456.9505995786
 20
503.7908363585
 30
0.0
 10
2456.9225566086
 20
503.5647012927
 30
0.0
 10
2457.3319928434
 20
502.9739469459
 30
0.0
 10
2458.8411874401
 20
501.9858783087
 30
0.0
 10
2461.651891383
 20
500.8897088106
 30
0.0
 10
2464.6783833079
 20
500.2128955994
 30
0.0
 10
2466.9029609571
 20
500.1000701825
 30
0.0
 10
2467.812153508
 20
500.2069348495
 30
0.0
 10
2468.1444429033
 20
500.3519110437
 30
0.0
  0
SPLINE
  5
729
100
AcDbEntity
  8
0
100
AcDbSpline
 62
7
  6
CONTINUOUS
 70
0
 71
3
 72
9
 73
5
 74
0
 42
0.0000001
 43
0.0000001
 44
0.0000000001
 40
0.0
 40
0.0
 40
0.0
 40
0.0
 40
0.2981787049
 40
1.0
 40
1.0
 40
1.0
 40
1.0
 10
2468.1444429033
 20
500.3519110437
 30
0.0
 10
2468.1918321473
 20
500.3725867328
 30
0.0
 10
2468.3457975127
 20
500.4491293876
 30
0.0
 10
2468.4868433924
 20
500.5749277093
 30
0.0
 10
2468.5342576297
 20
500.6870045383
 30
0.0
  0
SPLINE
  5
72A
100
AcDbEntity
  8
0
100
AcDbSpline
 62
7
  6
CONTINUOUS
 70
0
 71
3
 72
13
 73
9
 74
0
 42
0.0000001
 43
0.0000001
 44
0.0000000001
 40
0.0
 40
0.0
 40
0.0
 40
0.0
 40
0.0558797631
 40
0.1536333863
 40
0.4526341329
 40
0.7811733352
 40
0.911094813
 40
1.0
 40
1.0
 40
1.0
 40
1.0
 10
2352.727202922
 20
531.7174113251
 30
0.0
 10
2352.699159952
 20
531.4912762593
 30
0.0
 10
2353.1085961868
 20
530.9005219125
 30
0.0
 10
2354.6177907835
 20
529.9124532752
 30
0.0
 10
2357.4284947264
 20
528.8162837772
 30
0.0
 10
2360.4549866513
 20
528.1394705659
 30
0.0
 10
2362.6795643005
 20
528.0266451491
 30
0.0
 10
2363.5887568514
 20
528.1335098161
 30
0.0
 10
2363.9210462467
 20
528.2784860103
 30
0.0
  0
SPLINE
  5
72B
100
AcDbEntity
  8
0
100
AcDbSpline
 62
7
  6
CONTINUOUS
 70
0
 71
3
 72
9
 73
5
 74
0
 42
0.0000001
 43
0.0000001
 44
0.0000000001
 40
0.0
 40
0.0
 40
0.0
 40
0.0
 40
0.2981787049
 40
1.0
 40
1.0
 40
1.0
 40
1.0
 10
2363.9210462467
 20
528.2784860103
 30
0.0
 10
2363.9684354907
 20
528.2991616994
 30
0.0
 10
2364.1224008561
 20
528.3757043541
 30
0.0
 10
2364.2634467358
 20
528.5015026759
 30
0.0
 10
2364.3108609731
 20
528.6135795049
 30
0.0
  0
SPLINE
  5
72C
100
AcDbEntity
  8
0
100
AcDbSpline
 62
7
  6
CONTINUOUS
 70
0
 71
3
 72
13
 73
9
 74
0
 42
0.0000001
 43
0.0000001
 44
0.0000000001
 40
0.0
 40
0.0
 40
0.0
 40
0.0
 40
0.0584602222
 40
0.167237166
 40
0.5
 40
0.832762834
 40
0.9415397778
 40
1.0
 40
1.0
 40
1.0
 40
1.0
 10
2354.9248211796
 20
543.797641352
 30
0.0
 10
2354.8493719967
 20
543.5160611681
 30
0.0
 10
2355.4147622387
 20
542.691400088
 30
0.0
 10
2357.4837644168
 20
541.4594575772
 30
0.0
 10
2361.175351353
 20
540.0790143974
 30
0.0
 10
2365.0625810099
 20
539.4287197915
 30
0.0
 10
2367.4703607121
 20
539.4611122128
 30
0.0
 10
2368.3723335648
 20
539.8925945367
 30
0.0
 10
2368.4477827476
 20
540.1741747205
 30
0.0
  0
SPLINE
  5
72D
100
AcDbEntity
  8
0
100
AcDbSpline
 62
7
  6
CONTINUOUS
 70
0
 71
3
 72
13
 73
9
 74
0
 42
0.0000001
 43
0.0000001
 44
0.0000000001
 40
0.0
 40
0.0
 40
0.0
 40
0.0
 40
0.0584602222
 40
0.167237166
 40
0.5
 40
0.832762834
 40
0.9415397778
 40
1.0
 40
1.0
 40
1.0
 40
1.0
 10
2459.1482178362
 20
515.8710663854
 30
0.0
 10
2459.0727686533
 20
515.5894862016
 30
0.0
 10
2459.6381588953
 20
514.7648251215
 30
0.0
 10
2461.7071610734
 20
513.5328826106
 30
0.0
 10
2465.3987480096
 20
512.1524394308
 30
0.0
 10
2469.2859776665
 20
511.5021448249
 30
0.0
 10
2471.6937573687
 20
511.5345372462
 30
0.0
 10
2472.5957302213
 20
511.9660195701
 30
0.0
 10
2472.6711794042
 20
512.247599754
 30
0.0
  0
SPLINE
  5
72E
100
AcDbEntity
  8
0
100
AcDbSpline
 62
7
  6
CONTINUOUS
 70
0
 71
3
 72
13
 73
9
 74
0
 42
0.0000001
 43
0.0000001
 44
0.0000000001
 40
0.0
 40
0.0
 40
0.0
 40
0.0
 40
0.0584602222
 40
0.167237166
 40
0.5
 40
0.832762834
 40
0.9415397778
 40
1.0
 40
1.0
 40
1.0
 40
1.0
 10
2455.7452630923
 20
503.1710663854
 30
0.0
 10
2455.6698139094
 20
502.8894862016
 30
0.0
 10
2456.2352041514
 20
502.0648251215
 30
0.0
 10
2458.3042063295
 20
500.8328826106
 30
0.0
 10
2461.9957932657
 20
499.4524394308
 30
0.0
 10
2465.8830229226
 20
498.8021448249
 30
0.0
 10
2468.2908026249
 20
498.8345372462
 30
0.0
 10
2469.1927754775
 20
499.2660195701
 30
0.0
 10
2469.2682246603
 20
499.547599754
 30
0.0
  0
SPLINE
  5
72F
100
AcDbEntity
  8
0
100
AcDbSpline
 62
7
  6
CONTINUOUS
 70
0
 71
3
 72
13
 73
9
 74
0
 42
0.0000001
 43
0.0000001
 44
0.0000000001
 40
0.0
 40
0.0
 40
0.0
 40
0.0
 40
0.0584602222
 40
0.167237166
 40
0.5
 40
0.832762834
 40
0.9415397778
 40
1.0
 40
1.0
 40
1.0
 40
1.0
 10
2351.5218664357
 20
531.097641352
 30
0.0
 10
2351.4464172528
 20
530.8160611681
 30
0.0
 10
2352.0118074948
 20
529.991400088
 30
0.0
 10
2354.0808096729
 20
528.7594575772
 30
0.0
 10
2357.7723966091
 20
527.3790143974
 30
0.0
 10
2361.6596262661
 20
526.7287197915
 30
0.0
 10
2364.0674059683
 20
526.7611122128
 30
0.0
 10
2364.9693788209
 20
527.1925945367
 30
0.0
 10
2365.0448280037
 20
527.4741747205
 30
0.0
  0
SPLINE
  5
730
100
AcDbEntity
  8
0
100
AcDbSpline
 62
7
  6
CONTINUOUS
 70
0
 71
3
 72
13
 73
9
 74
0
 42
0.0000001
 43
0.0000001
 44
0.0000000001
 40
0.0
 40
0.0
 40
0.0
 40
0.0
 40
0.0558797631
 40
0.1536333863
 40
0.4526341329
 40
0.7811733352
 40
0.911094813
 40
1.0
 40
1.0
 40
1.0
 40
1.0
 10
2460.3535543224
 20
516.4908363585
 30
0.0
 10
2460.3255113525
 20
516.2647012927
 30
0.0
 10
2460.7349475873
 20
515.6739469459
 30
0.0
 10
2462.244142184
 20
514.6858783087
 30
0.0
 10
2465.0548461269
 20
513.5897088106
 30
0.0
 10
2468.0813380518
 20
512.9128955994
 30
0.0
 10
2470.305915701
 20
512.8000701825
 30
0.0
 10
2471.2151082519
 20
512.9069348495
 30
0.0
 10
2471.5473976472
 20
513.0519110437
 30
0.0
  0
SPLINE
  5
731
100
AcDbEntity
  8
0
100
AcDbSpline
 62
7
  6
CONTINUOUS
 70
0
 71
3
 72
9
 73
5
 74
0
 42
0.0000001
 43
0.0000001
 44
0.0000000001
 40
0.0
 40
0.0
 40
0.0
 40
0.0
 40
0.2981787049
 40
1.0
 40
1.0
 40
1.0
 40
1.0
 10
2471.5473976472
 20
513.0519110437
 30
0.0
 10
2471.5947868911
 20
513.0725867328
 30
0.0
 10
2471.7487522566
 20
513.1491293876
 30
0.0
 10
2471.8897981363
 20
513.2749277093
 30
0.0
 10
2471.9372123735
 20
513.3870045383
 30
0.0
  0
SPLINE
  5
732
100
AcDbEntity
  8
0
100
AcDbSpline
 62
7
  6
CONTINUOUS
 70
0
 71
3
 72
13
 73
9
 74
0
 42
0.0000001
 43
0.0000001
 44
0.0000000001
 40
0.0
 40
0.0
 40
0.0
 40
0.0
 40
0.0558797631
 40
0.1536333863
 40
0.4526341329
 40
0.7811733352
 40
0.911094813
 40
1.0
 40
1.0
 40
1.0
 40
1.0
 10
2356.1301576659
 20
544.4174113251
 30
0.0
 10
2356.1021146959
 20
544.1912762593
 30
0.0
 10
2356.5115509307
 20
543.6005219125
 30
0.0
 10
2358.0207455274
 20
542.6124532752
 30
0.0
 10
2360.8314494703
 20
541.5162837772
 30
0.0
 10
2363.8579413952
 20
540.8394705659
 30
0.0
 10
2366.0825190444
 20
540.7266451491
 30
0.0
 10
2366.9917115953
 20
540.8335098161
 30
0.0
 10
2367.3240009906
 20
540.9784860103
 30
0.0
  0
SPLINE
  5
733
100
AcDbEntity
  8
0
100
AcDbSpline
 62
7
  6
CONTINUOUS
 70
0
 71
3
 72
9
 73
5
 74
0
 42
0.0000001
 43
0.0000001
 44
0.0000000001
 40
0.0
 40
0.0
 40
0.0
 40
0.0
 40
0.2981787049
 40
1.0
 40
1.0
 40
1.0
 40
1.0
 10
2367.3240009906
 20
540.9784860103
 30
0.0
 10
2367.3713902345
 20
540.9991616994
 30
0.0
 10
2367.5253556
 20
541.0757043541
 30
0.0
 10
2367.6664014797
 20
541.2015026759
 30
0.0
 10
2367.7138157169
 20
541.3135795049
 30
0.0
  0
ELLIPSE
  5
734
100
AcDbEntity
  8
0
100
AcDbEllipse
 62
7
  6
CONTINUOUS
 10
1074.4404361282
 20
910.6689500903
 30
0.0
 11
-0.0
 21
37.2
 31
0.0
 40
1.0
 41
-1.0457253902
 42
-0.4371661979
  0
ELLIPSE
  5
735
100
AcDbEntity
  8
0
100
AcDbEllipse
 62
7
  6
CONTINUOUS
 10
852.2001888718
 20
910.6689500903
 30
0.0
 11
37.2
 21
0.0
 31
0.0
 40
1.0
 41
2.0079625247
 42
2.2537847343
  0
ELLIPSE
  5
736
100
AcDbEntity
  8
0
100
AcDbEllipse
 62
7
  6
CONTINUOUS
 10
852.2001888718
 20
783.8342563259
 30
0.0
 11
37.2
 21
0.0
 31
0.0
 40
1.0
 41
-2.2537847343
 42
-2.0082241938
  0
ELLIPSE
  5
737
100
AcDbEntity
  8
0
100
AcDbEllipse
 62
7
  6
CONTINUOUS
 10
1074.4404361282
 20
783.8342563259
 30
0.0
 11
0.0
 21
37.2
 31
0.0
 40
1.0
 41
-2.7041647866
 42
-2.0958672634
  0
ELLIPSE
  5
738
100
AcDbEntity
  8
0
100
AcDbEllipse
 62
7
  6
CONTINUOUS
 10
565.6178738382
 20
847.2516032081
 30
0.0
 11
0.0
 21
547.2
 31
0.0
 40
1.0
 41
-1.7213364191
 42
-1.4202562345
  0
ELLIPSE
  5
739
100
AcDbEntity
  8
0
100
AcDbEllipse
 62
7
  6
CONTINUOUS
 10
2573.340244226
 20
1459.4910051406
 30
0.0
 11
52.6087445203
 21
-0.0
 31
0.0
 40
0.5772746578
 41
-2.2537847343
 42
-2.0082241938
  0
ELLIPSE
  5
73A
100
AcDbEntity
  8
0
100
AcDbEllipse
 62
7
  6
CONTINUOUS
 10
2711.4878301136
 20
1420.9386689928
 30
0.0
 11
8.0
 21
-0.0
 31
0.0
 40
0.5775014622
 41
6.2831853072
 42
7.853981634
  0
ELLIPSE
  5
73B
100
AcDbEntity
  8
0
100
AcDbEllipse
 62
7
  6
CONTINUOUS
 10
2573.340244226
 20
1563.0375364333
 30
0.0
 11
52.6087445203
 21
0.0
 31
0.0
 40
0.5772746578
 41
2.0079625247
 42
2.2537847343
  0
ELLIPSE
  5
73C
100
AcDbEntity
  8
0
100
AcDbEllipse
 62
7
  6
CONTINUOUS
 10
2711.4878301136
 20
1423.3878379438
 30
0.0
 11
8.0
 21
-0.0
 31
0.0
 40
0.5775014622
 41
0.0
 42
1.5707963268
  0
ELLIPSE
  5
73D
100
AcDbEntity
  8
0
100
AcDbEllipse
 62
7
  6
CONTINUOUS
 10
963.3203125
 20
424.8568768237
 30
0.0
 11
8.0
 21
-0.0
 31
0.0
 40
1.0
 41
-2.3561944902
 42
-0.7853981634
  0
ELLIPSE
  5
73E
100
AcDbEntity
  8
0
100
AcDbEllipse
 62
7
  6
CONTINUOUS
 10
2323.2791848628
 20
536.3896184727
 30
0.0
 11
7.7274066103
 21
-2.0705523608
 31
0.0
 40
0.2588190451
 41
0.7853981634
 42
2.3561944902
  0
ELLIPSE
  5
73F
100
AcDbEntity
  8
0
100
AcDbEllipse
 62
7
  6
CONTINUOUS
 10
1571.5993743002
 20
1395.7147786654
 30
0.0
 11
45.1707327435
 21
26.079334709
 31
0.0
 40
0.1316524976
 41
2.1388622186
 42
2.7474214109
  0
ELLIPSE
  5
740
100
AcDbEntity
  8
0
100
AcDbEllipse
 62
7
  6
CONTINUOUS
 10
1629.1193828784
 20
1610.3823731312
 30
0.0
 11
-26.079334709
 21
45.1707327435
 31
0.0
 40
0.1316524976
 41
0.7569082254
 42
1.002730435
  0
ENDSEC
  0
SECTION
  2
OBJECTS
  0
DICTIONARY
  5
C
100
AcDbDictionary
280
0
281
1
  3
ACAD_GROUP
350
D
  3
ACAD_MLINESTYLE
350
17
  3
ACAD_LAYOUT
350
1A
  3
ACAD_PLOTSETTINGS
350
19
  3
ACAD_PLOTSTYLENAME
350
E
  0
DICTIONARY
  5
D
102
{ACAD_REACTORS
330
C
102
}
100
AcDbDictionary
280
0
281
1
  0
ACDBDICTIONARYWDFLT
  5
E
102
{ACAD_REACTORS
330
C
102
}
100
AcDbDictionary
281
1
  3
Normal
350
F
100
AcDbDictionaryWithDefault
340
F
  0
DICTIONARY
  5
17
102
{ACAD_REACTORS
330
C
102
}
100
AcDbDictionary
280
0
281
1
  3
Standard
350
18
  0
DICTIONARY
  5
19
102
{ACAD_REACTORS
330
C
102
}
100
AcDbDictionary
281
1
  0
DICTIONARY
  5
1A
102
{ACAD_REACTORS
330
C
102
}
100
AcDbDictionary
281
1
  3
Model
350
741
  3
Layout1
350
742
  0
ACDBPLACEHOLDER
  5
F
102
{ACAD_REACTORS
330
E
102
}
  0
MLINESTYLE
  5
18
102
{ACAD_REACTORS
330
17
102
}
100
AcDbMlineStyle
  2
STANDARD
 70
0
  3

 62
256
 51
90.0
 52
90.0
 71
2
 49
0.5
 62
256
  6
BYLAYER
 49
-0.5
 62
256
  6
BYLAYER
  0
LAYOUT
  5
741
102
{ACAD_REACTORS
330
1A
102
}
100
AcDbPlotSettings
  1

  2
none_device
  4

  6

 40
0.0
 41
0.0
 42
0.0
 43
0.0
 44
431.8
 45
279.4
 46
0.0
 47
0.0
 48
0.0
 49
0.0
140
0.0
141
0.0
142
1.0
143
1.0
 70
1024
 72
1
 73
0
 74
0
  7

 75
0
147
1.0
148
0.0
149
0.0
100
AcDbLayout
  1
Model
 70
0
 71
0
 10
0.0
 20
0.0
 11
431.8
 21
279.4
 12
0.0
 22
0.0
 32
0.0
 14
0.0
 24
0.0
 34
0.0
 15
0.0
 25
0.0
 35
0.0
146
0.0
 13
0.0
 23
0.0
 33
0.0
 16
1.0
 26
0.0
 36
0.0
 17
0.0
 27
1.0
 37
0.0
 76
0
330
213
345
0
346
0
  0
LAYOUT
  5
742
102
{ACAD_REACTORS
330
1A
102
}
100
AcDbPlotSettings
  1

  2
none_device
  4

  6

 40
0.0
 41
0.0
 42
0.0
 43
0.0
 44
431.8
 45
279.4
 46
0.0
 47
0.0
 48
0.0
 49
0.0
140
0.0
141
0.0
142
1.0
143
1.0
 70
0
 72
1
 73
0
 74
0
  7

 75
0
147
1.0
148
0.0
149
0.0
100
AcDbLayout
  1
Layout1
 70
0
 71
1
 10
0.0
 20
0.0
 11
431.8
 21
279.4
 12
0.0
 22
0.0
 32
0.0
 14
0.0
 24
0.0
 34
0.0
 15
0.0
 25
0.0
 35
0.0
146
0.0
 13
0.0
 23
0.0
 33
0.0
 16
1.0
 26
0.0
 36
0.0
 17
0.0
 27
1.0
 37
0.0
 76
0
330
214
345
0
346
0
  0
ENDSEC
  0
EOF
