  0
SECTION
  2
HEADER
  9
$ACADVER
  1
AC1015
  9
$ACADMAINTVER
 70
     6
  9
$DWGCODEPAGE
  3
ANSI_1252
  9
$INSBASE
 10
0.0
 20
0.0
 30
0.0
  9
$EXTMIN
 10
0.0
 20
0.0
 30
0.0
  9
$EXTMAX
 10
863.6
 20
558.8
 30
0.0
  9
$LIMMIN
 10
0.0
 20
0.0
  9
$LIMMAX
 10
863.6
 20
558.8
  9
$ORTHOMODE
 70
     0
  9
$REGENMODE
 70
     1
  9
$FILLMODE
 70
     1
  9
$QTEXTMODE
 70
     0
  9
$MIRRTEXT
 70
     1
  9
$LTSCALE
 40
2.0
  9
$ATTMODE
 70
     1
  9
$TEXTSIZE
 40
6.35
  9
$TRACEWID
 40
1.0
  9
$TEXTSTYLE
  7
STANDARD
  9
$CLAYER
  8
0
  9
$CELTYPE
  6
ByLayer
  9
$CECOLOR
 62
   256
  9
$CELTSCALE
 40
1.0
  9
$DISPSILH
 70
     0
  9
$DIMSCALE
 40
1.0
  9
$DIMASZ
 40
4.0
  9
$DIMEXO
 40
1.524
  9
$DIMDLI
 40
3.75
  9
$DIMRND
 40
0.0
  9
$DIMDLE
 40
0.0
  9
$DIMEXE
 40
1.524
  9
$DIMTP
 40
0.0
  9
$DIMTM
 40
0.0
  9
$DIMTXT
 40
6.35
  9
$DIMCEN
 40
2.5
  9
$DIMTSZ
 40
0.0
  9
$DIMTOL
 70
     0
  9
$DIMLIM
 70
     0
  9
$DIMTIH
 70
     1
  9
$DIMTOH
 70
     1
  9
$DIMSE1
 70
     0
  9
$DIMSE2
 70
     0
  9
$DIMTAD
 70
     0
  9
$DIMZIN
 70
     1
  9
$DIMBLK
  1

  9
$DIMASO
 70
     1
  9
$DIMSHO
 70
     1
  9
$DIMPOST
  1

  9
$DIMAPOST
  1

  9
$DIMALT
 70
     0
  9
$DIMALTD
 70
     3
  9
$DIMALTF
 40
0.0393700787
  9
$DIMLFAC
 40
1.0
  9
$DIMTOFL
 70
     1
  9
$DIMTVP
 40
0.0
  9
$DIMTIX
 70
     0
  9
$DIMSOXD
 70
     0
  9
$DIMSAH
 70
     0
  9
$DIMBLK1
  1

  9
$DIMBLK2
  1

  9
$DIMSTYLE
  2
ISO-25
  9
$DIMCLRD
 70
     0
  9
$DIMCLRE
 70
     0
  9
$DIMCLRT
 70
     0
  9
$DIMTFAC
 40
1.0
  9
$DIMGAP
 40
3.048
  9
$DIMJUST
 70
     0
  9
$DIMSD1
 70
     0
  9
$DIMSD2
 70
     0
  9
$DIMTOLJ
 70
     0
  9
$DIMTZIN
 70
     1
  9
$DIMALTZ
 70
     0
  9
$DIMALTTZ
 70
     0
  9
$DIMUPT
 70
     0
  9
$DIMDEC
 70
     2
  9
$DIMTDEC
 70
     2
  9
$DIMALTU
 70
     2
  9
$DIMALTTD
 70
     3
  9
$DIMTXSTY
  7
STANDARD
  9
$DIMAUNIT
 70
     0
  9
$DIMADEC
 70
     0
  9
$DIMALTRND
 40
0.0
  9
$DIMAZIN
 70
     0
  9
$DIMDSEP
 70
    44
  9
$DIMATFIT
 70
     3
  9
$DIMFRAC
 70
     0
  9
$DIMLDRBLK
  1

  9
$DIMLUNIT
 70
     2
  9
$DIMLWD
 70
    -2
  9
$DIMLWE
 70
    -2
  9
$DIMTMOVE
 70
     0
  9
$LUNITS
 70
     2
  9
$LUPREC
 70
     3
  9
$SKETCHINC
 40
1.0
  9
$FILLETRAD
 40
0.0
  9
$AUNITS
 70
     0
  9
$AUPREC
 70
     0
  9
$MENU
  1
.
  9
$ELEVATION
 40
0.0
  9
$PELEVATION
 40
0.0
  9
$THICKNESS
 40
0.0
  9
$LIMCHECK
 70
     0
  9
$CHAMFERA
 40
0.0
  9
$CHAMFERB
 40
0.0
  9
$CHAMFERC
 40
0.0
  9
$CHAMFERD
 40
0.0
  9
$SKPOLY
 70
     0
  9
$TDCREATE
 40
2460425.749936771
  9
$TDUCREATE
 40
2460426.041603438
  9
$TDUPDATE
 40
2460425.749939132
  9
$TDUUPDATE
 40
2460426.041605799
  9
$TDINDWG
 40
0.0000000116
  9
$TDUSRTIMER
 40
0.0000000116
  9
$USRTIMER
 70
     1
  9
$ANGBASE
 50
0.0
  9
$ANGDIR
 70
     0
  9
$PDMODE
 70
     0
  9
$PDSIZE
 40
-1.0
  9
$PLINEWID
 40
0.0
  9
$SPLFRAME
 70
     0
  9
$SPLINETYPE
 70
     6
  9
$SPLINESEGS
 70
     8
  9
$HANDSEED
  5
339
  9
$SURFTAB1
 70
     6
  9
$SURFTAB2
 70
     6
  9
$SURFTYPE
 70
     6
  9
$SURFU
 70
     6
  9
$SURFV
 70
     6
  9
$UCSBASE
  2

  9
$UCSNAME
  2

  9
$UCSORG
 10
0.0
 20
0.0
 30
0.0
  9
$UCSXDIR
 10
1.0
 20
0.0
 30
0.0
  9
$UCSYDIR
 10
0.0
 20
1.0
 30
0.0
  9
$UCSORTHOREF
  2

  9
$UCSORTHOVIEW
 70
     0
  9
$UCSORGTOP
 10
0.0
 20
0.0
 30
0.0
  9
$UCSORGBOTTOM
 10
0.0
 20
0.0
 30
0.0
  9
$UCSORGLEFT
 10
0.0
 20
0.0
 30
0.0
  9
$UCSORGRIGHT
 10
0.0
 20
0.0
 30
0.0
  9
$UCSORGFRONT
 10
0.0
 20
0.0
 30
0.0
  9
$UCSORGBACK
 10
0.0
 20
0.0
 30
0.0
  9
$PUCSBASE
  2

  9
$PUCSNAME
  2

  9
$PUCSORG
 10
0.0
 20
0.0
 30
0.0
  9
$PUCSXDIR
 10
1.0
 20
0.0
 30
0.0
  9
$PUCSYDIR
 10
0.0
 20
1.0
 30
0.0
  9
$PUCSORTHOREF
  2

  9
$PUCSORTHOVIEW
 70
     0
  9
$PUCSORGTOP
 10
0.0
 20
0.0
 30
0.0
  9
$PUCSORGBOTTOM
 10
0.0
 20
0.0
 30
0.0
  9
$PUCSORGLEFT
 10
0.0
 20
0.0
 30
0.0
  9
$PUCSORGRIGHT
 10
0.0
 20
0.0
 30
0.0
  9
$PUCSORGFRONT
 10
0.0
 20
0.0
 30
0.0
  9
$PUCSORGBACK
 10
0.0
 20
0.0
 30
0.0
  9
$USERI1
 70
     0
  9
$USERI2
 70
     0
  9
$USERI3
 70
     0
  9
$USERI4
 70
     0
  9
$USERI5
 70
     0
  9
$USERR1
 40
0.0
  9
$USERR2
 40
0.0
  9
$USERR3
 40
0.0
  9
$USERR4
 40
0.0
  9
$USERR5
 40
0.0
  9
$WORLDVIEW
 70
     1
  9
$SHADEDGE
 70
     3
  9
$SHADEDIF
 70
    70
  9
$TILEMODE
 70
     1
  9
$MAXACTVP
 70
    64
  9
$PINSBASE
 10
0.0
 20
0.0
 30
0.0
  9
$PLIMCHECK
 70
     0
  9
$PEXTMIN
 10
1.0000000000E+20
 20
1.0000000000E+20
 30
1.0000000000E+20
  9
$PEXTMAX
 10
-1.0000000000E+20
 20
-1.0000000000E+20
 30
-1.0000000000E+20
  9
$PLIMMIN
 10
0.0
 20
0.0
  9
$PLIMMAX
 10
420.0
 20
297.0
  9
$UNITMODE
 70
     0
  9
$VISRETAIN
 70
     1
  9
$PLINEGEN
 70
     0
  9
$PSLTSCALE
 70
     1
  9
$TREEDEPTH
 70
  3020
  9
$CMLSTYLE
  2
Standard
  9
$CMLJUST
 70
     0
  9
$CMLSCALE
 40
20.0
  9
$PROXYGRAPHICS
 70
     1
  9
$MEASUREMENT
 70
     1
  9
$CELWEIGHT
370
    -1
  9
$ENDCAPS
280
     0
  9
$JOINSTYLE
280
     0
  9
$LWDISPLAY
290
     1
  9
$INSUNITS
 70
     4
  9
$HYPERLINKBASE
  1

  9
$STYLESHEET
  1

  9
$XEDIT
290
     1
  9
$CEPSNTYPE
380
     0
  9
$PSTYLEMODE
290
     1
  9
$FINGERPRINTGUID
  2
{db36871b-5867-4dda-bac5-1bff2871a59c}
  9
$VERSIONGUID
  2
{FAEB1C32-E019-11D5-929B-00C0DF256EC4}
  9
$EXTNAMES
290
     1
  9
$PSVPSCALE
 40
0.0
  9
$OLESTARTUP
290
     0
  0
ENDSEC
  0
SECTION
  2
CLASSES
  0
CLASS
  1
ACDBDICTIONARYWDFLT
  2
AcDbDictionaryWithDefault
  3
ObjectDBX Classes
 90
        0
280
     0
281
     0
  0
CLASS
  1
VISUALSTYLE
  2
AcDbVisualStyle
  3
ObjectDBX Classes
 90
     4095
280
     0
281
     0
  0
CLASS
  1
MATERIAL
  2
AcDbMaterial
  3
ObjectDBX Classes
 90
     1153
280
     0
281
     0
  0
CLASS
  1
SCALE
  2
AcDbScale
  3
ObjectDBX Classes
 90
     1153
280
     0
281
     0
  0
CLASS
  1
TABLESTYLE
  2
AcDbTableStyle
  3
ObjectDBX Classes
 90
     4095
280
     0
281
     0
  0
CLASS
  1
MLEADERSTYLE
  2
AcDbMLeaderStyle
  3
ACDB_MLEADERSTYLE_CLASS
 90
     4095
280
     0
281
     0
  0
CLASS
  1
SUN
  2
AcDbSun
  3
SCENEOE
 90
     1153
280
     0
281
     0
  0
CLASS
  1
ACDBPLACEHOLDER
  2
AcDbPlaceHolder
  3
ObjectDBX Classes
 90
        0
280
     0
281
     0
  0
CLASS
  1
LAYOUT
  2
AcDbLayout
  3
ObjectDBX Classes
 90
        0
280
     0
281
     0
  0
ENDSEC
  0
SECTION
  2
TABLES
  0
TABLE
  2
VPORT
  5
8
330
0
100
AcDbSymbolTable
 70
     1
  0
VPORT
  5
29
330
8
100
AcDbSymbolTableRecord
100
AcDbViewportTableRecord
  2
*Active
 70
     0
 10
0.0
 20
0.0
 11
1.0
 21
1.0
 12
431.8
 22
279.4
 13
0.0
 23
0.0
 14
10.0
 24
10.0
 15
10.0
 25
10.0
 16
0.0
 26
0.0
 36
1.0
 17
0.0
 27
0.0
 37
0.0
 40
558.8
 41
1.5454545455
 42
50.0
 43
0.0
 44
0.0
 50
0.0
 51
0.0
 71
     0
 72
  2000
 73
     1
 74
     3
 75
     0
 76
     0
 77
     0
 78
     0
281
     0
 65
     1
110
0.0
120
0.0
130
0.0
111
1.0
121
0.0
131
0.0
112
0.0
122
1.0
132
0.0
 79
     0
146
0.0
  0
ENDTAB
  0
TABLE
  2
LTYPE
  5
5
330
0
100
AcDbSymbolTable
 70
     6
  0
LTYPE
  5
14
330
5
100
AcDbSymbolTableRecord
100
AcDbLinetypeTableRecord
  2
ByBlock
 70
     0
  3

 72
    65
 73
     0
 40
0.0
  0
LTYPE
  5
15
330
5
100
AcDbSymbolTableRecord
100
AcDbLinetypeTableRecord
  2
ByLayer
 70
     0
  3

 72
    65
 73
     0
 40
0.0
  0
LTYPE
  5
16
330
5
100
AcDbSymbolTableRecord
100
AcDbLinetypeTableRecord
  2
Continuous
 70
     0
  3
Solid line
 72
    65
 73
     0
 40
0.0
  0
LTYPE
  5
5E
330
5
100
AcDbSymbolTableRecord
100
AcDbLinetypeTableRecord
  2
HIDDEN
 70
     0
  3
Hidden __ __ __ __ __ __ __ __ __ __ __ __ __ __
 72
    65
 73
     2
 40
1.905
 49
1.27
 74
     0
 49
-0.635
 74
     0
  0
LTYPE
  5
5F
330
5
100
AcDbSymbolTableRecord
100
AcDbLinetypeTableRecord
  2
PHANTOM
 70
     0
  3
Phantom ______  __  __  ______  __  __  ______
 72
    65
 73
     6
 40
12.7
 49
6.35
 74
     0
 49
-1.27
 74
     0
 49
1.27
 74
     0
 49
-1.27
 74
     0
 49
1.27
 74
     0
 49
-1.27
 74
     0
  0
LTYPE
  5
60
330
5
100
AcDbSymbolTableRecord
100
AcDbLinetypeTableRecord
  2
CENTER
 70
     0
  3
Center ____ _ ____ _ ____ _ ____ _ ____ _ ____
 72
    65
 73
     4
 40
10.16
 49
6.35
 74
     0
 49
-1.27
 74
     0
 49
1.27
 74
     0
 49
-1.27
 74
     0
  0
LTYPE
  5
61
330
5
100
AcDbSymbolTableRecord
100
AcDbLinetypeTableRecord
  2
CENTERX2
 70
     0
  3
Center (2x) ________  __  ________  __  _____
 72
    65
 73
     4
 40
20.32
 49
12.7
 74
     0
 49
-2.54
 74
     0
 49
2.54
 74
     0
 49
-2.54
 74
     0
  0
LTYPE
  5
62
330
5
100
AcDbSymbolTableRecord
100
AcDbLinetypeTableRecord
  2
DOT2
 70
     0
  3
Dot (.5x) ........................................
 72
    65
 73
     2
 40
0.635
 49
0.0
 74
     0
 49
-0.635
 74
     0
  0
ENDTAB
  0
TABLE
  2
LAYER
  5
2
330
0
100
AcDbSymbolTable
 70
     6
  0
LAYER
  5
10
330
2
100
AcDbSymbolTableRecord
100
AcDbLayerTableRecord
  2
0
 70
     0
 62
     7
  6
Continuous
370
    -3
390
F
  0
LAYER
  5
63
330
2
100
AcDbSymbolTableRecord
100
AcDbLayerTableRecord
  2
SLD-0
 70
     0
 62
   179
  6
Continuous
370
    -3
390
F
  0
LAYER
  5
64
330
2
100
AcDbSymbolTableRecord
100
AcDbLayerTableRecord
  2
WIRE_BOND
 70
     0
 62
     6
  6
Continuous
370
   100
390
F
  0
LAYER
  5
65
330
2
100
AcDbSymbolTableRecord
100
AcDbLayerTableRecord
  2
HIGHLIGHT-BLUE
 70
     0
 62
     5
  6
Continuous
370
    70
390
F
  0
LAYER
  5
66
330
2
100
AcDbSymbolTableRecord
100
AcDbLayerTableRecord
  2
MANUAL_DIM
 70
     0
 62
   114
  6
Continuous
370
    -3
390
F
  0
LAYER
  5
67
330
2
100
AcDbSymbolTableRecord
100
AcDbLayerTableRecord
  2
TORQUE_9-10
 70
     0
 62
   155
  6
Continuous
370
    -3
390
F
  0
ENDTAB
  0
TABLE
  2
STYLE
  5
3
330
0
100
AcDbSymbolTable
 70
     5
  0
STYLE
  5
11
330
3
100
AcDbSymbolTableRecord
100
AcDbTextStyleTableRecord
  2
STANDARD
 70
     0
 40
0.0
 41
1.0
 50
0.0
 71
     0
 42
6.35
  3
GOTHIC.TTF
  4

1001
ACAD
1000
CENTURY GOTHIC
1071
       34
  0
STYLE
  5
73
330
3
100
AcDbSymbolTableRecord
100
AcDbTextStyleTableRecord
  2
SLDTEXTSTYLE0
 70
     0
 40
0.0
 41
0.913
 50
0.0
 71
     0
 42
6.35
  3
GOTHIC.TTF
  4

1001
ACAD
1000
Century Gothic
1071
      290
  0
STYLE
  5
8D
330
3
100
AcDbSymbolTableRecord
100
AcDbTextStyleTableRecord
  2
SLDTEXTSTYLE1
 70
     0
 40
0.0
 41
0.87
 50
0.0
 71
     0
 42
6.35
  3
ARIALN.TTF
  4

1001
ACAD
1000
Arial Narrow
1071
      290
  0
STYLE
  5
98
330
3
100
AcDbSymbolTableRecord
100
AcDbTextStyleTableRecord
  2
SLDTEXTSTYLE2
 70
     0
 40
0.0
 41
0.8969072165
 50
0.0
 71
     0
 42
6.35
  3
ARIALN.TTF
  4

1001
ACAD
1000
Arial Narrow
1071
      290
  0
STYLE
  5
9D
330
3
100
AcDbSymbolTableRecord
100
AcDbTextStyleTableRecord
  2
SLDTEXTSTYLE3
 70
     0
 40
0.0
 41
0.8969072165
 50
0.0
 71
     0
 42
6.35
  3
ARIALN.TTF
  4
bigfont
1001
ACAD
1000
Arial Narrow
1071
      290
  0
ENDTAB
  0
TABLE
  2
VIEW
  5
6
330
0
100
AcDbSymbolTable
 70
     0
  0
ENDTAB
  0
TABLE
  2
UCS
  5
7
330
0
100
AcDbSymbolTable
 70
     0
  0
ENDTAB
  0
TABLE
  2
APPID
  5
9
330
0
100
AcDbSymbolTable
 70
     1
  0
APPID
  5
12
330
9
100
AcDbSymbolTableRecord
100
AcDbRegAppTableRecord
  2
ACAD
 70
     0
  0
ENDTAB
  0
TABLE
  2
DIMSTYLE
  5
A
330
0
100
AcDbSymbolTable
 70
     8
100
AcDbDimStyleTable
  0
DIMSTYLE
105
27
330
A
100
AcDbSymbolTableRecord
100
AcDbDimStyleTableRecord
  2
ISO-25
 70
     0
 41
2.5
 42
0.625
 43
3.75
 44
1.25
 73
     0
 74
     0
 77
     1
 78
     8
140
2.5
141
2.5
143
0.0393700787
147
0.625
171
     3
172
     1
178
     0
271
     2
272
     2
274
     3
278
    44
283
     0
284
     8
340
11
  0
DIMSTYLE
105
103
102
{ACAD_REACTORS
330
102
102
}
330
A
100
AcDbSymbolTableRecord
100
AcDbDimStyleTableRecord
  2
SLDDIMSTYLE0
 70
     0
  3
<>
  4
<>
 41
4.0
 44
0.0
 45
0.000000001
 78
    12
 79
     3
140
4.7625
141
0.0
143
0.0393700787
147
1.190625
148
0.000000001
170
     1
171
     3
173
     1
178
     0
271
     2
272
     2
274
     3
276
     2
284
    12
340
73
  0
DIMSTYLE
105
11B
102
{ACAD_REACTORS
330
11A
330
12E
330
14A
330
1D3
330
1FC
330
210
330
25E
330
271
330
2B4
330
2C8
102
}
330
A
100
AcDbSymbolTableRecord
100
AcDbDimStyleTableRecord
  2
SLDDIMSTYLE1
 70
     0
 41
4.0
 44
0.0
 45
0.000000001
 78
     4
 79
     1
140
4.7625
143
0.0393700787
147
1.190625
148
0.000000001
170
     1
171
     3
173
     1
178
     0
271
     2
272
     2
274
     3
276
     2
284
    12
340
73
  0
DIMSTYLE
105
142
102
{ACAD_REACTORS
330
141
102
}
330
A
100
AcDbSymbolTableRecord
100
AcDbDimStyleTableRecord
  2
SLDDIMSTYLE2
 70
     0
  3
<>
  4
<>
 41
4.0
 44
0.0
 45
0.000000001
 78
    12
 79
     3
140
4.7625
141
0.0
143
0.0393700787
147
1.190625
148
0.000000001
170
     1
171
     3
173
     1
178
     0
271
     2
272
     2
274
     3
276
     2
284
    12
340
73
  0
DIMSTYLE
105
15E
330
A
100
AcDbSymbolTableRecord
100
AcDbDimStyleTableRecord
  2
SLDDIMSTYLE3
 70
     0
 41
4.0
 44
0.0
 45
0.000000001
146
4.0
147
0.0
173
     1
178
     0
271
     0
272
     0
276
     2
340
11
  0
DIMSTYLE
105
163
330
A
100
AcDbSymbolTableRecord
100
AcDbDimStyleTableRecord
  2
SLDDIMSTYLE4
 70
     0
 41
1.0
 44
0.0
 45
0.000000001
147
0.0
173
     1
178
     0
271
     0
272
     0
276
     2
340
11
341
164
343
164
344
164
  0
DIMSTYLE
105
1BE
102
{ACAD_REACTORS
330
1BD
330
1E8
102
}
330
A
100
AcDbSymbolTableRecord
100
AcDbDimStyleTableRecord
  2
SLDDIMSTYLE5
 70
     0
 41
4.0
 44
0.0
 45
0.000000001
 78
     4
 79
     1
140
4.7625
143
0.0393700787
147
1.190625
148
0.000000001
170
     1
171
     3
172
     1
173
     1
178
     0
271
     2
272
     2
274
     3
276
     2
284
    12
289
     0
340
73
  0
DIMSTYLE
105
31A
102
{ACAD_REACTORS
330
319
102
}
330
A
100
AcDbSymbolTableRecord
100
AcDbDimStyleTableRecord
  2
SLDDIMSTYLE6
 70
     0
 41
4.0
 44
0.0
 45
0.000000001
 78
    12
 79
     3
140
4.7625
143
0.0393700787
147
1.190625
148
0.000000001
170
     1
171
     3
173
     1
178
     0
271
     2
272
     2
274
     3
276
     2
284
    12
340
73
  0
ENDTAB
  0
TABLE
  2
BLOCK_RECORD
  5
1
330
0
100
AcDbSymbolTable
 70
    23
  0
BLOCK_RECORD
  5
1F
330
1
100
AcDbSymbolTableRecord
100
AcDbBlockTableRecord
  2
*Model_Space
340
22
  0
BLOCK_RECORD
  5
1B
330
1
100
AcDbSymbolTableRecord
100
AcDbBlockTableRecord
  2
*Paper_Space
340
1E
  0
BLOCK_RECORD
  5
23
330
1
100
AcDbSymbolTableRecord
100
AcDbBlockTableRecord
  2
*Paper_Space0
340
26
  0
BLOCK_RECORD
  5
104
330
1
100
AcDbSymbolTableRecord
100
AcDbBlockTableRecord
  2
_D
340
0
  0
BLOCK_RECORD
  5
11C
330
1
100
AcDbSymbolTableRecord
100
AcDbBlockTableRecord
  2
_D_1
340
0
  0
BLOCK_RECORD
  5
12F
330
1
100
AcDbSymbolTableRecord
100
AcDbBlockTableRecord
  2
_D_2
340
0
  0
BLOCK_RECORD
  5
143
330
1
100
AcDbSymbolTableRecord
100
AcDbBlockTableRecord
  2
_D_3
340
0
  0
BLOCK_RECORD
  5
14B
330
1
100
AcDbSymbolTableRecord
100
AcDbBlockTableRecord
  2
_D_4
340
0
  0
BLOCK_RECORD
  5
164
330
1
100
AcDbSymbolTableRecord
100
AcDbBlockTableRecord
  2
_Dot
340
0
  0
BLOCK_RECORD
  5
16C
330
1
100
AcDbSymbolTableRecord
100
AcDbBlockTableRecord
  2
SW_SYMBOL_MOD_CL
340
0
102
{BLKREFS
331
171
102
}
  0
BLOCK_RECORD
  5
172
330
1
100
AcDbSymbolTableRecord
100
AcDbBlockTableRecord
  2
SW_CENTERMARKSYMBOL_0
340
0
102
{BLKREFS
331
181
102
}
  0
BLOCK_RECORD
  5
182
330
1
100
AcDbSymbolTableRecord
100
AcDbBlockTableRecord
  2
SW_CENTERMARKSYMBOL_1
340
0
102
{BLKREFS
331
189
102
}
  0
BLOCK_RECORD
  5
18A
330
1
100
AcDbSymbolTableRecord
100
AcDbBlockTableRecord
  2
SW_CENTERMARKSYMBOL_2
340
0
102
{BLKREFS
331
199
102
}
  0
BLOCK_RECORD
  5
19A
330
1
100
AcDbSymbolTableRecord
100
AcDbBlockTableRecord
  2
SW_CENTERMARKSYMBOL_3
340
0
102
{BLKREFS
331
1A1
102
}
  0
BLOCK_RECORD
  5
1BF
330
1
100
AcDbSymbolTableRecord
100
AcDbBlockTableRecord
  2
_D_5
340
0
  0
BLOCK_RECORD
  5
1D4
330
1
100
AcDbSymbolTableRecord
100
AcDbBlockTableRecord
  2
_D_6
340
0
  0
BLOCK_RECORD
  5
1E9
330
1
100
AcDbSymbolTableRecord
100
AcDbBlockTableRecord
  2
_D_7
340
0
  0
BLOCK_RECORD
  5
1FD
330
1
100
AcDbSymbolTableRecord
100
AcDbBlockTableRecord
  2
_D_8
340
0
  0
BLOCK_RECORD
  5
211
330
1
100
AcDbSymbolTableRecord
100
AcDbBlockTableRecord
  2
_D_9
340
0
  0
BLOCK_RECORD
  5
25F
330
1
100
AcDbSymbolTableRecord
100
AcDbBlockTableRecord
  2
_D_10
340
0
  0
BLOCK_RECORD
  5
272
330
1
100
AcDbSymbolTableRecord
100
AcDbBlockTableRecord
  2
_D_11
340
0
  0
BLOCK_RECORD
  5
2B5
330
1
100
AcDbSymbolTableRecord
100
AcDbBlockTableRecord
  2
_D_12
340
0
  0
BLOCK_RECORD
  5
2C9
330
1
100
AcDbSymbolTableRecord
100
AcDbBlockTableRecord
  2
_D_13
340
0
  0
BLOCK_RECORD
  5
31B
330
1
100
AcDbSymbolTableRecord
100
AcDbBlockTableRecord
  2
_D_14
340
0
  0
BLOCK_RECORD
  5
32C
330
1
100
AcDbSymbolTableRecord
100
AcDbBlockTableRecord
  2
SW_SYMBOL_MOD_BOX
340
0
102
{BLKREFS
331
333
102
}
  0
ENDTAB
  0
ENDSEC
  0
SECTION
  2
BLOCKS
  0
BLOCK
  5
20
330
1F
100
AcDbEntity
  8
0
100
AcDbBlockBegin
  2
*Model_Space
 70
     0
 10
0.0
 20
0.0
 30
0.0
  3
*Model_Space
  1

  0
ENDBLK
  5
21
330
1F
100
AcDbEntity
  8
0
100
AcDbBlockEnd
  0
BLOCK
  5
1C
330
1B
100
AcDbEntity
 67
     1
  8
0
100
AcDbBlockBegin
  2
*Paper_Space
 70
     0
 10
0.0
 20
0.0
 30
0.0
  3
*Paper_Space
  1

  0
ENDBLK
  5
1D
330
1B
100
AcDbEntity
 67
     1
  8
0
100
AcDbBlockEnd
  0
BLOCK
  5
24
330
23
100
AcDbEntity
  8
0
100
AcDbBlockBegin
  2
*Paper_Space0
 70
     0
 10
0.0
 20
0.0
 30
0.0
  3
*Paper_Space0
  1

  0
ENDBLK
  5
25
330
23
100
AcDbEntity
  8
0
100
AcDbBlockEnd
  0
BLOCK
  5
105
330
104
100
AcDbEntity
  8
0
100
AcDbBlockBegin
  2
_D
 70
     0
 10
0.0
 20
0.0
 30
0.0
  3
_D
  1

  0
SOLID
  5
107
330
104
100
AcDbEntity
  8
SLD-0
100
AcDbTrace
 10
386.8864204048
 20
301.2013640017
 30
0.0
 11
390.0684009201
 21
303.6762377359
 31
0.0
 12
389.3612941389
 22
304.3833445171
 32
0.0
 13
389.3612941389
 23
304.3833445171
 33
0.0
  0
LINE
  5
108
330
104
100
AcDbEntity
  8
SLD-0
100
AcDbLine
 10
437.8399276722
 20
327.5923356517
 30
0.0
 11
436.3913338713
 21
327.5923356517
 31
0.0
  0
LINE
  5
109
330
104
100
AcDbEntity
  8
SLD-0
100
AcDbLine
 10
436.3913338713
 20
327.5923356517
 30
0.0
 11
436.3913338713
 21
320.0252521886
 31
0.0
  0
LINE
  5
10A
330
104
100
AcDbEntity
  8
SLD-0
100
AcDbLine
 10
436.3913338713
 20
320.0252521886
 30
0.0
 11
437.8399276722
 21
320.0252521886
 31
0.0
  0
LINE
  5
10B
330
104
100
AcDbEntity
  8
SLD-0
100
AcDbLine
 10
453.6708300549
 20
327.5923356517
 30
0.0
 11
455.1194238558
 21
327.5923356517
 31
0.0
  0
LINE
  5
10C
330
104
100
AcDbEntity
  8
SLD-0
100
AcDbLine
 10
455.1194238558
 20
327.5923356517
 30
0.0
 11
455.1194238558
 21
320.0252521886
 31
0.0
  0
LINE
  5
10D
330
104
100
AcDbEntity
  8
SLD-0
100
AcDbLine
 10
455.1194238558
 20
320.0252521886
 30
0.0
 11
453.6708300549
 21
320.0252521886
 31
0.0
  0
LINE
  5
10E
330
104
100
AcDbEntity
  8
SLD-0
100
AcDbLine
 10
479.150206371
 20
327.5923356517
 30
0.0
 11
477.7016125701
 21
327.5923356517
 31
0.0
  0
LINE
  5
10F
330
104
100
AcDbEntity
  8
SLD-0
100
AcDbLine
 10
477.7016125701
 20
327.5923356517
 30
0.0
 11
477.7016125701
 21
320.0252521886
 31
0.0
  0
LINE
  5
110
330
104
100
AcDbEntity
  8
SLD-0
100
AcDbLine
 10
477.7016125701
 20
320.0252521886
 30
0.0
 11
479.150206371
 21
320.0252521886
 31
0.0
  0
LINE
  5
111
330
104
100
AcDbEntity
  8
SLD-0
100
AcDbLine
 10
494.9811087537
 20
327.5923356517
 30
0.0
 11
496.4297025546
 21
327.5923356517
 31
0.0
  0
LINE
  5
112
330
104
100
AcDbEntity
  8
SLD-0
100
AcDbLine
 10
496.4297025546
 20
327.5923356517
 30
0.0
 11
496.4297025546
 21
320.0252521886
 31
0.0
  0
LINE
  5
113
330
104
100
AcDbEntity
  8
SLD-0
100
AcDbLine
 10
496.4297025546
 20
320.0252521886
 30
0.0
 11
494.9811087537
 21
320.0252521886
 31
0.0
  0
LINE
  5
114
330
104
100
AcDbEntity
  8
SLD-0
100
AcDbLine
 10
386.8864204048
 20
301.2013640017
 30
0.0
 11
409.4938503232
 21
323.8087939201
 31
0.0
  0
LINE
  5
115
330
104
100
AcDbEntity
  8
SLD-0
100
AcDbLine
 10
409.4938503232
 20
323.8087939201
 30
0.0
 11
413.4938503232
 21
323.8087939201
 31
0.0
  0
MTEXT
  5
116
330
104
100
AcDbEntity
  8
SLD-0
100
AcDbMText
 10
413.4938503232
 20
326.1086020308
 30
0.0
 40
4.7625
 41
0.0
 71
     1
 72
     1
  1
4X 4.50
  7
SLDTEXTSTYLE0
 73
     1
 44
1.0
  0
MTEXT
  5
117
330
104
100
AcDbEntity
  8
SLD-0
100
AcDbMText
 10
437.8399276722
 20
326.1086020308
 30
0.0
 40
4.7625
 41
0.0
 71
     1
 72
     1
  1
0.177
  7
SLDTEXTSTYLE0
 73
     1
 44
1.0
  0
MTEXT
  5
118
330
104
100
AcDbEntity
  8
SLD-0
100
AcDbMText
 10
456.5680148627
 20
326.1086020308
 30
0.0
 40
4.7625
 41
0.0
 71
     1
 72
     1
  1
 X 7.50
  7
SLDTEXTSTYLE0
 73
     1
 44
1.0
  0
MTEXT
  5
119
330
104
100
AcDbEntity
  8
SLD-0
100
AcDbMText
 10
479.150206371
 20
326.1086020308
 30
0.0
 40
4.7625
 41
0.0
 71
     1
 72
     1
  1
0.295
  7
SLDTEXTSTYLE0
 73
     1
 44
1.0
  0
ENDBLK
  5
106
330
104
100
AcDbEntity
  8
0
100
AcDbBlockEnd
  0
BLOCK
  5
11D
330
11C
100
AcDbEntity
  8
0
100
AcDbBlockBegin
  2
_D_1
 70
     0
 10
0.0
 20
0.0
 30
0.0
  3
_D_1
  1

  0
SOLID
  5
11F
330
11C
100
AcDbEntity
  8
SLD-0
100
AcDbTrace
 10
261.2954301471
 20
306.3603737441
 30
0.0
 11
260.7954301471
 21
302.3603737441
 31
0.0
 12
261.7954301471
 22
302.3603737441
 32
0.0
 13
261.7954301471
 23
302.3603737441
 33
0.0
  0
SOLID
  5
120
330
11C
100
AcDbEntity
  8
SLD-0
100
AcDbTrace
 10
261.2954301471
 20
209.5603737441
 30
0.0
 11
261.7954301471
 21
213.5603737441
 31
0.0
 12
260.7954301471
 22
213.5603737441
 32
0.0
 13
260.7954301471
 23
213.5603737441
 33
0.0
  0
LINE
  5
121
330
11C
100
AcDbEntity
  8
SLD-0
100
AcDbLine
 10
257.948451926
 20
260.212219247
 30
0.0
 11
256.4998581251
 21
260.212219247
 31
0.0
  0
LINE
  5
122
330
11C
100
AcDbEntity
  8
SLD-0
100
AcDbLine
 10
256.4998581251
 20
260.212219247
 30
0.0
 11
256.4998581251
 21
252.6451357839
 31
0.0
  0
LINE
  5
123
330
11C
100
AcDbEntity
  8
SLD-0
100
AcDbLine
 10
256.4998581251
 20
252.6451357839
 30
0.0
 11
257.948451926
 21
252.6451357839
 31
0.0
  0
LINE
  5
124
330
11C
100
AcDbEntity
  8
SLD-0
100
AcDbLine
 10
273.7793543088
 20
260.212219247
 30
0.0
 11
275.2279481096
 21
260.212219247
 31
0.0
  0
LINE
  5
125
330
11C
100
AcDbEntity
  8
SLD-0
100
AcDbLine
 10
275.2279481096
 20
260.212219247
 30
0.0
 11
275.2279481096
 21
252.6451357839
 31
0.0
  0
LINE
  5
126
330
11C
100
AcDbEntity
  8
SLD-0
100
AcDbLine
 10
275.2279481096
 20
252.6451357839
 30
0.0
 11
273.7793543088
 21
252.6451357839
 31
0.0
  0
LINE
  5
127
330
11C
100
AcDbEntity
  8
SLD-0
100
AcDbLine
 10
336.2714301471
 20
306.3603737441
 30
0.0
 11
259.7714301471
 21
306.3603737441
 31
0.0
  0
LINE
  5
128
330
11C
100
AcDbEntity
  8
SLD-0
100
AcDbLine
 10
336.2714301471
 20
209.5603737441
 30
0.0
 11
259.7714301471
 21
209.5603737441
 31
0.0
  0
LINE
  5
129
330
11C
100
AcDbEntity
  8
SLD-0
100
AcDbLine
 10
261.2954301471
 20
306.3603737441
 30
0.0
 11
261.2954301471
 21
268.7450311345
 31
0.0
  0
LINE
  5
12A
330
11C
100
AcDbEntity
  8
SLD-0
100
AcDbLine
 10
261.2954301471
 20
209.5603737441
 30
0.0
 11
261.2954301471
 21
251.6794054968
 31
0.0
  0
MTEXT
  5
12B
330
11C
100
AcDbEntity
  8
SLD-0
100
AcDbMText
 10
245.914319315
 20
267.2612975137
 30
0.0
 40
4.7625
 41
0.0
 71
     1
 72
     1
  1
2X 
  7
SLDTEXTSTYLE0
 73
     1
 44
1.0
  0
MTEXT
  5
12C
330
11C
100
AcDbEntity
  8
SLD-0
100
AcDbMText
 10
257.9484514604
 20
267.2612979793
 30
0.0
 40
4.7625
 41
0.0
 71
     1
 72
     1
  1
96.80
  7
SLDTEXTSTYLE0
 73
     1
 44
1.0
  0
MTEXT
  5
12D
330
11C
100
AcDbEntity
  8
SLD-0
100
AcDbMText
 10
257.948451926
 20
258.7284856261
 30
0.0
 40
4.7625
 41
0.0
 71
     1
 72
     1
  1
3.811
  7
SLDTEXTSTYLE0
 73
     1
 44
1.0
  0
ENDBLK
  5
11E
330
11C
100
AcDbEntity
  8
0
100
AcDbBlockEnd
  0
BLOCK
  5
130
330
12F
100
AcDbEntity
  8
0
100
AcDbBlockBegin
  2
_D_2
 70
     0
 10
0.0
 20
0.0
 30
0.0
  3
_D_2
  1

  0
SOLID
  5
132
330
12F
100
AcDbEntity
  8
SLD-0
100
AcDbTrace
 10
455.686071011
 20
299.6103737441
 30
0.0
 11
455.186071011
 21
295.6103737441
 31
0.0
 12
456.186071011
 22
295.6103737441
 32
0.0
 13
456.186071011
 23
295.6103737441
 33
0.0
  0
SOLID
  5
133
330
12F
100
AcDbEntity
  8
SLD-0
100
AcDbTrace
 10
455.686071011
 20
216.3103737441
 30
0.0
 11
456.186071011
 21
220.3103737441
 31
0.0
 12
455.186071011
 22
220.3103737441
 32
0.0
 13
455.186071011
 23
220.3103737441
 33
0.0
  0
LINE
  5
134
330
12F
100
AcDbEntity
  8
SLD-0
100
AcDbLine
 10
452.33909279
 20
260.212219247
 30
0.0
 11
450.8904989891
 21
260.212219247
 31
0.0
  0
LINE
  5
135
330
12F
100
AcDbEntity
  8
SLD-0
100
AcDbLine
 10
450.8904989891
 20
260.212219247
 30
0.0
 11
450.8904989891
 21
252.6451357839
 31
0.0
  0
LINE
  5
136
330
12F
100
AcDbEntity
  8
SLD-0
100
AcDbLine
 10
450.8904989891
 20
252.6451357839
 30
0.0
 11
452.33909279
 21
252.6451357839
 31
0.0
  0
LINE
  5
137
330
12F
100
AcDbEntity
  8
SLD-0
100
AcDbLine
 10
468.1699951727
 20
260.212219247
 30
0.0
 11
469.6185889736
 21
260.212219247
 31
0.0
  0
LINE
  5
138
330
12F
100
AcDbEntity
  8
SLD-0
100
AcDbLine
 10
469.6185889736
 20
260.212219247
 30
0.0
 11
469.6185889736
 21
252.6451357839
 31
0.0
  0
LINE
  5
139
330
12F
100
AcDbEntity
  8
SLD-0
100
AcDbLine
 10
469.6185889736
 20
252.6451357839
 30
0.0
 11
468.1699951727
 21
252.6451357839
 31
0.0
  0
LINE
  5
13A
330
12F
100
AcDbEntity
  8
SLD-0
100
AcDbLine
 10
386.8194301471
 20
299.6103737441
 30
0.0
 11
457.210071011
 21
299.6103737441
 31
0.0
  0
LINE
  5
13B
330
12F
100
AcDbEntity
  8
SLD-0
100
AcDbLine
 10
386.8194301471
 20
216.3103737441
 30
0.0
 11
457.210071011
 21
216.3103737441
 31
0.0
  0
LINE
  5
13C
330
12F
100
AcDbEntity
  8
SLD-0
100
AcDbLine
 10
455.686071011
 20
299.6103737441
 30
0.0
 11
455.686071011
 21
268.7450311345
 31
0.0
  0
LINE
  5
13D
330
12F
100
AcDbEntity
  8
SLD-0
100
AcDbLine
 10
455.686071011
 20
216.3103737441
 30
0.0
 11
455.686071011
 21
251.6794054968
 31
0.0
  0
MTEXT
  5
13E
330
12F
100
AcDbEntity
  8
SLD-0
100
AcDbMText
 10
440.3049601789
 20
267.2612975137
 30
0.0
 40
4.7625
 41
0.0
 71
     1
 72
     1
  1
2X 
  7
SLDTEXTSTYLE0
 73
     1
 44
1.0
  0
MTEXT
  5
13F
330
12F
100
AcDbEntity
  8
SLD-0
100
AcDbMText
 10
452.3390923243
 20
267.2612979793
 30
0.0
 40
4.7625
 41
0.0
 71
     1
 72
     1
  1
83.30
  7
SLDTEXTSTYLE0
 73
     1
 44
1.0
  0
MTEXT
  5
140
330
12F
100
AcDbEntity
  8
SLD-0
100
AcDbMText
 10
452.33909279
 20
258.7284856261
 30
0.0
 40
4.7625
 41
0.0
 71
     1
 72
     1
  1
3.280
  7
SLDTEXTSTYLE0
 73
     1
 44
1.0
  0
ENDBLK
  5
131
330
12F
100
AcDbEntity
  8
0
100
AcDbBlockEnd
  0
BLOCK
  5
144
330
143
100
AcDbEntity
  8
0
100
AcDbBlockBegin
  2
_D_3
 70
     0
 10
0.0
 20
0.0
 30
0.0
  3
_D_3
  1

  0
SOLID
  5
146
330
143
100
AcDbEntity
  8
SLD-0
100
AcDbTrace
 10
336.8054806534
 20
307.3503232377
 30
0.0
 11
334.3306069193
 21
310.5323037531
 31
0.0
 12
333.6235001381
 22
309.8251969719
 32
0.0
 13
333.6235001381
 23
309.8251969719
 33
0.0
  0
LINE
  5
147
330
143
100
AcDbEntity
  8
SLD-0
100
AcDbLine
 10
336.8054806534
 20
307.3503232377
 30
0.0
 11
320.347009971
 21
323.8087939201
 31
0.0
  0
LINE
  5
148
330
143
100
AcDbEntity
  8
SLD-0
100
AcDbLine
 10
320.347009971
 20
323.8087939201
 30
0.0
 11
316.347009971
 21
323.8087939201
 31
0.0
  0
MTEXT
  5
149
330
143
100
AcDbEntity
  8
SLD-0
100
AcDbMText
 10
277.7354824387
 20
326.1086020308
 30
0.0
 40
4.7625
 41
0.0
 71
     1
 72
     1
  1
4X 6-32 THRU
  7
SLDTEXTSTYLE0
 73
     1
 44
1.0
  0
ENDBLK
  5
145
330
143
100
AcDbEntity
  8
0
100
AcDbBlockEnd
  0
BLOCK
  5
14C
330
14B
100
AcDbEntity
  8
0
100
AcDbBlockBegin
  2
_D_4
 70
     0
 10
0.0
 20
0.0
 30
0.0
  3
_D_4
  1

  0
SOLID
  5
14E
330
14B
100
AcDbEntity
  8
SLD-0
100
AcDbTrace
 10
337.7954301471
 20
186.4603737441
 30
0.0
 11
341.7954301471
 21
185.9603737441
 31
0.0
 12
341.7954301471
 22
186.9603737441
 32
0.0
 13
341.7954301471
 23
186.9603737441
 33
0.0
  0
SOLID
  5
14F
330
14B
100
AcDbEntity
  8
SLD-0
100
AcDbTrace
 10
383.7954301471
 20
186.4603737441
 30
0.0
 11
379.7954301471
 21
186.9603737441
 31
0.0
 12
379.7954301471
 22
185.9603737441
 32
0.0
 13
379.7954301471
 23
185.9603737441
 33
0.0
  0
LINE
  5
150
330
14B
100
AcDbEntity
  8
SLD-0
100
AcDbLine
 10
352.4356266501
 20
183.2853740153
 30
0.0
 11
350.9870328493
 21
183.2853740153
 31
0.0
  0
LINE
  5
151
330
14B
100
AcDbEntity
  8
SLD-0
100
AcDbLine
 10
350.9870328493
 20
183.2853740153
 30
0.0
 11
350.9870328493
 21
175.7182905522
 31
0.0
  0
LINE
  5
152
330
14B
100
AcDbEntity
  8
SLD-0
100
AcDbLine
 10
350.9870328493
 20
175.7182905522
 30
0.0
 11
352.4356266501
 21
175.7182905522
 31
0.0
  0
LINE
  5
153
330
14B
100
AcDbEntity
  8
SLD-0
100
AcDbLine
 10
368.2665290329
 20
183.2853740153
 30
0.0
 11
369.7151228338
 21
183.2853740153
 31
0.0
  0
LINE
  5
154
330
14B
100
AcDbEntity
  8
SLD-0
100
AcDbLine
 10
369.7151228338
 20
183.2853740153
 30
0.0
 11
369.7151228338
 21
175.7182905522
 31
0.0
  0
LINE
  5
155
330
14B
100
AcDbEntity
  8
SLD-0
100
AcDbLine
 10
369.7151228338
 20
175.7182905522
 30
0.0
 11
368.2665290329
 21
175.7182905522
 31
0.0
  0
LINE
  5
156
330
14B
100
AcDbEntity
  8
SLD-0
100
AcDbLine
 10
337.7954301471
 20
206.0363737441
 30
0.0
 11
337.7954301471
 21
184.9363737441
 31
0.0
  0
LINE
  5
157
330
14B
100
AcDbEntity
  8
SLD-0
100
AcDbLine
 10
383.7954301471
 20
206.0363737441
 30
0.0
 11
383.7954301471
 21
184.9363737441
 31
0.0
  0
LINE
  5
158
330
14B
100
AcDbEntity
  8
SLD-0
100
AcDbLine
 10
337.7954301471
 20
186.4603737441
 30
0.0
 11
348.5724957538
 21
186.4603737441
 31
0.0
  0
LINE
  5
159
330
14B
100
AcDbEntity
  8
SLD-0
100
AcDbLine
 10
383.7954301471
 20
186.4603737441
 30
0.0
 11
372.1296589979
 21
186.4603737441
 31
0.0
  0
MTEXT
  5
15A
330
14B
100
AcDbEntity
  8
SLD-0
100
AcDbMText
 10
356.6601398419
 20
196.6844526709
 30
0.0
 40
4.7625
 41
0.0
 71
     1
 72
     1
  1
4X
  7
SLDTEXTSTYLE0
 73
     1
 44
1.0
  0
MTEXT
  5
15B
330
14B
100
AcDbEntity
  8
SLD-0
100
AcDbMText
 10
352.4356261845
 20
190.3344527476
 30
0.0
 40
4.7625
 41
0.0
 71
     1
 72
     1
  1
46.00
  7
SLDTEXTSTYLE0
 73
     1
 44
1.0
  0
MTEXT
  5
15C
330
14B
100
AcDbEntity
  8
SLD-0
100
AcDbMText
 10
352.4356266501
 20
181.8016403944
 30
0.0
 40
4.7625
 41
0.0
 71
     1
 72
     1
  1
1.811
  7
SLDTEXTSTYLE0
 73
     1
 44
1.0
  0
ENDBLK
  5
14D
330
14B
100
AcDbEntity
  8
0
100
AcDbBlockEnd
  0
BLOCK
  5
165
330
164
100
AcDbEntity
  8
0
100
AcDbBlockBegin
  2
_Dot
 70
     0
 10
0.0
 20
0.0
 30
0.0
  3
_Dot
  1

  0
LWPOLYLINE
  5
167
330
164
100
AcDbEntity
  8
0
  6
ByBlock
 62
     0
100
AcDbPolyline
 90
        2
 70
     1
 43
0.5
 10
-0.25
 20
0.0
 42
1.0
 10
0.25
 20
0.0
 42
1.0
  0
LINE
  5
168
330
164
100
AcDbEntity
  8
0
  6
ByBlock
 62
     0
370
    -2
100
AcDbLine
 10
-0.5
 20
0.0
 30
0.0
 11
-1.0
 21
0.0
 31
0.0
  0
ENDBLK
  5
166
330
164
100
AcDbEntity
  8
0
100
AcDbBlockEnd
  0
BLOCK
  5
16D
330
16C
100
AcDbEntity
  8
0
100
AcDbBlockBegin
  2
SW_SYMBOL_MOD_CL
 70
     0
 10
0.0
 20
0.0
 30
0.0
  3
SW_SYMBOL_MOD_CL
  1

  0
MTEXT
  5
16F
330
16C
100
AcDbEntity
  8
SLD-0
 62
     0
100
AcDbMText
 10
800.0
 20
1200.0
 30
0.0
 40
1565.749235474
 41
0.0
 71
     5
 72
     1
  1
C
  7
SLDTEXTSTYLE0
 73
     1
 44
1.0
  0
MTEXT
  5
170
330
16C
100
AcDbEntity
  8
SLD-0
 62
     0
100
AcDbMText
 10
1200.0
 20
600.0
 30
0.0
 40
1565.749235474
 41
0.0
 71
     5
 72
     1
  1
L
  7
SLDTEXTSTYLE0
 73
     1
 44
1.0
  0
ENDBLK
  5
16E
330
16C
100
AcDbEntity
  8
0
100
AcDbBlockEnd
  0
BLOCK
  5
173
330
172
100
AcDbEntity
  8
0
100
AcDbBlockBegin
  2
SW_CENTERMARKSYMBOL_0
 70
     0
 10
0.0
 20
0.0
 30
0.0
  3
SW_CENTERMARKSYMBOL_0
  1

  0
LINE
  5
175
330
172
100
AcDbEntity
  8
SLD-0
 62
     0
100
AcDbLine
 10
0.0
 20
0.0
 30
0.0
 11
0.0
 21
-2.0
 31
0.0
  0
LINE
  5
176
330
172
100
AcDbEntity
  8
SLD-0
 62
     0
100
AcDbLine
 10
0.0
 20
0.0
 30
0.0
 11
2.0
 21
0.0
 31
0.0
  0
LINE
  5
177
330
172
100
AcDbEntity
  8
SLD-0
 62
     0
100
AcDbLine
 10
0.0
 20
0.0
 30
0.0
 11
0.0
 21
2.0
 31
0.0
  0
LINE
  5
178
330
172
100
AcDbEntity
  8
SLD-0
 62
     0
100
AcDbLine
 10
0.0
 20
0.0
 30
0.0
 11
-2.0
 21
0.0
 31
0.0
  0
LINE
  5
179
330
172
100
AcDbEntity
  8
SLD-0
 62
     0
100
AcDbLine
 10
0.0
 20
6.75
 30
0.0
 11
0.0
 21
8.75
 31
0.0
  0
LINE
  5
17A
330
172
100
AcDbEntity
  8
SLD-0
 62
     0
100
AcDbLine
 10
0.0
 20
6.75
 30
0.0
 11
-2.0
 21
6.75
 31
0.0
  0
LINE
  5
17B
330
172
100
AcDbEntity
  8
SLD-0
 62
     0
100
AcDbLine
 10
0.0
 20
6.75
 30
0.0
 11
0.0
 21
4.75
 31
0.0
  0
LINE
  5
17C
330
172
100
AcDbEntity
  8
SLD-0
 62
     0
100
AcDbLine
 10
0.0
 20
6.75
 30
0.0
 11
2.0
 21
6.75
 31
0.0
  0
LINE
  5
17D
330
172
100
AcDbEntity
  8
SLD-0
 62
     0
100
AcDbLine
 10
-46.0
 20
6.75
 30
0.0
 11
-46.0
 21
8.75
 31
0.0
  0
LINE
  5
17E
330
172
100
AcDbEntity
  8
SLD-0
 62
     0
100
AcDbLine
 10
-46.0
 20
6.75
 30
0.0
 11
-48.0
 21
6.75
 31
0.0
  0
LINE
  5
17F
330
172
100
AcDbEntity
  8
SLD-0
 62
     0
100
AcDbLine
 10
-46.0
 20
6.75
 30
0.0
 11
-46.0
 21
4.75
 31
0.0
  0
LINE
  5
180
330
172
100
AcDbEntity
  8
SLD-0
 62
     0
100
AcDbLine
 10
-46.0
 20
6.75
 30
0.0
 11
-44.0
 21
6.75
 31
0.0
  0
ENDBLK
  5
174
330
172
100
AcDbEntity
  8
0
100
AcDbBlockEnd
  0
BLOCK
  5
183
330
182
100
AcDbEntity
  8
0
100
AcDbBlockBegin
  2
SW_CENTERMARKSYMBOL_1
 70
     0
 10
0.0
 20
0.0
 30
0.0
  3
SW_CENTERMARKSYMBOL_1
  1

  0
LINE
  5
185
330
182
100
AcDbEntity
  8
SLD-0
 62
     0
100
AcDbLine
 10
0.0
 20
0.0
 30
0.0
 11
0.0
 21
-2.0
 31
0.0
  0
LINE
  5
186
330
182
100
AcDbEntity
  8
SLD-0
 62
     0
100
AcDbLine
 10
0.0
 20
0.0
 30
0.0
 11
2.0
 21
0.0
 31
0.0
  0
LINE
  5
187
330
182
100
AcDbEntity
  8
SLD-0
 62
     0
100
AcDbLine
 10
0.0
 20
0.0
 30
0.0
 11
0.0
 21
2.0
 31
0.0
  0
LINE
  5
188
330
182
100
AcDbEntity
  8
SLD-0
 62
     0
100
AcDbLine
 10
0.0
 20
0.0
 30
0.0
 11
-2.0
 21
0.0
 31
0.0
  0
ENDBLK
  5
184
330
182
100
AcDbEntity
  8
0
100
AcDbBlockEnd
  0
BLOCK
  5
18B
330
18A
100
AcDbEntity
  8
0
100
AcDbBlockBegin
  2
SW_CENTERMARKSYMBOL_2
 70
     0
 10
0.0
 20
0.0
 30
0.0
  3
SW_CENTERMARKSYMBOL_2
  1

  0
LINE
  5
18D
330
18A
100
AcDbEntity
  8
SLD-0
 62
     0
100
AcDbLine
 10
0.0
 20
0.0
 30
0.0
 11
0.0
 21
-2.0
 31
0.0
  0
LINE
  5
18E
330
18A
100
AcDbEntity
  8
SLD-0
 62
     0
100
AcDbLine
 10
0.0
 20
0.0
 30
0.0
 11
2.0
 21
0.0
 31
0.0
  0
LINE
  5
18F
330
18A
100
AcDbEntity
  8
SLD-0
 62
     0
100
AcDbLine
 10
0.0
 20
0.0
 30
0.0
 11
0.0
 21
2.0
 31
0.0
  0
LINE
  5
190
330
18A
100
AcDbEntity
  8
SLD-0
 62
     0
100
AcDbLine
 10
0.0
 20
0.0
 30
0.0
 11
-2.0
 21
0.0
 31
0.0
  0
LINE
  5
191
330
18A
100
AcDbEntity
  8
SLD-0
 62
     0
100
AcDbLine
 10
0.0
 20
-6.75
 30
0.0
 11
0.0
 21
-4.75
 31
0.0
  0
LINE
  5
192
330
18A
100
AcDbEntity
  8
SLD-0
 62
     0
100
AcDbLine
 10
0.0
 20
-6.75
 30
0.0
 11
-2.0
 21
-6.75
 31
0.0
  0
LINE
  5
193
330
18A
100
AcDbEntity
  8
SLD-0
 62
     0
100
AcDbLine
 10
0.0
 20
-6.75
 30
0.0
 11
0.0
 21
-8.75
 31
0.0
  0
LINE
  5
194
330
18A
100
AcDbEntity
  8
SLD-0
 62
     0
100
AcDbLine
 10
0.0
 20
-6.75
 30
0.0
 11
2.0
 21
-6.75
 31
0.0
  0
LINE
  5
195
330
18A
100
AcDbEntity
  8
SLD-0
 62
     0
100
AcDbLine
 10
46.0
 20
-6.75
 30
0.0
 11
46.0
 21
-4.75
 31
0.0
  0
LINE
  5
196
330
18A
100
AcDbEntity
  8
SLD-0
 62
     0
100
AcDbLine
 10
46.0
 20
-6.75
 30
0.0
 11
44.0
 21
-6.75
 31
0.0
  0
LINE
  5
197
330
18A
100
AcDbEntity
  8
SLD-0
 62
     0
100
AcDbLine
 10
46.0
 20
-6.75
 30
0.0
 11
46.0
 21
-8.75
 31
0.0
  0
LINE
  5
198
330
18A
100
AcDbEntity
  8
SLD-0
 62
     0
100
AcDbLine
 10
46.0
 20
-6.75
 30
0.0
 11
48.0
 21
-6.75
 31
0.0
  0
ENDBLK
  5
18C
330
18A
100
AcDbEntity
  8
0
100
AcDbBlockEnd
  0
BLOCK
  5
19B
330
19A
100
AcDbEntity
  8
0
100
AcDbBlockBegin
  2
SW_CENTERMARKSYMBOL_3
 70
     0
 10
0.0
 20
0.0
 30
0.0
  3
SW_CENTERMARKSYMBOL_3
  1

  0
LINE
  5
19D
330
19A
100
AcDbEntity
  8
SLD-0
 62
     0
100
AcDbLine
 10
0.0
 20
0.0
 30
0.0
 11
0.0
 21
-2.0
 31
0.0
  0
LINE
  5
19E
330
19A
100
AcDbEntity
  8
SLD-0
 62
     0
100
AcDbLine
 10
0.0
 20
0.0
 30
0.0
 11
2.0
 21
0.0
 31
0.0
  0
LINE
  5
19F
330
19A
100
AcDbEntity
  8
SLD-0
 62
     0
100
AcDbLine
 10
0.0
 20
0.0
 30
0.0
 11
0.0
 21
2.0
 31
0.0
  0
LINE
  5
1A0
330
19A
100
AcDbEntity
  8
SLD-0
 62
     0
100
AcDbLine
 10
0.0
 20
0.0
 30
0.0
 11
-2.0
 21
0.0
 31
0.0
  0
ENDBLK
  5
19C
330
19A
100
AcDbEntity
  8
0
100
AcDbBlockEnd
  0
BLOCK
  5
1C0
330
1BF
100
AcDbEntity
  8
0
100
AcDbBlockBegin
  2
_D_5
 70
     0
 10
0.0
 20
0.0
 30
0.0
  3
_D_5
  1

  0
SOLID
  5
1C2
330
1BF
100
AcDbEntity
  8
SLD-0
100
AcDbTrace
 10
638.7317953255
 20
222.4603737441
 30
0.0
 11
638.2317953255
 21
218.4603737441
 31
0.0
 12
639.2317953255
 22
218.4603737441
 32
0.0
 13
639.2317953255
 23
218.4603737441
 33
0.0
  0
SOLID
  5
1C3
330
1BF
100
AcDbEntity
  8
SLD-0
100
AcDbTrace
 10
638.7317953255
 20
227.4603737441
 30
0.0
 11
639.2317953255
 21
231.4603737441
 31
0.0
 12
638.2317953255
 22
231.4603737441
 32
0.0
 13
638.2317953255
 23
231.4603737441
 33
0.0
  0
LINE
  5
1C4
330
1BF
100
AcDbEntity
  8
SLD-0
100
AcDbLine
 10
650.2818822867
 20
197.5475565318
 30
0.0
 11
648.8332884858
 21
197.5475565318
 31
0.0
  0
LINE
  5
1C5
330
1BF
100
AcDbEntity
  8
SLD-0
100
AcDbLine
 10
648.8332884858
 20
197.5475565318
 30
0.0
 11
648.8332884858
 21
189.9804730687
 31
0.0
  0
LINE
  5
1C6
330
1BF
100
AcDbEntity
  8
SLD-0
100
AcDbLine
 10
648.8332884858
 20
189.9804730687
 30
0.0
 11
650.2818822867
 21
189.9804730687
 31
0.0
  0
LINE
  5
1C7
330
1BF
100
AcDbEntity
  8
SLD-0
100
AcDbLine
 10
662.5938270247
 20
197.5475565318
 30
0.0
 11
664.0424208256
 21
197.5475565318
 31
0.0
  0
LINE
  5
1C8
330
1BF
100
AcDbEntity
  8
SLD-0
100
AcDbLine
 10
664.0424208256
 20
197.5475565318
 30
0.0
 11
664.0424208256
 21
189.9804730687
 31
0.0
  0
LINE
  5
1C9
330
1BF
100
AcDbEntity
  8
SLD-0
100
AcDbLine
 10
664.0424208256
 20
189.9804730687
 30
0.0
 11
662.5938270247
 21
189.9804730687
 31
0.0
  0
LINE
  5
1CA
330
1BF
100
AcDbEntity
  8
SLD-0
100
AcDbLine
 10
604.8930903149
 20
222.4603737441
 30
0.0
 11
640.2557953255
 21
222.4603737441
 31
0.0
  0
LINE
  5
1CB
330
1BF
100
AcDbEntity
  8
SLD-0
100
AcDbLine
 10
624.8930903149
 20
227.4603737441
 30
0.0
 11
640.2557953255
 21
227.4603737441
 31
0.0
  0
LINE
  5
1CC
330
1BF
100
AcDbEntity
  8
SLD-0
100
AcDbLine
 10
642.7317953255
 20
197.5475556005
 30
0.0
 11
638.7317953255
 21
197.5475556005
 31
0.0
  0
LINE
  5
1CD
330
1BF
100
AcDbEntity
  8
SLD-0
100
AcDbLine
 10
638.7317953255
 20
197.5475556005
 30
0.0
 11
638.7317953255
 21
222.4603737441
 31
0.0
  0
LINE
  5
1CE
330
1BF
100
AcDbEntity
  8
SLD-0
100
AcDbLine
 10
638.7317953255
 20
227.4603737441
 30
0.0
 11
638.7317953255
 21
235.4603737441
 31
0.0
  0
MTEXT
  5
1CF
330
1BF
100
AcDbEntity
  8
SLD-0
100
AcDbMText
 10
645.6296252093
 20
204.5966347985
 30
0.0
 40
4.7625
 41
0.0
 71
     1
 72
     1
  1
 
  7
SLDTEXTSTYLE0
 73
     1
 44
1.0
  0
MTEXT
  5
1D0
330
1BF
100
AcDbEntity
  8
SLD-0
100
AcDbMText
 10
650.281881821
 20
204.5966352642
 30
0.0
 40
4.7625
 41
0.0
 71
     1
 72
     1
  1
5.00
  7
SLDTEXTSTYLE0
 73
     1
 44
1.0
  0
MTEXT
  5
1D1
330
1BF
100
AcDbEntity
  8
SLD-0
100
AcDbMText
 10
650.2818822867
 20
196.063822911
 30
0.0
 40
4.7625
 41
0.0
 71
     1
 72
     1
  1
.197
  7
SLDTEXTSTYLE0
 73
     1
 44
1.0
  0
MTEXT
  5
1D2
330
1BF
100
AcDbEntity
  8
SLD-0
100
AcDbMText
 10
665.4910141608
 20
204.5966347985
 30
0.0
 40
4.7625
 41
0.0
 71
     1
 72
     1
  1
 
  7
SLDTEXTSTYLE0
 73
     1
 44
1.0
  0
ENDBLK
  5
1C1
330
1BF
100
AcDbEntity
  8
0
100
AcDbBlockEnd
  0
BLOCK
  5
1D5
330
1D4
100
AcDbEntity
  8
0
100
AcDbBlockBegin
  2
_D_6
 70
     0
 10
0.0
 20
0.0
 30
0.0
  3
_D_6
  1

  0
SOLID
  5
1D7
330
1D4
100
AcDbEntity
  8
SLD-0
100
AcDbTrace
 10
638.7317953255
 20
227.4603737441
 30
0.0
 11
639.2317953255
 21
231.4603737441
 31
0.0
 12
638.2317953255
 22
231.4603737441
 32
0.0
 13
638.2317953255
 23
231.4603737441
 33
0.0
  0
SOLID
  5
1D8
330
1D4
100
AcDbEntity
  8
SLD-0
100
AcDbTrace
 10
638.7317953255
 20
250.4603737441
 30
0.0
 11
638.2317953255
 21
246.4603737441
 31
0.0
 12
639.2317953255
 22
246.4603737441
 32
0.0
 13
639.2317953255
 23
246.4603737441
 33
0.0
  0
LINE
  5
1D9
330
1D4
100
AcDbEntity
  8
SLD-0
100
AcDbLine
 10
650.2818822867
 20
261.6084559752
 30
0.0
 11
648.8332884858
 21
261.6084559752
 31
0.0
  0
LINE
  5
1DA
330
1D4
100
AcDbEntity
  8
SLD-0
100
AcDbLine
 10
648.8332884858
 20
261.6084559752
 30
0.0
 11
648.8332884858
 21
254.0413725121
 31
0.0
  0
LINE
  5
1DB
330
1D4
100
AcDbEntity
  8
SLD-0
100
AcDbLine
 10
648.8332884858
 20
254.0413725121
 30
0.0
 11
650.2818822867
 21
254.0413725121
 31
0.0
  0
LINE
  5
1DC
330
1D4
100
AcDbEntity
  8
SLD-0
100
AcDbLine
 10
662.5938270247
 20
261.6084559752
 30
0.0
 11
664.0424208256
 21
261.6084559752
 31
0.0
  0
LINE
  5
1DD
330
1D4
100
AcDbEntity
  8
SLD-0
100
AcDbLine
 10
664.0424208256
 20
261.6084559752
 30
0.0
 11
664.0424208256
 21
254.0413725121
 31
0.0
  0
LINE
  5
1DE
330
1D4
100
AcDbEntity
  8
SLD-0
100
AcDbLine
 10
664.0424208256
 20
254.0413725121
 30
0.0
 11
662.5938270247
 21
254.0413725121
 31
0.0
  0
LINE
  5
1DF
330
1D4
100
AcDbEntity
  8
SLD-0
100
AcDbLine
 10
624.8930903149
 20
227.4603737441
 30
0.0
 11
640.2557953255
 21
227.4603737441
 31
0.0
  0
LINE
  5
1E0
330
1D4
100
AcDbEntity
  8
SLD-0
100
AcDbLine
 10
624.8930903149
 20
250.4603737441
 30
0.0
 11
640.2557953255
 21
250.4603737441
 31
0.0
  0
LINE
  5
1E1
330
1D4
100
AcDbEntity
  8
SLD-0
100
AcDbLine
 10
642.7317953255
 20
261.6084550439
 30
0.0
 11
638.7317953255
 21
261.6084550439
 31
0.0
  0
LINE
  5
1E2
330
1D4
100
AcDbEntity
  8
SLD-0
100
AcDbLine
 10
638.7317953255
 20
261.6084550439
 30
0.0
 11
638.7317953255
 21
250.4603737441
 31
0.0
  0
LINE
  5
1E3
330
1D4
100
AcDbEntity
  8
SLD-0
100
AcDbLine
 10
638.7317953255
 20
227.4603737441
 30
0.0
 11
638.7317953255
 21
250.4603737441
 31
0.0
  0
MTEXT
  5
1E4
330
1D4
100
AcDbEntity
  8
SLD-0
100
AcDbMText
 10
645.6296252093
 20
268.6575342419
 30
0.0
 40
4.7625
 41
0.0
 71
     1
 72
     1
  1
 
  7
SLDTEXTSTYLE0
 73
     1
 44
1.0
  0
MTEXT
  5
1E5
330
1D4
100
AcDbEntity
  8
SLD-0
100
AcDbMText
 10
648.5224029986
 20
268.6575347075
 30
0.0
 40
4.7625
 41
0.0
 71
     1
 72
     1
  1
23.00
  7
SLDTEXTSTYLE0
 73
     1
 44
1.0
  0
MTEXT
  5
1E6
330
1D4
100
AcDbEntity
  8
SLD-0
100
AcDbMText
 10
650.2818822867
 20
260.1247223543
 30
0.0
 40
4.7625
 41
0.0
 71
     1
 72
     1
  1
.906
  7
SLDTEXTSTYLE0
 73
     1
 44
1.0
  0
MTEXT
  5
1E7
330
1D4
100
AcDbEntity
  8
SLD-0
100
AcDbMText
 10
665.4910141608
 20
268.6575342419
 30
0.0
 40
4.7625
 41
0.0
 71
     1
 72
     1
  1
 
  7
SLDTEXTSTYLE0
 73
     1
 44
1.0
  0
ENDBLK
  5
1D6
330
1D4
100
AcDbEntity
  8
0
100
AcDbBlockEnd
  0
BLOCK
  5
1EA
330
1E9
100
AcDbEntity
  8
0
100
AcDbBlockBegin
  2
_D_7
 70
     0
 10
0.0
 20
0.0
 30
0.0
  3
_D_7
  1

  0
SOLID
  5
1EC
330
1E9
100
AcDbEntity
  8
SLD-0
100
AcDbTrace
 10
555.4690903149
 20
324.1987338756
 30
0.0
 11
551.4690903149
 21
324.6987338756
 31
0.0
 12
551.4690903149
 22
323.6987338756
 32
0.0
 13
551.4690903149
 23
323.6987338756
 33
0.0
  0
SOLID
  5
1ED
330
1E9
100
AcDbEntity
  8
SLD-0
100
AcDbTrace
 10
562.3690903149
 20
324.1987338756
 30
0.0
 11
566.3690903149
 21
323.6987338756
 31
0.0
 12
566.3690903149
 22
324.6987338756
 32
0.0
 13
566.3690903149
 23
324.6987338756
 33
0.0
  0
LINE
  5
1EE
330
1E9
100
AcDbEntity
  8
SLD-0
100
AcDbLine
 10
529.2939183557
 20
324.1987348069
 30
0.0
 11
527.8453245548
 21
324.1987348069
 31
0.0
  0
LINE
  5
1EF
330
1E9
100
AcDbEntity
  8
SLD-0
100
AcDbLine
 10
527.8453245548
 20
324.1987348069
 30
0.0
 11
527.8453245548
 21
316.6316513439
 31
0.0
  0
LINE
  5
1F0
330
1E9
100
AcDbEntity
  8
SLD-0
100
AcDbLine
 10
527.8453245548
 20
316.6316513439
 30
0.0
 11
529.2939183557
 21
316.6316513439
 31
0.0
  0
LINE
  5
1F1
330
1E9
100
AcDbEntity
  8
SLD-0
100
AcDbLine
 10
541.6058630937
 20
324.1987348069
 30
0.0
 11
543.0544568946
 21
324.1987348069
 31
0.0
  0
LINE
  5
1F2
330
1E9
100
AcDbEntity
  8
SLD-0
100
AcDbLine
 10
543.0544568946
 20
324.1987348069
 30
0.0
 11
543.0544568946
 21
316.6316513439
 31
0.0
  0
LINE
  5
1F3
330
1E9
100
AcDbEntity
  8
SLD-0
100
AcDbLine
 10
543.0544568946
 20
316.6316513439
 30
0.0
 11
541.6058630937
 21
316.6316513439
 31
0.0
  0
LINE
  5
1F4
330
1E9
100
AcDbEntity
  8
SLD-0
100
AcDbLine
 10
555.4690903149
 20
292.3843737441
 30
0.0
 11
555.4690903149
 21
325.7227338756
 31
0.0
  0
LINE
  5
1F5
330
1E9
100
AcDbEntity
  8
SLD-0
100
AcDbLine
 10
562.3690903149
 20
310.9843737441
 30
0.0
 11
562.3690903149
 21
325.7227338756
 31
0.0
  0
LINE
  5
1F6
330
1E9
100
AcDbEntity
  8
SLD-0
100
AcDbLine
 10
555.4690903149
 20
324.1987338756
 30
0.0
 11
547.2240634657
 21
324.1987338756
 31
0.0
  0
LINE
  5
1F7
330
1E9
100
AcDbEntity
  8
SLD-0
100
AcDbLine
 10
562.3690903149
 20
324.1987338756
 30
0.0
 11
570.3690903149
 21
324.1987338756
 31
0.0
  0
MTEXT
  5
1F8
330
1E9
100
AcDbEntity
  8
SLD-0
100
AcDbMText
 10
524.6416612783
 20
331.2478130736
 30
0.0
 40
4.7625
 41
0.0
 71
     1
 72
     1
  1
 
  7
SLDTEXTSTYLE0
 73
     1
 44
1.0
  0
MTEXT
  5
1F9
330
1E9
100
AcDbEntity
  8
SLD-0
100
AcDbMText
 10
529.29391789
 20
331.2478135393
 30
0.0
 40
4.7625
 41
0.0
 71
     1
 72
     1
  1
6.90
  7
SLDTEXTSTYLE0
 73
     1
 44
1.0
  0
MTEXT
  5
1FA
330
1E9
100
AcDbEntity
  8
SLD-0
100
AcDbMText
 10
529.2939183557
 20
322.7150011861
 30
0.0
 40
4.7625
 41
0.0
 71
     1
 72
     1
  1
.272
  7
SLDTEXTSTYLE0
 73
     1
 44
1.0
  0
MTEXT
  5
1FB
330
1E9
100
AcDbEntity
  8
SLD-0
100
AcDbMText
 10
544.5030502298
 20
331.2478130736
 30
0.0
 40
4.7625
 41
0.0
 71
     1
 72
     1
  1
 
  7
SLDTEXTSTYLE0
 73
     1
 44
1.0
  0
ENDBLK
  5
1EB
330
1E9
100
AcDbEntity
  8
0
100
AcDbBlockEnd
  0
BLOCK
  5
1FE
330
1FD
100
AcDbEntity
  8
0
100
AcDbBlockBegin
  2
_D_8
 70
     0
 10
0.0
 20
0.0
 30
0.0
  3
_D_8
  1

  0
SOLID
  5
200
330
1FD
100
AcDbEntity
  8
SLD-0
100
AcDbTrace
 10
603.3690903149
 20
197.5475556005
 30
0.0
 11
607.3690903149
 21
197.0475556005
 31
0.0
 12
607.3690903149
 22
198.0475556005
 32
0.0
 13
607.3690903149
 23
198.0475556005
 33
0.0
  0
SOLID
  5
201
330
1FD
100
AcDbEntity
  8
SLD-0
100
AcDbTrace
 10
623.3690903149
 20
197.5475556005
 30
0.0
 11
619.3690903149
 21
198.0475556005
 31
0.0
 12
619.3690903149
 22
197.0475556005
 32
0.0
 13
619.3690903149
 23
197.0475556005
 33
0.0
  0
LINE
  5
202
330
1FD
100
AcDbEntity
  8
SLD-0
100
AcDbLine
 10
578.0738939802
 20
197.5475565318
 30
0.0
 11
576.6253001793
 21
197.5475565318
 31
0.0
  0
LINE
  5
203
330
1FD
100
AcDbEntity
  8
SLD-0
100
AcDbLine
 10
576.6253001793
 20
197.5475565318
 30
0.0
 11
576.6253001793
 21
189.9804730687
 31
0.0
  0
LINE
  5
204
330
1FD
100
AcDbEntity
  8
SLD-0
100
AcDbLine
 10
576.6253001793
 20
189.9804730687
 30
0.0
 11
578.0738939802
 21
189.9804730687
 31
0.0
  0
LINE
  5
205
330
1FD
100
AcDbEntity
  8
SLD-0
100
AcDbLine
 10
590.3858387182
 20
197.5475565318
 30
0.0
 11
591.8344325191
 21
197.5475565318
 31
0.0
  0
LINE
  5
206
330
1FD
100
AcDbEntity
  8
SLD-0
100
AcDbLine
 10
591.8344325191
 20
197.5475565318
 30
0.0
 11
591.8344325191
 21
189.9804730687
 31
0.0
  0
LINE
  5
207
330
1FD
100
AcDbEntity
  8
SLD-0
100
AcDbLine
 10
591.8344325191
 20
189.9804730687
 30
0.0
 11
590.3858387182
 21
189.9804730687
 31
0.0
  0
LINE
  5
208
330
1FD
100
AcDbEntity
  8
SLD-0
100
AcDbLine
 10
603.3690903149
 20
220.9363737441
 30
0.0
 11
603.3690903149
 21
196.0235556005
 31
0.0
  0
LINE
  5
209
330
1FD
100
AcDbEntity
  8
SLD-0
100
AcDbLine
 10
623.3690903149
 20
225.9363737441
 30
0.0
 11
623.3690903149
 21
196.0235556005
 31
0.0
  0
LINE
  5
20A
330
1FD
100
AcDbEntity
  8
SLD-0
100
AcDbLine
 10
603.3690903149
 20
197.5475556005
 30
0.0
 11
596.0040390902
 21
197.5475556005
 31
0.0
  0
LINE
  5
20B
330
1FD
100
AcDbEntity
  8
SLD-0
100
AcDbLine
 10
623.3690903149
 20
197.5475556005
 30
0.0
 11
603.3690903149
 21
197.5475556005
 31
0.0
  0
MTEXT
  5
20C
330
1FD
100
AcDbEntity
  8
SLD-0
100
AcDbMText
 10
573.4216369028
 20
204.5966347985
 30
0.0
 40
4.7625
 41
0.0
 71
     1
 72
     1
  1
 
  7
SLDTEXTSTYLE0
 73
     1
 44
1.0
  0
MTEXT
  5
20D
330
1FD
100
AcDbEntity
  8
SLD-0
100
AcDbMText
 10
576.3144146921
 20
204.5966352642
 30
0.0
 40
4.7625
 41
0.0
 71
     1
 72
     1
  1
20.00
  7
SLDTEXTSTYLE0
 73
     1
 44
1.0
  0
MTEXT
  5
20E
330
1FD
100
AcDbEntity
  8
SLD-0
100
AcDbMText
 10
578.0738939802
 20
196.063822911
 30
0.0
 40
4.7625
 41
0.0
 71
     1
 72
     1
  1
.787
  7
SLDTEXTSTYLE0
 73
     1
 44
1.0
  0
MTEXT
  5
20F
330
1FD
100
AcDbEntity
  8
SLD-0
100
AcDbMText
 10
593.2830258543
 20
204.5966347985
 30
0.0
 40
4.7625
 41
0.0
 71
     1
 72
     1
  1
 
  7
SLDTEXTSTYLE0
 73
     1
 44
1.0
  0
ENDBLK
  5
1FF
330
1FD
100
AcDbEntity
  8
0
100
AcDbBlockEnd
  0
BLOCK
  5
212
330
211
100
AcDbEntity
  8
0
100
AcDbBlockBegin
  2
_D_9
 70
     0
 10
0.0
 20
0.0
 30
0.0
  3
_D_9
  1

  0
SOLID
  5
214
330
211
100
AcDbEntity
  8
SLD-0
100
AcDbTrace
 10
603.3690903149
 20
324.1987338756
 30
0.0
 11
599.3690903149
 21
324.6987338756
 31
0.0
 12
599.3690903149
 22
323.6987338756
 32
0.0
 13
599.3690903149
 23
323.6987338756
 33
0.0
  0
SOLID
  5
215
330
211
100
AcDbEntity
  8
SLD-0
100
AcDbTrace
 10
562.3690903149
 20
324.1987338756
 30
0.0
 11
566.3690903149
 21
323.6987338756
 31
0.0
 12
566.3690903149
 22
324.6987338756
 32
0.0
 13
566.3690903149
 23
324.6987338756
 33
0.0
  0
LINE
  5
216
330
211
100
AcDbEntity
  8
SLD-0
100
AcDbLine
 10
620.5581715579
 20
324.1987348069
 30
0.0
 11
619.109577757
 21
324.1987348069
 31
0.0
  0
LINE
  5
217
330
211
100
AcDbEntity
  8
SLD-0
100
AcDbLine
 10
619.109577757
 20
324.1987348069
 30
0.0
 11
619.109577757
 21
316.6316513439
 31
0.0
  0
LINE
  5
218
330
211
100
AcDbEntity
  8
SLD-0
100
AcDbLine
 10
619.109577757
 20
316.6316513439
 30
0.0
 11
620.5581715579
 21
316.6316513439
 31
0.0
  0
LINE
  5
219
330
211
100
AcDbEntity
  8
SLD-0
100
AcDbLine
 10
636.3890739406
 20
324.1987348069
 30
0.0
 11
637.8376677415
 21
324.1987348069
 31
0.0
  0
LINE
  5
21A
330
211
100
AcDbEntity
  8
SLD-0
100
AcDbLine
 10
637.8376677415
 20
324.1987348069
 30
0.0
 11
637.8376677415
 21
316.6316513439
 31
0.0
  0
LINE
  5
21B
330
211
100
AcDbEntity
  8
SLD-0
100
AcDbLine
 10
637.8376677415
 20
316.6316513439
 30
0.0
 11
636.3890739406
 21
316.6316513439
 31
0.0
  0
LINE
  5
21C
330
211
100
AcDbEntity
  8
SLD-0
100
AcDbLine
 10
603.3690903149
 20
294.9843737441
 30
0.0
 11
603.3690903149
 21
325.7227338756
 31
0.0
  0
LINE
  5
21D
330
211
100
AcDbEntity
  8
SLD-0
100
AcDbLine
 10
562.3690903149
 20
310.9843737441
 30
0.0
 11
562.3690903149
 21
325.7227338756
 31
0.0
  0
LINE
  5
21E
330
211
100
AcDbEntity
  8
SLD-0
100
AcDbLine
 10
603.3690903149
 20
324.1987338756
 30
0.0
 11
614.9399711859
 21
324.1987338756
 31
0.0
  0
LINE
  5
21F
330
211
100
AcDbEntity
  8
SLD-0
100
AcDbLine
 10
562.3690903149
 20
324.1987338756
 30
0.0
 11
603.3690903149
 21
324.1987338756
 31
0.0
  0
MTEXT
  5
220
330
211
100
AcDbEntity
  8
SLD-0
100
AcDbMText
 10
615.9059144805
 20
331.2478130736
 30
0.0
 40
4.7625
 41
0.0
 71
     1
 72
     1
  1
 
  7
SLDTEXTSTYLE0
 73
     1
 44
1.0
  0
MTEXT
  5
221
330
211
100
AcDbEntity
  8
SLD-0
100
AcDbMText
 10
620.5581710922
 20
331.2478135393
 30
0.0
 40
4.7625
 41
0.0
 71
     1
 72
     1
  1
41.00
  7
SLDTEXTSTYLE0
 73
     1
 44
1.0
  0
MTEXT
  5
222
330
211
100
AcDbEntity
  8
SLD-0
100
AcDbMText
 10
620.5581715579
 20
322.7150011861
 30
0.0
 40
4.7625
 41
0.0
 71
     1
 72
     1
  1
1.614
  7
SLDTEXTSTYLE0
 73
     1
 44
1.0
  0
MTEXT
  5
223
330
211
100
AcDbEntity
  8
SLD-0
100
AcDbMText
 10
639.2862610767
 20
331.2478130736
 30
0.0
 40
4.7625
 41
0.0
 71
     1
 72
     1
  1
 
  7
SLDTEXTSTYLE0
 73
     1
 44
1.0
  0
ENDBLK
  5
213
330
211
100
AcDbEntity
  8
0
100
AcDbBlockEnd
  0
BLOCK
  5
260
330
25F
100
AcDbEntity
  8
0
100
AcDbBlockBegin
  2
_D_10
 70
     0
 10
0.0
 20
0.0
 30
0.0
  3
_D_10
  1

  0
SOLID
  5
262
330
25F
100
AcDbEntity
  8
SLD-0
100
AcDbTrace
 10
828.8199904356
 20
309.4603737441
 30
0.0
 11
828.3199904356
 21
305.4603737441
 31
0.0
 12
829.3199904356
 22
305.4603737441
 32
0.0
 13
829.3199904356
 23
305.4603737441
 33
0.0
  0
SOLID
  5
263
330
25F
100
AcDbEntity
  8
SLD-0
100
AcDbTrace
 10
828.8199904356
 20
206.4603737441
 30
0.0
 11
829.3199904356
 21
210.4603737441
 31
0.0
 12
828.3199904356
 22
210.4603737441
 32
0.0
 13
828.3199904356
 23
210.4603737441
 33
0.0
  0
LINE
  5
264
330
25F
100
AcDbEntity
  8
SLD-0
100
AcDbLine
 10
825.4730122145
 20
260.3743164057
 30
0.0
 11
824.0244184136
 21
260.3743164057
 31
0.0
  0
LINE
  5
265
330
25F
100
AcDbEntity
  8
SLD-0
100
AcDbLine
 10
824.0244184136
 20
260.3743164057
 30
0.0
 11
824.0244184136
 21
252.8072329426
 31
0.0
  0
LINE
  5
266
330
25F
100
AcDbEntity
  8
SLD-0
100
AcDbLine
 10
824.0244184136
 20
252.8072329426
 30
0.0
 11
825.4730122145
 21
252.8072329426
 31
0.0
  0
LINE
  5
267
330
25F
100
AcDbEntity
  8
SLD-0
100
AcDbLine
 10
841.3039145973
 20
260.3743164057
 30
0.0
 11
842.7525083981
 21
260.3743164057
 31
0.0
  0
LINE
  5
268
330
25F
100
AcDbEntity
  8
SLD-0
100
AcDbLine
 10
842.7525083981
 20
260.3743164057
 30
0.0
 11
842.7525083981
 21
252.8072329426
 31
0.0
  0
LINE
  5
269
330
25F
100
AcDbEntity
  8
SLD-0
100
AcDbLine
 10
842.7525083981
 20
252.8072329426
 30
0.0
 11
841.3039145973
 21
252.8072329426
 31
0.0
  0
LINE
  5
26A
330
25F
100
AcDbEntity
  8
SLD-0
100
AcDbLine
 10
794.4371945416
 20
309.4603737441
 30
0.0
 11
830.3439904356
 21
309.4603737441
 31
0.0
  0
LINE
  5
26B
330
25F
100
AcDbEntity
  8
SLD-0
100
AcDbLine
 10
794.4371945416
 20
206.4603737441
 30
0.0
 11
830.3439904356
 21
206.4603737441
 31
0.0
  0
LINE
  5
26C
330
25F
100
AcDbEntity
  8
SLD-0
100
AcDbLine
 10
828.8199904356
 20
309.4603737441
 30
0.0
 11
828.8199904356
 21
268.9071282932
 31
0.0
  0
LINE
  5
26D
330
25F
100
AcDbEntity
  8
SLD-0
100
AcDbLine
 10
828.8199904356
 20
206.4603737441
 30
0.0
 11
828.8199904356
 21
251.8415026555
 31
0.0
  0
MTEXT
  5
26E
330
25F
100
AcDbEntity
  8
SLD-0
100
AcDbMText
 10
813.4388796035
 20
267.4233946724
 30
0.0
 40
4.7625
 41
0.0
 71
     1
 72
     1
  1
2X 
  7
SLDTEXTSTYLE0
 73
     1
 44
1.0
  0
MTEXT
  5
26F
330
25F
100
AcDbEntity
  8
SLD-0
100
AcDbMText
 10
823.7135329265
 20
267.423395138
 30
0.0
 40
4.7625
 41
0.0
 71
     1
 72
     1
  1
103.00
  7
SLDTEXTSTYLE0
 73
     1
 44
1.0
  0
MTEXT
  5
270
330
25F
100
AcDbEntity
  8
SLD-0
100
AcDbMText
 10
825.4730122145
 20
258.8905827848
 30
0.0
 40
4.7625
 41
0.0
 71
     1
 72
     1
  1
4.055
  7
SLDTEXTSTYLE0
 73
     1
 44
1.0
  0
ENDBLK
  5
261
330
25F
100
AcDbEntity
  8
0
100
AcDbBlockEnd
  0
BLOCK
  5
273
330
272
100
AcDbEntity
  8
0
100
AcDbBlockBegin
  2
_D_11
 70
     0
 10
0.0
 20
0.0
 30
0.0
  3
_D_11
  1

  0
SOLID
  5
275
330
272
100
AcDbEntity
  8
SLD-0
100
AcDbTrace
 10
696.9131945416
 20
222.4603737441
 30
0.0
 11
697.4131945416
 21
226.4603737441
 31
0.0
 12
696.4131945416
 22
226.4603737441
 32
0.0
 13
696.4131945416
 23
226.4603737441
 33
0.0
  0
SOLID
  5
276
330
272
100
AcDbEntity
  8
SLD-0
100
AcDbTrace
 10
696.9131945416
 20
293.4603737441
 30
0.0
 11
696.4131945416
 21
289.4603737441
 31
0.0
 12
697.4131945416
 22
289.4603737441
 32
0.0
 13
697.4131945416
 23
289.4603737441
 33
0.0
  0
LINE
  5
277
330
272
100
AcDbEntity
  8
SLD-0
100
AcDbLine
 10
688.9977433502
 20
260.3743164057
 30
0.0
 11
687.5491495493
 21
260.3743164057
 31
0.0
  0
LINE
  5
278
330
272
100
AcDbEntity
  8
SLD-0
100
AcDbLine
 10
687.5491495493
 20
260.3743164057
 30
0.0
 11
687.5491495493
 21
252.8072329426
 31
0.0
  0
LINE
  5
279
330
272
100
AcDbEntity
  8
SLD-0
100
AcDbLine
 10
687.5491495493
 20
252.8072329426
 30
0.0
 11
688.9977433502
 21
252.8072329426
 31
0.0
  0
LINE
  5
27A
330
272
100
AcDbEntity
  8
SLD-0
100
AcDbLine
 10
704.8286457329
 20
260.3743164057
 30
0.0
 11
706.2772395338
 21
260.3743164057
 31
0.0
  0
LINE
  5
27B
330
272
100
AcDbEntity
  8
SLD-0
100
AcDbLine
 10
706.2772395338
 20
260.3743164057
 30
0.0
 11
706.2772395338
 21
252.8072329426
 31
0.0
  0
LINE
  5
27C
330
272
100
AcDbEntity
  8
SLD-0
100
AcDbLine
 10
706.2772395338
 20
252.8072329426
 30
0.0
 11
704.8286457329
 21
252.8072329426
 31
0.0
  0
LINE
  5
27D
330
272
100
AcDbEntity
  8
SLD-0
100
AcDbLine
 10
722.3891945416
 20
222.4603737441
 30
0.0
 11
695.3891945416
 21
222.4603737441
 31
0.0
  0
LINE
  5
27E
330
272
100
AcDbEntity
  8
SLD-0
100
AcDbLine
 10
722.3891945416
 20
293.4603737441
 30
0.0
 11
695.3891945416
 21
293.4603737441
 31
0.0
  0
LINE
  5
27F
330
272
100
AcDbEntity
  8
SLD-0
100
AcDbLine
 10
696.9131945416
 20
222.4603737441
 30
0.0
 11
696.9131945416
 21
251.8415026555
 31
0.0
  0
LINE
  5
280
330
272
100
AcDbEntity
  8
SLD-0
100
AcDbLine
 10
696.9131945416
 20
293.4603737441
 30
0.0
 11
696.9131945416
 21
268.9071282932
 31
0.0
  0
MTEXT
  5
281
330
272
100
AcDbEntity
  8
SLD-0
100
AcDbMText
 10
684.3454862728
 20
267.4233946724
 30
0.0
 40
4.7625
 41
0.0
 71
     1
 72
     1
  1
 
  7
SLDTEXTSTYLE0
 73
     1
 44
1.0
  0
MTEXT
  5
282
330
272
100
AcDbEntity
  8
SLD-0
100
AcDbMText
 10
688.9977428846
 20
267.423395138
 30
0.0
 40
4.7625
 41
0.0
 71
     1
 72
     1
  1
71.00
  7
SLDTEXTSTYLE0
 73
     1
 44
1.0
  0
MTEXT
  5
283
330
272
100
AcDbEntity
  8
SLD-0
100
AcDbMText
 10
688.9977433502
 20
258.8905827848
 30
0.0
 40
4.7625
 41
0.0
 71
     1
 72
     1
  1
2.795
  7
SLDTEXTSTYLE0
 73
     1
 44
1.0
  0
MTEXT
  5
284
330
272
100
AcDbEntity
  8
SLD-0
100
AcDbMText
 10
707.7258328691
 20
267.4233946724
 30
0.0
 40
4.7625
 41
0.0
 71
     1
 72
     1
  1
 
  7
SLDTEXTSTYLE0
 73
     1
 44
1.0
  0
ENDBLK
  5
274
330
272
100
AcDbEntity
  8
0
100
AcDbBlockEnd
  0
BLOCK
  5
2B6
330
2B5
100
AcDbEntity
  8
0
100
AcDbBlockBegin
  2
_D_12
 70
     0
 10
0.0
 20
0.0
 30
0.0
  3
_D_12
  1

  0
SOLID
  5
2B8
330
2B5
100
AcDbEntity
  8
SLD-0
100
AcDbTrace
 10
317.2954301471
 20
375.7114436055
 30
0.0
 11
321.2954301471
 21
375.2114436055
 31
0.0
 12
321.2954301471
 22
376.2114436055
 32
0.0
 13
321.2954301471
 23
376.2114436055
 33
0.0
  0
SOLID
  5
2B9
330
2B5
100
AcDbEntity
  8
SLD-0
100
AcDbTrace
 10
404.2954301471
 20
375.7114436055
 30
0.0
 11
400.2954301471
 21
376.2114436055
 31
0.0
 12
400.2954301471
 22
375.2114436055
 32
0.0
 13
400.2954301471
 23
375.2114436055
 33
0.0
  0
LINE
  5
2BA
330
2B5
100
AcDbEntity
  8
SLD-0
100
AcDbLine
 10
352.7948687631
 20
375.7114445368
 30
0.0
 11
351.3462749622
 21
375.7114445368
 31
0.0
  0
LINE
  5
2BB
330
2B5
100
AcDbEntity
  8
SLD-0
100
AcDbLine
 10
351.3462749622
 20
375.7114445368
 30
0.0
 11
351.3462749622
 21
368.1443610737
 31
0.0
  0
LINE
  5
2BC
330
2B5
100
AcDbEntity
  8
SLD-0
100
AcDbLine
 10
351.3462749622
 20
368.1443610737
 30
0.0
 11
352.7948687631
 21
368.1443610737
 31
0.0
  0
LINE
  5
2BD
330
2B5
100
AcDbEntity
  8
SLD-0
100
AcDbLine
 10
368.6257711458
 20
375.7114445368
 30
0.0
 11
370.0743649467
 21
375.7114445368
 31
0.0
  0
LINE
  5
2BE
330
2B5
100
AcDbEntity
  8
SLD-0
100
AcDbLine
 10
370.0743649467
 20
375.7114445368
 30
0.0
 11
370.0743649467
 21
368.1443610737
 31
0.0
  0
LINE
  5
2BF
330
2B5
100
AcDbEntity
  8
SLD-0
100
AcDbLine
 10
370.0743649467
 20
368.1443610737
 30
0.0
 11
368.6257711458
 21
368.1443610737
 31
0.0
  0
LINE
  5
2C0
330
2B5
100
AcDbEntity
  8
SLD-0
100
AcDbLine
 10
317.2954301471
 20
412.1066431957
 30
0.0
 11
317.2954301471
 21
374.1874436055
 31
0.0
  0
LINE
  5
2C1
330
2B5
100
AcDbEntity
  8
SLD-0
100
AcDbLine
 10
404.2954301471
 20
412.1066431957
 30
0.0
 11
404.2954301471
 21
374.1874436055
 31
0.0
  0
LINE
  5
2C2
330
2B5
100
AcDbEntity
  8
SLD-0
100
AcDbLine
 10
317.2954301471
 20
375.7114436055
 30
0.0
 11
347.1766683911
 21
375.7114436055
 31
0.0
  0
LINE
  5
2C3
330
2B5
100
AcDbEntity
  8
SLD-0
100
AcDbLine
 10
404.2954301471
 20
375.7114436055
 30
0.0
 11
374.2439715178
 21
375.7114436055
 31
0.0
  0
MTEXT
  5
2C4
330
2B5
100
AcDbEntity
  8
SLD-0
100
AcDbMText
 10
348.1426116857
 20
382.7605228035
 30
0.0
 40
4.7625
 41
0.0
 71
     1
 72
     1
  1
 
  7
SLDTEXTSTYLE0
 73
     1
 44
1.0
  0
MTEXT
  5
2C5
330
2B5
100
AcDbEntity
  8
SLD-0
100
AcDbMText
 10
352.7948682974
 20
382.7605232692
 30
0.0
 40
4.7625
 41
0.0
 71
     1
 72
     1
  1
87.00
  7
SLDTEXTSTYLE0
 73
     1
 44
1.0
  0
MTEXT
  5
2C6
330
2B5
100
AcDbEntity
  8
SLD-0
100
AcDbMText
 10
352.7948687631
 20
374.227710916
 30
0.0
 40
4.7625
 41
0.0
 71
     1
 72
     1
  1
3.425
  7
SLDTEXTSTYLE0
 73
     1
 44
1.0
  0
MTEXT
  5
2C7
330
2B5
100
AcDbEntity
  8
SLD-0
100
AcDbMText
 10
371.5229582819
 20
382.7605228035
 30
0.0
 40
4.7625
 41
0.0
 71
     1
 72
     1
  1
 
  7
SLDTEXTSTYLE0
 73
     1
 44
1.0
  0
ENDBLK
  5
2B7
330
2B5
100
AcDbEntity
  8
0
100
AcDbBlockEnd
  0
BLOCK
  5
2CA
330
2C9
100
AcDbEntity
  8
0
100
AcDbBlockBegin
  2
_D_13
 70
     0
 10
0.0
 20
0.0
 30
0.0
  3
_D_13
  1

  0
SOLID
  5
2CC
330
2C9
100
AcDbEntity
  8
SLD-0
100
AcDbTrace
 10
370.2954301471
 20
494.0549661542
 30
0.0
 11
366.2954301471
 21
494.5549661542
 31
0.0
 12
366.2954301471
 22
493.5549661542
 32
0.0
 13
366.2954301471
 23
493.5549661542
 33
0.0
  0
SOLID
  5
2CD
330
2C9
100
AcDbEntity
  8
SLD-0
100
AcDbTrace
 10
351.2954301471
 20
494.0549661542
 30
0.0
 11
355.2954301471
 21
493.5549661542
 31
0.0
 12
355.2954301471
 22
494.5549661542
 32
0.0
 13
355.2954301471
 23
494.5549661542
 33
0.0
  0
LINE
  5
2CE
330
2C9
100
AcDbEntity
  8
SLD-0
100
AcDbLine
 10
324.4724964393
 20
494.0549670856
 30
0.0
 11
323.0239026384
 21
494.0549670856
 31
0.0
  0
LINE
  5
2CF
330
2C9
100
AcDbEntity
  8
SLD-0
100
AcDbLine
 10
323.0239026384
 20
494.0549670856
 30
0.0
 11
323.0239026384
 21
486.4878836225
 31
0.0
  0
LINE
  5
2D0
330
2C9
100
AcDbEntity
  8
SLD-0
100
AcDbLine
 10
323.0239026384
 20
486.4878836225
 30
0.0
 11
324.4724964393
 21
486.4878836225
 31
0.0
  0
LINE
  5
2D1
330
2C9
100
AcDbEntity
  8
SLD-0
100
AcDbLine
 10
336.7844411774
 20
494.0549670856
 30
0.0
 11
338.2330349782
 21
494.0549670856
 31
0.0
  0
LINE
  5
2D2
330
2C9
100
AcDbEntity
  8
SLD-0
100
AcDbLine
 10
338.2330349782
 20
494.0549670856
 30
0.0
 11
338.2330349782
 21
486.4878836225
 31
0.0
  0
LINE
  5
2D3
330
2C9
100
AcDbEntity
  8
SLD-0
100
AcDbLine
 10
338.2330349782
 20
486.4878836225
 30
0.0
 11
336.7844411774
 21
486.4878836225
 31
0.0
  0
LINE
  5
2D4
330
2C9
100
AcDbEntity
  8
SLD-0
100
AcDbLine
 10
370.2954301471
 20
477.1546431957
 30
0.0
 11
370.2954301471
 21
495.5789661542
 31
0.0
  0
LINE
  5
2D5
330
2C9
100
AcDbEntity
  8
SLD-0
100
AcDbLine
 10
351.2954301471
 20
477.1546431957
 30
0.0
 11
351.2954301471
 21
495.5789661542
 31
0.0
  0
LINE
  5
2D6
330
2C9
100
AcDbEntity
  8
SLD-0
100
AcDbLine
 10
370.2954301471
 20
494.0549661542
 30
0.0
 11
351.2954301471
 21
494.0549661542
 31
0.0
  0
LINE
  5
2D7
330
2C9
100
AcDbEntity
  8
SLD-0
100
AcDbLine
 10
351.2954301471
 20
494.0549661542
 30
0.0
 11
342.4026415493
 21
494.0549661542
 31
0.0
  0
MTEXT
  5
2D8
330
2C9
100
AcDbEntity
  8
SLD-0
100
AcDbMText
 10
319.8202393619
 20
501.1040453523
 30
0.0
 40
4.7625
 41
0.0
 71
     1
 72
     1
  1
 
  7
SLDTEXTSTYLE0
 73
     1
 44
1.0
  0
MTEXT
  5
2D9
330
2C9
100
AcDbEntity
  8
SLD-0
100
AcDbMText
 10
322.7130171513
 20
501.1040458179
 30
0.0
 40
4.7625
 41
0.0
 71
     1
 72
     1
  1
19.00
  7
SLDTEXTSTYLE0
 73
     1
 44
1.0
  0
MTEXT
  5
2DA
330
2C9
100
AcDbEntity
  8
SLD-0
100
AcDbMText
 10
324.4724964393
 20
492.5712334647
 30
0.0
 40
4.7625
 41
0.0
 71
     1
 72
     1
  1
.748
  7
SLDTEXTSTYLE0
 73
     1
 44
1.0
  0
MTEXT
  5
2DB
330
2C9
100
AcDbEntity
  8
SLD-0
100
AcDbMText
 10
339.6816283135
 20
501.1040453523
 30
0.0
 40
4.7625
 41
0.0
 71
     1
 72
     1
  1
 
  7
SLDTEXTSTYLE0
 73
     1
 44
1.0
  0
ENDBLK
  5
2CB
330
2C9
100
AcDbEntity
  8
0
100
AcDbBlockEnd
  0
BLOCK
  5
31C
330
31B
100
AcDbEntity
  8
0
100
AcDbBlockBegin
  2
_D_14
 70
     0
 10
0.0
 20
0.0
 30
0.0
  3
_D_14
  1

  0
ARC
  5
31E
330
31B
100
AcDbEntity
  8
SLD-0
100
AcDbCircle
 10
56.1246942794
 20
258.4720747552
 30
0.0
 40
19.28701670055741
100
AcDbArc
 50
153.4349488229
 51
206.5650511771
  0
ARC
  5
31F
330
31B
100
AcDbEntity
  8
SLD-0
100
AcDbCircle
 10
50.0586811518
 20
258.4720747552
 30
0.0
 40
19.28701670055741
100
AcDbArc
 50
333.4349488229
 51
26.5650511771
  0
SOLID
  5
320
330
31B
100
AcDbEntity
  8
SLD-0
100
AcDbTrace
 10
53.0916872499
 20
320.3173737441
 30
0.0
 11
52.5916872499
 21
316.3173737441
 31
0.0
 12
53.5916872499
 22
316.3173737441
 32
0.0
 13
53.5916872499
 23
316.3173737441
 33
0.0
  0
SOLID
  5
321
330
31B
100
AcDbEntity
  8
SLD-0
100
AcDbTrace
 10
53.0916872499
 20
195.6033737441
 30
0.0
 11
53.5916872499
 21
199.6033737441
 31
0.0
 12
52.5916872499
 22
199.6033737441
 32
0.0
 13
52.5916872499
 23
199.6033737441
 33
0.0
  0
LINE
  5
322
330
31B
100
AcDbEntity
  8
SLD-0
100
AcDbLine
 10
48.5814247345
 20
258.3794705577
 30
0.0
 11
47.1328309336
 21
258.3794705577
 31
0.0
  0
LINE
  5
323
330
31B
100
AcDbEntity
  8
SLD-0
100
AcDbLine
 10
47.1328309336
 20
258.3794705577
 30
0.0
 11
47.1328309336
 21
250.8123870946
 31
0.0
  0
LINE
  5
324
330
31B
100
AcDbEntity
  8
SLD-0
100
AcDbLine
 10
47.1328309336
 20
250.8123870946
 30
0.0
 11
48.5814247345
 21
250.8123870946
 31
0.0
  0
LINE
  5
325
330
31B
100
AcDbEntity
  8
SLD-0
100
AcDbLine
 10
64.4123271173
 20
258.3794705577
 30
0.0
 11
65.8609209181
 21
258.3794705577
 31
0.0
  0
LINE
  5
326
330
31B
100
AcDbEntity
  8
SLD-0
100
AcDbLine
 10
65.8609209181
 20
258.3794705577
 30
0.0
 11
65.8609209181
 21
250.8123870946
 31
0.0
  0
LINE
  5
327
330
31B
100
AcDbEntity
  8
SLD-0
100
AcDbLine
 10
65.8609209181
 20
250.8123870946
 30
0.0
 11
64.4123271173
 21
250.8123870946
 31
0.0
  0
LINE
  5
328
330
31B
100
AcDbEntity
  8
SLD-0
100
AcDbLine
 10
85.6676872499
 20
320.3173737441
 30
0.0
 11
51.5676872499
 21
320.3173737441
 31
0.0
  0
LINE
  5
329
330
31B
100
AcDbEntity
  8
SLD-0
100
AcDbLine
 10
85.6676872499
 20
195.6033737441
 30
0.0
 11
51.5676872499
 21
195.6033737441
 31
0.0
  0
LINE
  5
32A
330
31B
100
AcDbEntity
  8
SLD-0
100
AcDbLine
 10
53.0916872499
 20
320.3173737441
 30
0.0
 11
53.0916872499
 21
268.0632201962
 31
0.0
  0
LINE
  5
32B
330
31B
100
AcDbEntity
  8
SLD-0
100
AcDbLine
 10
53.0916872499
 20
195.6033737441
 30
0.0
 11
53.0916872499
 21
249.8466586701
 31
0.0
  0
INSERT
  5
333
330
31B
100
AcDbEntity
  8
SLD-0
100
AcDbBlockReference
  2
SW_SYMBOL_MOD_BOX
 10
38.8738621091
 20
260.0056240197
 30
0.0
 41
0.0030416748
 42
0.0030416748
 43
0.0030416748
  0
MTEXT
  5
334
330
31B
100
AcDbEntity
  8
SLD-0
100
AcDbMText
 10
46.8219454465
 20
265.42854929
 30
0.0
 40
4.7625
 41
0.0
 71
     1
 72
     1
  1
124.71
  7
SLDTEXTSTYLE0
 73
     1
 44
1.0
  0
MTEXT
  5
335
330
31B
100
AcDbEntity
  8
SLD-0
100
AcDbMText
 10
48.5814247345
 20
256.8957369368
 30
0.0
 40
4.7625
 41
0.0
 71
     1
 72
     1
  1
4.910
  7
SLDTEXTSTYLE0
 73
     1
 44
1.0
  0
ENDBLK
  5
31D
330
31B
100
AcDbEntity
  8
0
100
AcDbBlockEnd
  0
BLOCK
  5
32D
330
32C
100
AcDbEntity
  8
0
100
AcDbBlockBegin
  2
SW_SYMBOL_MOD_BOX
 70
     0
 10
0.0
 20
0.0
 30
0.0
  3
SW_SYMBOL_MOD_BOX
  1

  0
LINE
  5
32F
330
32C
100
AcDbEntity
  8
SLD-0
 62
     0
100
AcDbLine
 10
400.0
 20
400.0
 30
0.0
 11
1600.0
 21
400.0
 31
0.0
  0
LINE
  5
330
330
32C
100
AcDbEntity
  8
SLD-0
 62
     0
100
AcDbLine
 10
400.0
 20
400.0
 30
0.0
 11
400.0
 21
1600.0
 31
0.0
  0
LINE
  5
331
330
32C
100
AcDbEntity
  8
SLD-0
 62
     0
100
AcDbLine
 10
400.0
 20
1600.0
 30
0.0
 11
1600.0
 21
1600.0
 31
0.0
  0
LINE
  5
332
330
32C
100
AcDbEntity
  8
SLD-0
 62
     0
100
AcDbLine
 10
1600.0
 20
1600.0
 30
0.0
 11
1600.0
 21
400.0
 31
0.0
  0
ENDBLK
  5
32E
330
32C
100
AcDbEntity
  8
0
100
AcDbBlockEnd
  0
ENDSEC
  0
SECTION
  2
ENTITIES
  0
LINE
  5
68
330
1F
100
AcDbEntity
  8
SLD-0
 62
     7
100
AcDbLine
 10
13.0
 20
545.8
 30
0.0
 11
850.6
 21
545.8
 31
0.0
  0
LINE
  5
69
330
1F
100
AcDbEntity
  8
0
  6
Continuous
 62
     7
370
    18
100
AcDbLine
 10
13.0
 20
36.0
 30
0.0
 11
850.6
 21
36.0
 31
0.0
  0
LINE
  5
6A
330
1F
100
AcDbEntity
  8
0
  6
CENTER
 62
     7
370
    18
100
AcDbLine
 10
366.9102516261
 20
17.8535393558
 30
0.0
 11
376.2532816249
 21
17.8535393558
 31
0.0
  0
LINE
  5
6B
330
1F
100
AcDbEntity
  8
0
  6
Continuous
 62
     7
370
    18
100
AcDbLine
 10
367.8560246098
 20
16.5835393558
 30
0.0
 11
375.4760246098
 21
15.3135393558
 31
0.0
  0
LINE
  5
6C
330
1F
100
AcDbEntity
  8
0
  6
Continuous
 62
     7
370
    18
100
AcDbLine
 10
367.8560246098
 20
19.1235393558
 30
0.0
 11
375.4760246098
 21
20.3935393558
 31
0.0
  0
LINE
  5
6D
330
1F
100
AcDbEntity
  8
0
  6
CENTER
 62
     7
370
    18
100
AcDbLine
 10
359.4841846098
 20
17.8535393558
 30
0.0
 11
366.0088790379
 21
17.8535393558
 31
0.0
  0
LINE
  5
6E
330
1F
100
AcDbEntity
  8
0
  6
CENTER
 62
     7
370
    18
100
AcDbLine
 10
362.7465318239
 20
14.5577954402
 30
0.0
 11
362.7465318239
 21
21.1492832714
 31
0.0
  0
LINE
  5
6F
330
1F
100
AcDbEntity
  8
0
  6
Continuous
 62
     7
370
    18
100
AcDbLine
 10
367.8560246098
 20
19.1235393558
 30
0.0
 11
367.8560246098
 21
16.5835393558
 31
0.0
  0
LINE
  5
70
330
1F
100
AcDbEntity
  8
0
  6
Continuous
 62
     7
370
    18
100
AcDbLine
 10
375.4760246098
 20
20.3935393558
 30
0.0
 11
375.4760246098
 21
15.3135393558
 31
0.0
  0
CIRCLE
  5
71
330
1F
100
AcDbEntity
  8
0
  6
Continuous
 62
     7
370
    18
100
AcDbCircle
 10
362.7465318239
 20
17.8535393558
 30
0.0
 40
2.539999999999801
  0
CIRCLE
  5
72
330
1F
100
AcDbEntity
  8
0
  6
Continuous
 62
     7
370
    18
100
AcDbCircle
 10
362.7465318239
 20
17.8535393558
 30
0.0
 40
1.269999999999877
  0
MTEXT
  5
74
330
1F
100
AcDbEntity
  8
0
  6
Continuous
 62
     7
370
     0
100
AcDbMText
 10
13.5772992843
 20
533.5962996618
 30
0.0
 40
4.7625
 41
0.0
 71
     1
 72
     1
  1
NOTES: UNLESS OTHERWISE SPECIFIED
  7
SLDTEXTSTYLE0
 73
     1
 44
1.0
  0
MTEXT
  5
75
330
1F
100
AcDbEntity
  8
0
  6
Continuous
 62
     7
370
     0
100
AcDbMText
 10
33.5772988373
 20
525.2462998764
 30
0.0
 40
4.7625
 41
0.0
 71
     1
 72
     1
  1
NET WEIGHT APPROX. 0.39 KG [0.86 LBS].
  7
SLDTEXTSTYLE0
 73
     1
 44
1.0
  0
MTEXT
  5
76
330
1F
100
AcDbEntity
  8
0
  6
Continuous
 62
     7
370
     0
100
AcDbMText
 10
13.5772992843
 20
525.2462998764
 30
0.0
 40
4.7625
 41
0.0
 71
     1
 72
     1
  1
1.
  7
SLDTEXTSTYLE0
 73
     1
 44
1.0
  0
MTEXT
  5
77
330
1F
100
AcDbEntity
  8
0
  6
Continuous
 62
     7
370
     0
100
AcDbMText
 10
33.5772988373
 20
516.8963000909
 30
0.0
 40
4.7625
 41
0.0
 71
     1
 72
     1
  1
PARTS ARE SYMMETRICAL ABOUT CENTER LINES UNLESS OTHERWISE NOTED.
  7
SLDTEXTSTYLE0
 73
     1
 44
1.0
  0
MTEXT
  5
78
330
1F
100
AcDbEntity
  8
0
  6
Continuous
 62
     7
370
     0
100
AcDbMText
 10
13.5772992843
 20
516.8963000909
 30
0.0
 40
4.7625
 41
0.0
 71
     1
 72
     1
  1
2.
  7
SLDTEXTSTYLE0
 73
     1
 44
1.0
  0
MTEXT
  5
79
330
1F
100
AcDbEntity
  8
SLD-0
100
AcDbMText
 10
360.0512343723
 20
159.6352099184
 30
0.0
 40
4.7625
 41
0.0
 71
     2
 72
     1
  1
WALLPLATE REMOVED
  7
SLDTEXTSTYLE0
 73
     1
 44
1.0
  0
MTEXT
  5
7A
330
1F
100
AcDbEntity
  8
0
  6
Continuous
 62
     7
370
     0
100
AcDbMText
 10
295.5043019013
 20
28.9819567757
 30
0.0
 40
3.7041666667
 41
0.0
 71
     2
 72
     1
  1
00PW4
  7
SLDTEXTSTYLE0
 73
     1
 44
1.0
  0
MTEXT
  5
7B
330
1F
100
AcDbEntity
  8
0
  6
Continuous
 62
     7
370
     0
100
AcDbMText
 10
453.4011705876
 20
17.7884262976
 30
0.0
 40
3.7041666667
 41
0.0
 71
     1
 72
     1
  1
T.GOSSARD
  7
SLDTEXTSTYLE0
 73
     1
 44
1.0
  0
MTEXT
  5
7C
330
1F
100
AcDbEntity
  8
0
  6
Continuous
 62
     7
370
     0
100
AcDbMText
 10
323.1288533613
 20
33.0777444155
 30
0.0
 40
3.175
 41
0.0
 71
     1
 72
     1
  1
UNLESS  OTHERWISE  SPECIFIED
  7
SLDTEXTSTYLE0
 73
     1
 44
1.0
  0
MTEXT
  5
7D
330
1F
100
AcDbEntity
  8
0
  6
Continuous
 62
     7
370
     0
100
AcDbMText
 10
323.1288533613
 20
28.8444111333
 30
0.0
 40
3.175
 41
0.0
 71
     1
 72
     1
  1
DIMENSIONS  ARE  IN  MM [IN]
  7
SLDTEXTSTYLE0
 73
     1
 44
1.0
  0
MTEXT
  5
7E
330
1F
100
AcDbEntity
  8
0
  6
Continuous
 62
     7
370
     0
100
AcDbMText
 10
785.8795289483
 20
17.9849245354
 30
0.0
 40
3.7041666667
 41
0.0
 71
     2
 72
     1
  1
1:2
  7
SLDTEXTSTYLE0
 73
     1
 44
1.0
  0
MTEXT
  5
7F
330
1F
100
AcDbEntity
  8
0
  6
Continuous
 62
     7
370
     0
100
AcDbMText
 10
327.9605285881
 20
19.6918719363
 30
0.0
 40
3.175
 41
0.0
 71
     1
 72
     1
  1
PROJECTION
  7
SLDTEXTSTYLE0
 73
     1
 44
1.0
  0
MTEXT
  5
80
330
1F
100
AcDbEntity
  8
0
  6
Continuous
 62
     7
370
     0
100
AcDbMText
 10
425.5151766137
 20
21.8087727956
 30
0.0
 40
3.175
 41
0.0
 71
     1
 72
     1
  1
%%p
  7
SLDTEXTSTYLE0
 73
     1
 44
1.0
  0
MTEXT
  5
81
330
1F
100
AcDbEntity
  8
0
  6
Continuous
 62
     7
370
     0
100
AcDbMText
 10
428.5420099058
 20
21.8087727956
 30
0.0
 40
3.175
 41
0.0
 71
     1
 72
     1
  1
1
  7
SLDTEXTSTYLE0
 73
     1
 44
1.0
  0
MTEXT
  5
82
330
1F
100
AcDbEntity
  8
0
  6
Continuous
 62
     7
370
     0
100
AcDbMText
 10
430.8879821346
 20
21.8087727956
 30
0.0
 40
3.175
 41
0.0
 71
     1
 72
     1
  1
%%d
  7
SLDTEXTSTYLE0
 73
     1
 44
1.0
  0
MTEXT
  5
83
330
1F
100
AcDbEntity
  8
0
  6
Continuous
 62
     7
370
     0
100
AcDbMText
 10
394.0737550472
 20
21.8087727956
 30
0.0
 40
3.175
 41
0.0
 71
     1
 72
     1
  1
.X 
  7
SLDTEXTSTYLE0
 73
     1
 44
1.0
  0
MTEXT
  5
84
330
1F
100
AcDbEntity
  8
0
  6
Continuous
 62
     7
370
     0
100
AcDbMText
 10
398.9891256531
 20
21.8087727956
 30
0.0
 40
3.175
 41
0.0
 71
     1
 72
     1
  1
%%p
  7
SLDTEXTSTYLE0
 73
     1
 44
1.0
  0
MTEXT
  5
85
330
1F
100
AcDbEntity
  8
0
  6
Continuous
 62
     7
370
     0
100
AcDbMText
 10
402.0159584795
 20
21.8087727956
 30
0.0
 40
3.175
 41
0.0
 71
     1
 72
     1
  1
 3.0 [.12]
  7
SLDTEXTSTYLE0
 73
     1
 44
1.0
  0
MTEXT
  5
86
330
1F
100
AcDbEntity
  8
0
  6
Continuous
 62
     7
370
     0
100
AcDbMText
 10
394.0737550472
 20
17.5754395134
 30
0.0
 40
3.175
 41
0.0
 71
     1
 72
     1
  1
.XX 
  7
SLDTEXTSTYLE0
 73
     1
 44
1.0
  0
MTEXT
  5
87
330
1F
100
AcDbEntity
  8
0
  6
Continuous
 62
     7
370
     0
100
AcDbMText
 10
401.5644030039
 20
17.5754395134
 30
0.0
 40
3.175
 41
0.0
 71
     1
 72
     1
  1
%%p
  7
SLDTEXTSTYLE0
 73
     1
 44
1.0
  0
MTEXT
  5
88
330
1F
100
AcDbEntity
  8
0
  6
Continuous
 62
     7
370
     0
100
AcDbMText
 10
683.1887745904
 20
27.1292298345
 30
0.0
 40
6.35
 41
0.0
 71
     2
 72
     1
  1
VIDEO, NV-1-H-WE, WH,WPE
  7
SLDTEXTSTYLE0
 73
     1
 44
1.0
  0
MTEXT
  5
89
330
1F
100
AcDbEntity
  8
0
  6
Continuous
 62
     7
370
     0
100
AcDbMText
 10
394.1291861843
 20
33.0777444155
 30
0.0
 40
3.175
 41
0.0
 71
     1
 72
     1
  1
TOLERANCES  ARE:
  7
SLDTEXTSTYLE0
 73
     1
 44
1.0
  0
MTEXT
  5
8A
330
1F
100
AcDbEntity
  8
0
  6
Continuous
 62
     7
370
     0
100
AcDbMText
 10
394.1291861843
 20
28.8444111333
 30
0.0
 40
3.175
 41
0.0
 71
     1
 72
     1
  1
DECIMALS          ANGLES
  7
SLDTEXTSTYLE0
 73
     1
 44
1.0
  0
MTEXT
  5
8B
330
1F
100
AcDbEntity
  8
0
  6
Continuous
 62
     7
370
     0
100
AcDbMText
 10
507.2368872533
 20
21.8062403245
 30
0.0
 40
2.6458333333
 41
0.0
 71
     1
 72
     1
  1
MFG ENGINEER
  7
SLDTEXTSTYLE0
 73
     1
 44
1.0
  0
MTEXT
  5
8C
330
1F
100
AcDbEntity
  8
0
  6
Continuous
 62
     7
370
     0
100
AcDbMText
 10
453.4011705876
 20
21.8062403245
 30
0.0
 40
2.6458333333
 41
0.0
 71
     1
 72
     1
  1
MECH ENGINEER
  7
SLDTEXTSTYLE0
 73
     1
 44
1.0
  0
MTEXT
  5
8E
330
1F
100
AcDbEntity
  8
0
  6
Continuous
 62
     7
370
     0
100
AcDbMText
 10
770.9809949308
 20
17.5597523616
 30
0.0
 40
2.6458333333
 41
0.0
 71
     1
 72
     1
  1
SCALE:  
  7
SLDTEXTSTYLE1
 73
     1
 44
1.0
  0
MTEXT
  5
8F
330
1F
100
AcDbEntity
  8
SLD-0
 62
     7
100
AcDbMText
 10
770.8270341986
 20
27.7753595768
 30
0.0
 40
6.35
 41
0.0
 71
     1
 72
     1
  1
FG-901500-2D
  7
SLDTEXTSTYLE0
 73
     1
 44
1.0
  0
MTEXT
  5
90
330
1F
100
AcDbEntity
  8
0
  6
Continuous
 62
     7
370
     0
100
AcDbMText
 10
843.7692246236
 20
27.8523399428
 30
0.0
 40
6.35
 41
0.0
 71
     2
 72
     1
  1
A
  7
SLDTEXTSTYLE0
 73
     1
 44
1.0
  0
MTEXT
  5
91
330
1F
100
AcDbEntity
  8
0
  6
Continuous
 62
     7
370
     0
100
AcDbMText
 10
841.5970786686
 20
17.9849245354
 30
0.0
 40
3.7041666667
 41
0.0
 71
     2
 72
     1
  1
1  OF  1
  7
SLDTEXTSTYLE0
 73
     1
 44
1.0
  0
MTEXT
  5
92
330
1F
100
AcDbEntity
  8
0
  6
Continuous
 62
     7
370
     0
100
AcDbMText
 10
770.9809949308
 20
32.8518608785
 30
0.0
 40
2.6458333333
 41
0.0
 71
     1
 72
     1
  1
DRAWING NUMBER
  7
SLDTEXTSTYLE0
 73
     1
 44
1.0
  0
MTEXT
  5
93
330
1F
100
AcDbEntity
  8
SLD-0
 62
     7
100
AcDbMText
 10
507.2368872533
 20
32.8184112811
 30
0.0
 40
2.6458333333
 41
0.0
 71
     1
 72
     1
  1
TECH DIRECTOR
  7
SLDTEXTSTYLE0
 73
     1
 44
1.0
  0
MTEXT
  5
94
330
1F
100
AcDbEntity
  8
SLD-0
 62
     7
100
AcDbMText
 10
453.4011705876
 20
32.8184112811
 30
0.0
 40
2.6458333333
 41
0.0
 71
     1
 72
     1
  1
DRAWN BY
  7
SLDTEXTSTYLE0
 73
     1
 44
1.0
  0
MTEXT
  5
95
330
1F
100
AcDbEntity
  8
SLD-0
 62
     7
100
AcDbMText
 10
453.4011705876
 20
29.0353427065
 30
0.0
 40
3.7041666667
 41
0.0
 71
     1
 72
     1
  1
T.GOSSARD
  7
SLDTEXTSTYLE0
 73
     1
 44
1.0
  0
MTEXT
  5
96
330
1F
100
AcDbEntity
  8
SLD-0
 62
     7
100
AcDbMText
 10
507.2368872533
 20
17.7884262976
 30
0.0
 40
3.7041666667
 41
0.0
 71
     1
 72
     1
  1
T.MORGAN
  7
SLDTEXTSTYLE0
 73
     1
 44
1.0
  0
MTEXT
  5
97
330
1F
100
AcDbEntity
  8
SLD-0
 62
     7
100
AcDbMText
 10
507.2368872533
 20
29.0353427065
 30
0.0
 40
3.7041666667
 41
0.0
 71
     1
 72
     1
  1
D.PARKINSON
  7
SLDTEXTSTYLE0
 73
     1
 44
1.0
  0
MTEXT
  5
99
330
1F
100
AcDbEntity
  8
0
  6
Continuous
 62
     7
370
     0
100
AcDbMText
 10
220.3450524622
 20
29.9116839465
 30
0.0
 40
2.1166666667
 41
0.0
 71
     2
 72
     1
  1
THIS DOCUMENT CONTAINS CONFIDENTIAL OR PROPRIETARY INFORMATION WHICH 
  7
SLDTEXTSTYLE2
 73
     1
 44
1.0
  0
MTEXT
  5
9A
330
1F
100
AcDbEntity
  8
0
  6
Continuous
 62
     7
370
     0
100
AcDbMText
 10
220.2892593942
 20
27.0894617584
 30
0.0
 40
2.1166666667
 41
0.0
 71
     2
 72
     1
  1
IS THE PROPERTY OF QSC, LLC THAT MAY NOT BE DISCLOSED, REPRODUCED OR 
  7
SLDTEXTSTYLE2
 73
     1
 44
1.0
  0
MTEXT
  5
9B
330
1F
100
AcDbEntity
  8
0
  6
Continuous
 62
     7
370
     0
100
AcDbMText
 10
220.3504624348
 20
24.2672395703
 30
0.0
 40
2.1166666667
 41
0.0
 71
     2
 72
     1
  1
USED WITHOUT EXPRESS WRITTEN CONSENT FROM QSC, LLC. NO PORTION OF THIS 
  7
SLDTEXTSTYLE2
 73
     1
 44
1.0
  0
MTEXT
  5
9C
330
1F
100
AcDbEntity
  8
0
  6
Continuous
 62
     7
370
     0
100
AcDbMText
 10
220.3480970173
 20
21.4450173822
 30
0.0
 40
2.1166666667
 41
0.0
 71
     2
 72
     1
  1
DOCUMENT MAY BE REPRODUCED, REDISTRIBUTED, OR OTHERWISE DISCLOSED TO 
  7
SLDTEXTSTYLE2
 73
     1
 44
1.0
  0
MTEXT
  5
9E
330
1F
100
AcDbEntity
  8
0
  6
Continuous
 62
     7
370
     0
100
AcDbMText
 10
219.5901677069
 20
18.6227951941
 30
0.0
 40
2.1166666667
 41
0.0
 71
     2
 72
     1
  1
ANY THIRD PARTY WITHOUT QSC\U+2019S WRITTEN PERMISSION.
  7
SLDTEXTSTYLE3
 73
     1
 44
1.0
  0
MTEXT
  5
9F
330
1F
100
AcDbEntity
  8
0
  6
Continuous
 62
     7
370
     0
100
AcDbMText
 10
820.2888488759
 20
17.4944348222
 30
0.0
 40
2.6458333333
 41
0.0
 71
     1
 72
     1
  1
SHEET:
  7
SLDTEXTSTYLE0
 73
     1
 44
1.0
  0
MTEXT
  5
A0
330
1F
100
AcDbEntity
  8
SLD-0
100
AcDbMText
 10
97.8307203839
 20
30.5931483324
 30
0.0
 40
4.2333333333
 41
0.0
 71
     1
 72
     1
  1
QSC, LLC
  7
SLDTEXTSTYLE0
 73
     1
 44
1.0
  0
MTEXT
  5
A1
330
1F
100
AcDbEntity
  8
0
  6
Continuous
 62
     7
370
     0
100
AcDbMText
 10
844.0018372523
 20
32.9050913038
 30
0.0
 40
2.6458333333
 41
0.0
 71
     2
 72
     1
  1
REV
  7
SLDTEXTSTYLE0
 73
     1
 44
1.0
  0
MTEXT
  5
A2
330
1F
100
AcDbEntity
  8
SLD-0
 62
     7
100
AcDbMText
 10
560.546153547
 20
32.8184112811
 30
0.0
 40
2.6458333333
 41
0.0
 71
     1
 72
     1
  1
REV BY
  7
SLDTEXTSTYLE0
 73
     1
 44
1.0
  0
MTEXT
  5
A3
330
1F
100
AcDbEntity
  8
SLD-0
 62
     7
100
AcDbMText
 10
560.546153547
 20
29.0353427065
 30
0.0
 40
3.7041666667
 41
0.0
 71
     1
 72
     1
  1
TG
  7
SLDTEXTSTYLE0
 73
     1
 44
1.0
  0
MTEXT
  5
A4
330
1F
100
AcDbEntity
  8
SLD-0
 62
     7
100
AcDbMText
 10
560.546153547
 20
17.7884262976
 30
0.0
 40
3.7041666667
 41
0.0
 71
     1
 72
     1
  1
27-MAR-2024
  7
SLDTEXTSTYLE0
 73
     1
 44
1.0
  0
MTEXT
  5
A5
330
1F
100
AcDbEntity
  8
0
  6
Continuous
 62
     7
370
     0
100
AcDbMText
 10
560.546153547
 20
21.8062403245
 30
0.0
 40
2.6458333333
 41
0.0
 71
     1
 72
     1
  1
REV DATE
  7
SLDTEXTSTYLE0
 73
     1
 44
1.0
  0
MTEXT
  5
A6
330
1F
100
AcDbEntity
  8
SLD-0
100
AcDbMText
 10
295.5471677433
 20
22.2629071355
 30
0.0
 40
2.6458333333
 41
0.0
 71
     2
 72
     1
  1
FORM
  7
SLDTEXTSTYLE0
 73
     1
 44
1.0
  0
MTEXT
  5
A7
330
1F
100
AcDbEntity
  8
0
  6
Continuous
 62
     7
370
     0
100
AcDbMText
 10
295.9613660503
 20
18.2808667991
 30
0.0
 40
3.7041666667
 41
0.0
 71
     2
 72
     1
  1
QOS40169 B
  7
SLDTEXTSTYLE0
 73
     1
 44
1.0
  0
MTEXT
  5
A8
330
1F
100
AcDbEntity
  8
SLD-0
100
AcDbMText
 10
98.4427247375
 20
18.4600960709
 30
0.0
 40
3.175
 41
0.0
 71
     1
 72
     1
  1
COSTA MESA, CA 92626 USA
  7
SLDTEXTSTYLE0
 73
     1
 44
1.0
  0
MTEXT
  5
A9
330
1F
100
AcDbEntity
  8
SLD-0
100
AcDbMText
 10
98.2987012991
 20
23.8772967061
 30
0.0
 40
3.175
 41
0.0
 71
     1
 72
     1
  1
1675 MACARTHUR BLVD
  7
SLDTEXTSTYLE0
 73
     1
 44
1.0
  0
MTEXT
  5
AA
330
1F
100
AcDbEntity
  8
SLD-0
 62
     7
100
AcDbMText
 10
295.6823598987
 20
33.1439750107
 30
0.0
 40
2.6458333333
 41
0.0
 71
     2
 72
     1
  1
CAGE CODE
  7
SLDTEXTSTYLE0
 73
     1
 44
1.0
  0
LINE
  5
AB
330
1F
100
AcDbEntity
  8
0
  6
Continuous
 62
     7
370
    25
100
AcDbLine
 10
351.1454301471
 20
225.0603737441
 30
0.0
 11
324.4454301471
 21
225.0603737441
 31
0.0
  0
ARC
  5
AC
330
1F
100
AcDbEntity
  8
0
  6
Continuous
 62
     7
370
    25
100
AcDbCircle
 10
324.4454301471
 20
227.8103737441
 30
0.0
 40
2.75
100
AcDbArc
 50
180.0
 51
270.0
  0
LINE
  5
AD
330
1F
100
AcDbEntity
  8
0
  6
Continuous
 62
     7
370
    25
100
AcDbLine
 10
321.6954301471
 20
227.8103737441
 30
0.0
 11
321.6954301471
 21
288.1103737441
 31
0.0
  0
ARC
  5
AE
330
1F
100
AcDbEntity
  8
0
  6
Continuous
 62
     7
370
    25
100
AcDbCircle
 10
324.4454301471
 20
288.1103737441
 30
0.0
 40
2.749999999999943
100
AcDbArc
 50
90.0
 51
180.0
  0
LINE
  5
AF
330
1F
100
AcDbEntity
  8
0
  6
Continuous
 62
     7
370
    25
100
AcDbLine
 10
324.4454301471
 20
290.8603737441
 30
0.0
 11
351.1454301471
 21
290.8603737441
 31
0.0
  0
ARC
  5
B0
330
1F
100
AcDbEntity
  8
0
  6
Continuous
 62
     7
370
    25
100
AcDbCircle
 10
351.1454301471
 20
288.1103737441
 30
0.0
 40
2.75
100
AcDbArc
 50
0.0
 51
90.0
  0
LINE
  5
B1
330
1F
100
AcDbEntity
  8
0
  6
Continuous
 62
     7
370
    25
100
AcDbLine
 10
353.8954301471
 20
288.1103737441
 30
0.0
 11
353.8954301471
 21
227.8103737441
 31
0.0
  0
ARC
  5
B2
330
1F
100
AcDbEntity
  8
0
  6
Continuous
 62
     7
370
    25
100
AcDbCircle
 10
351.1454301471
 20
227.8103737441
 30
0.0
 40
2.75
100
AcDbArc
 50
270.0
 51
0.0
  0
LINE
  5
B3
330
1F
100
AcDbEntity
  8
0
  6
Continuous
 62
     7
370
    25
100
AcDbLine
 10
344.3359447538
 20
239.5603737441
 30
0.0
 11
331.2549155404
 21
239.5603737441
 31
0.0
  0
SPLINE
  5
B4
330
1F
100
AcDbEntity
  8
0
  6
Continuous
 62
     7
370
    25
100
AcDbSpline
210
0.0
220
0.0
230
1.0
 70
     8
 71
     3
 72
     8
 73
     4
 74
     0
 42
0.00000001
 43
0.00000001
 40
0.0
 40
0.0
 40
0.0
 40
0.0
 40
1.0
 40
1.0
 40
1.0
 40
1.0
 10
330.3735119336826
 20
239.1965339781311
 30
0.0
 10
330.6051578472366
 20
239.4281798916844
 30
0.0
 10
330.925871514164
 20
239.5605720737266
 30
0.0
 10
331.2549155403665
 20
239.5603737440618
 30
0.0
  0
SPLINE
  5
B5
330
1F
100
AcDbEntity
  8
0
  6
Continuous
 62
     7
370
    25
100
AcDbSpline
210
0.0
220
0.0
230
1.0
 70
     8
 71
     3
 72
     8
 73
     4
 74
     0
 42
0.00000001
 43
0.00000001
 40
0.0
 40
0.0
 40
0.0
 40
0.0
 40
1.0
 40
1.0
 40
1.0
 40
1.0
 10
330.0096721677518
 20
238.3151303714472
 30
0.0
 10
330.009473838087
 20
238.6441743976496
 30
0.0
 10
330.1418660201293
 20
238.9648880645771
 30
0.0
 10
330.3735119336826
 20
239.1965339781311
 30
0.0
  0
LINE
  5
B6
330
1F
100
AcDbEntity
  8
0
  6
Continuous
 62
     7
370
    25
100
AcDbLine
 10
330.0096721678
 20
238.3151303714
 30
0.0
 11
330.0096721678
 21
236.1139800303
 31
0.0
  0
SPLINE
  5
B7
330
1F
100
AcDbEntity
  8
0
  6
Continuous
 62
     7
370
    25
100
AcDbSpline
210
0.0
220
0.0
230
1.0
 70
     8
 71
     3
 72
    10
 73
     6
 74
     0
 42
0.00000001
 43
0.00000001
 40
0.0
 40
0.0
 40
0.0
 40
0.0
 40
0.5
 40
0.5
 40
1.0
 40
1.0
 40
1.0
 40
1.0
 10
330.8887070861209
 20
234.923802553994
 30
0.0
 10
330.6355340110473
 20
235.0015781447725
 30
0.0
 10
330.4096252910571
 20
235.16160511544
 30
0.0
 10
330.0960676878379
 20
235.5861493389675
 30
0.0
 10
330.0095538261228
 20
235.8491298189271
 30
0.0
 10
330.0096721677518
 20
236.1139800302889
 30
0.0
  0
LINE
  5
B8
330
1F
100
AcDbEntity
  8
0
  6
Continuous
 62
     7
370
    25
100
AcDbLine
 10
330.8887070861
 20
234.923802554
 30
0.0
 11
330.9909728505
 21
234.892336165
 31
0.0
  0
SPLINE
  5
B9
330
1F
100
AcDbEntity
  8
0
  6
Continuous
 62
     7
370
    25
100
AcDbSpline
210
0.0
220
0.0
230
1.0
 70
     8
 71
     3
 72
     8
 73
     4
 74
     0
 42
0.00000001
 43
0.00000001
 40
0.0
 40
0.0
 40
0.0
 40
0.0
 40
1.0
 40
1.0
 40
1.0
 40
1.0
 10
331.5595854279461
 20
234.5248011965343
 30
0.0
 10
331.4082509936113
 20
234.6967126619427
 30
0.0
 10
331.2098652812117
 20
234.8249435337781
 30
0.0
 10
330.9909728505112
 20
234.8923361649507
 30
0.0
  0
LINE
  5
BA
330
1F
100
AcDbEntity
  8
0
  6
Continuous
 62
     7
370
    25
100
AcDbLine
 10
331.5595854279
 20
234.5248011965
 30
0.0
 11
332.1433268688
 21
233.8614586501
 31
0.0
  0
SPLINE
  5
BB
330
1F
100
AcDbEntity
  8
0
  6
Continuous
 62
     7
370
    25
100
AcDbSpline
210
0.0
220
0.0
230
1.0
 70
     8
 71
     3
 72
     8
 73
     4
 74
     0
 42
0.00000001
 43
0.00000001
 40
0.0
 40
0.0
 40
0.0
 40
0.0
 40
1.0
 40
1.0
 40
1.0
 40
1.0
 10
333.0781479005
 20
233.4388577853508
 30
0.0
 10
332.7228042373031
 20
233.4387603301609
 30
0.0
 10
332.378003644072
 20
233.5946329773552
 30
0.0
 10
332.1433268688195
 20
233.8614586500869
 30
0.0
  0
LINE
  5
BC
330
1F
100
AcDbEntity
  8
0
  6
Continuous
 62
     7
370
    25
100
AcDbLine
 10
333.0781479005
 20
233.4388577854
 30
0.0
 11
342.5127123937
 21
233.4388577854
 31
0.0
  0
SPLINE
  5
BD
330
1F
100
AcDbEntity
  8
0
  6
Continuous
 62
     7
370
    25
100
AcDbSpline
210
0.0
220
0.0
230
1.0
 70
     8
 71
     3
 72
     8
 73
     4
 74
     0
 42
0.00000001
 43
0.00000001
 40
0.0
 40
0.0
 40
0.0
 40
0.0
 40
1.0
 40
1.0
 40
1.0
 40
1.0
 10
343.4475334253947
 20
233.8614586500864
 30
0.0
 10
343.2128566501422
 20
233.5946329773549
 30
0.0
 10
342.8680560569113
 20
233.4387603301609
 30
0.0
 10
342.5127123937147
 20
233.4388577853508
 30
0.0
  0
LINE
  5
BE
330
1F
100
AcDbEntity
  8
0
  6
Continuous
 62
     7
370
    25
100
AcDbLine
 10
343.4475334254
 20
233.8614586501
 30
0.0
 11
344.0312748663
 21
234.5248011965
 31
0.0
  0
SPLINE
  5
BF
330
1F
100
AcDbEntity
  8
0
  6
Continuous
 62
     7
370
    25
100
AcDbSpline
210
0.0
220
0.0
230
1.0
 70
     8
 71
     3
 72
     8
 73
     4
 74
     0
 42
0.00000001
 43
0.00000001
 40
0.0
 40
0.0
 40
0.0
 40
0.0
 40
1.0
 40
1.0
 40
1.0
 40
1.0
 10
344.5998874437044
 20
234.892336164951
 30
0.0
 10
344.3809950130043
 20
234.8249435337785
 30
0.0
 10
344.1826093006049
 20
234.6967126619433
 30
0.0
 10
344.0312748662702
 20
234.5248011965352
 30
0.0
  0
LINE
  5
C0
330
1F
100
AcDbEntity
  8
0
  6
Continuous
 62
     7
370
    25
100
AcDbLine
 10
344.5998874437
 20
234.892336165
 30
0.0
 11
344.7021532081
 21
234.923802554
 31
0.0
  0
SPLINE
  5
C1
330
1F
100
AcDbEntity
  8
0
  6
Continuous
 62
     7
370
    25
100
AcDbSpline
210
0.0
220
0.0
230
1.0
 70
     8
 71
     3
 72
    10
 73
     6
 74
     0
 42
0.00000001
 43
0.00000001
 40
0.0
 40
0.0
 40
0.0
 40
0.0
 40
0.5
 40
0.5
 40
1.0
 40
1.0
 40
1.0
 40
1.0
 10
345.581188126463
 20
236.1139800302889
 30
0.0
 10
345.5813064680919
 20
235.8491298189268
 30
0.0
 10
345.4947926063771
 20
235.5861493389677
 30
0.0
 10
345.1812350031574
 20
235.1616051154398
 30
0.0
 10
344.9553262831677
 20
235.0015781447726
 30
0.0
 10
344.7021532080939
 20
234.923802553994
 30
0.0
  0
LINE
  5
C2
330
1F
100
AcDbEntity
  8
0
  6
Continuous
 62
     7
370
    25
100
AcDbLine
 10
345.5811881265
 20
236.1139800303
 30
0.0
 11
345.5811881265
 21
238.3151303714
 31
0.0
  0
SPLINE
  5
C3
330
1F
100
AcDbEntity
  8
0
  6
Continuous
 62
     7
370
    25
100
AcDbSpline
210
0.0
220
0.0
230
1.0
 70
     8
 71
     3
 72
    14
 73
    10
 74
     0
 42
0.00000001
 43
0.00000001
 40
0.0
 40
0.0
 40
0.0
 40
0.0
 40
0.25
 40
0.25
 40
0.5
 40
0.5
 40
0.75
 40
0.75
 40
1.0
 40
1.0
 40
1.0
 40
1.0
 10
344.3359447538482
 20
239.5603737440618
 30
0.0
 10
344.4995241971379
 20
239.5604723407649
 30
0.0
 10
344.6627147550506
 20
239.5282117163755
 30
0.0
 10
344.9641298081426
 20
239.4037888282305
 30
0.0
 10
345.1022078072649
 20
239.3116745313984
 30
0.0
 10
345.3324889137995
 20
239.0813934248639
 30
0.0
 10
345.4246032106315
 20
238.9433154257418
 30
0.0
 10
345.5490260987766
 20
238.6419003726493
 30
0.0
 10
345.5812867231659
 20
238.478709814737
 30
0.0
 10
345.5811881264629
 20
238.3151303714472
 30
0.0
  0
LINE
  5
C4
330
1F
100
AcDbEntity
  8
0
  6
Continuous
 62
     7
370
    25
100
AcDbLine
 10
367.6954301471
 20
288.1103737441
 30
0.0
 11
367.6954301471
 21
227.8103737441
 31
0.0
  0
ARC
  5
C5
330
1F
100
AcDbEntity
  8
0
  6
Continuous
 62
     7
370
    25
100
AcDbCircle
 10
370.4454301471
 20
288.1103737441
 30
0.0
 40
2.750000000000057
100
AcDbArc
 50
90.0
 51
180.0
  0
LINE
  5
C6
330
1F
100
AcDbEntity
  8
0
  6
Continuous
 62
     7
370
    25
100
AcDbLine
 10
397.1454301471
 20
290.8603737441
 30
0.0
 11
370.4454301471
 21
290.8603737441
 31
0.0
  0
ARC
  5
C7
330
1F
100
AcDbEntity
  8
0
  6
Continuous
 62
     7
370
    25
100
AcDbCircle
 10
397.1454301471
 20
288.1103737441
 30
0.0
 40
2.750000000000057
100
AcDbArc
 50
0.0
 51
90.0
  0
LINE
  5
C8
330
1F
100
AcDbEntity
  8
0
  6
Continuous
 62
     7
370
    25
100
AcDbLine
 10
399.8954301471
 20
227.8103737441
 30
0.0
 11
399.8954301471
 21
288.1103737441
 31
0.0
  0
ARC
  5
C9
330
1F
100
AcDbEntity
  8
0
  6
Continuous
 62
     7
370
    25
100
AcDbCircle
 10
397.1454301471
 20
227.8103737441
 30
0.0
 40
2.75
100
AcDbArc
 50
270.0
 51
0.0
  0
LINE
  5
CA
330
1F
100
AcDbEntity
  8
0
  6
Continuous
 62
     7
370
    25
100
AcDbLine
 10
370.4454301471
 20
225.0603737441
 30
0.0
 11
397.1454301471
 21
225.0603737441
 31
0.0
  0
ARC
  5
CB
330
1F
100
AcDbEntity
  8
0
  6
Continuous
 62
     7
370
    25
100
AcDbCircle
 10
370.4454301471
 20
227.8103737441
 30
0.0
 40
2.75
100
AcDbArc
 50
180.0
 51
270.0
  0
CIRCLE
  5
CC
330
1F
100
AcDbEntity
  8
0
  6
Continuous
 62
     7
370
    25
100
AcDbCircle
 10
383.7954301471
 20
234.0603737441
 30
0.0
 40
1.224999999999966
  0
CIRCLE
  5
CD
330
1F
100
AcDbEntity
  8
0
  6
Continuous
 62
     7
370
    25
100
AcDbCircle
 10
383.7954301471
 20
234.0603737441
 30
0.0
 40
0.8250000000000455
  0
CIRCLE
  5
CE
330
1F
100
AcDbEntity
  8
0
  6
Continuous
 62
     7
370
    25
100
AcDbCircle
 10
337.7954301471
 20
209.5603737441
 30
0.0
 40
1.399999999999977
  0
ARC
  5
CF
330
1F
100
AcDbEntity
  8
0
  6
Continuous
 62
     7
370
    25
100
AcDbCircle
 10
336.2954301471
 20
216.3103737441
 30
0.0
 40
2.25
100
AcDbArc
 50
90.0
 51
270.0
  0
LINE
  5
D0
330
1F
100
AcDbEntity
  8
0
  6
Continuous
 62
     7
370
    25
100
AcDbLine
 10
339.2954301471
 20
214.0603737441
 30
0.0
 11
336.2954301471
 21
214.0603737441
 31
0.0
  0
ARC
  5
D1
330
1F
100
AcDbEntity
  8
0
  6
Continuous
 62
     7
370
    25
100
AcDbCircle
 10
339.2954301471
 20
216.3103737441
 30
0.0
 40
2.25
100
AcDbArc
 50
270.0
 51
90.0
  0
LINE
  5
D2
330
1F
100
AcDbEntity
  8
0
  6
Continuous
 62
     7
370
    25
100
AcDbLine
 10
336.2954301471
 20
218.5603737441
 30
0.0
 11
339.2954301471
 21
218.5603737441
 31
0.0
  0
LINE
  5
D3
330
1F
100
AcDbEntity
  8
0
  6
Continuous
 62
     7
370
    25
100
AcDbLine
 10
339.2954301471
 20
297.3603737441
 30
0.0
 11
336.2954301471
 21
297.3603737441
 31
0.0
  0
ARC
  5
D4
330
1F
100
AcDbEntity
  8
0
  6
Continuous
 62
     7
370
    25
100
AcDbCircle
 10
339.2954301471
 20
299.6103737441
 30
0.0
 40
2.250000000000057
100
AcDbArc
 50
270.0
 51
90.0
  0
LINE
  5
D5
330
1F
100
AcDbEntity
  8
0
  6
Continuous
 62
     7
370
    25
100
AcDbLine
 10
336.2954301471
 20
301.8603737441
 30
0.0
 11
339.2954301471
 21
301.8603737441
 31
0.0
  0
CIRCLE
  5
D6
330
1F
100
AcDbEntity
  8
0
  6
Continuous
 62
     7
370
    25
100
AcDbCircle
 10
337.7954301471
 20
306.3603737441
 30
0.0
 40
1.399999999999977
  0
LINE
  5
D7
330
1F
100
AcDbEntity
  8
0
  6
Continuous
 62
     7
370
    25
100
AcDbLine
 10
382.2954301471
 20
214.0603737441
 30
0.0
 11
385.2954301471
 21
214.0603737441
 31
0.0
  0
ARC
  5
D8
330
1F
100
AcDbEntity
  8
0
  6
Continuous
 62
     7
370
    25
100
AcDbCircle
 10
385.2954301471
 20
216.3103737441
 30
0.0
 40
2.25
100
AcDbArc
 50
270.0
 51
90.0
  0
LINE
  5
D9
330
1F
100
AcDbEntity
  8
0
  6
Continuous
 62
     7
370
    25
100
AcDbLine
 10
385.2954301471
 20
218.5603737441
 30
0.0
 11
382.2954301471
 21
218.5603737441
 31
0.0
  0
ARC
  5
DA
330
1F
100
AcDbEntity
  8
0
  6
Continuous
 62
     7
370
    25
100
AcDbCircle
 10
382.2954301471
 20
216.3103737441
 30
0.0
 40
2.25
100
AcDbArc
 50
90.0
 51
270.0
  0
CIRCLE
  5
DB
330
1F
100
AcDbEntity
  8
0
  6
Continuous
 62
     7
370
    25
100
AcDbCircle
 10
383.7954301471
 20
209.5603737441
 30
0.0
 40
1.399999999999977
  0
CIRCLE
  5
DC
330
1F
100
AcDbEntity
  8
0
  6
Continuous
 62
     7
370
    25
100
AcDbCircle
 10
383.7954301471
 20
306.3603737441
 30
0.0
 40
1.399999999999977
  0
LINE
  5
DD
330
1F
100
AcDbEntity
  8
0
  6
Continuous
 62
     7
370
    25
100
AcDbLine
 10
382.2954301471
 20
297.3603737441
 30
0.0
 11
385.2954301471
 21
297.3603737441
 31
0.0
  0
ARC
  5
DE
330
1F
100
AcDbEntity
  8
0
  6
Continuous
 62
     7
370
    25
100
AcDbCircle
 10
385.2954301471
 20
299.6103737441
 30
0.0
 40
2.250000000000057
100
AcDbArc
 50
270.0
 51
90.0
  0
LINE
  5
DF
330
1F
100
AcDbEntity
  8
0
  6
Continuous
 62
     7
370
    25
100
AcDbLine
 10
385.2954301471
 20
301.8603737441
 30
0.0
 11
382.2954301471
 21
301.8603737441
 31
0.0
  0
ARC
  5
E0
330
1F
100
AcDbEntity
  8
0
  6
Continuous
 62
     7
370
    25
100
AcDbCircle
 10
382.2954301471
 20
299.6103737441
 30
0.0
 40
2.250000000000057
100
AcDbArc
 50
90.0
 51
270.0
  0
LINE
  5
E1
330
1F
100
AcDbEntity
  8
0
  6
Continuous
 62
     7
370
    25
100
AcDbLine
 10
372.2954301471
 20
307.4603737441
 30
0.0
 11
372.2954301471
 21
293.4603737441
 31
0.0
  0
ARC
  5
E2
330
1F
100
AcDbEntity
  8
0
  6
Continuous
 62
     7
370
    25
100
AcDbCircle
 10
374.2954301471
 20
307.4603737441
 30
0.0
 40
2.0
100
AcDbArc
 50
90.0
 51
180.0
  0
LINE
  5
E3
330
1F
100
AcDbEntity
  8
0
  6
Continuous
 62
     7
370
    25
100
AcDbLine
 10
393.2954301471
 20
309.4603737441
 30
0.0
 11
374.2954301471
 21
309.4603737441
 31
0.0
  0
ARC
  5
E4
330
1F
100
AcDbEntity
  8
0
  6
Continuous
 62
     7
370
    25
100
AcDbCircle
 10
393.2954301471
 20
307.4603737441
 30
0.0
 40
2.0
100
AcDbArc
 50
0.0
 51
90.0
  0
LINE
  5
E5
330
1F
100
AcDbEntity
  8
0
  6
Continuous
 62
     7
370
    25
100
AcDbLine
 10
395.2954301471
 20
293.4603737441
 30
0.0
 11
395.2954301471
 21
307.4603737441
 31
0.0
  0
LINE
  5
E6
330
1F
100
AcDbEntity
  8
0
  6
Continuous
 62
     7
370
    25
100
AcDbLine
 10
397.2954301471
 20
293.4603737441
 30
0.0
 11
395.2954301471
 21
293.4603737441
 31
0.0
  0
LINE
  5
E7
330
1F
100
AcDbEntity
  8
0
  6
Continuous
 62
     7
370
    25
100
AcDbLine
 10
395.2954301471
 20
222.4603737441
 30
0.0
 11
397.2954301471
 21
222.4603737441
 31
0.0
  0
LINE
  5
E8
330
1F
100
AcDbEntity
  8
0
  6
Continuous
 62
     7
370
    25
100
AcDbLine
 10
395.2954301471
 20
208.4603737441
 30
0.0
 11
395.2954301471
 21
222.4603737441
 31
0.0
  0
ARC
  5
E9
330
1F
100
AcDbEntity
  8
0
  6
Continuous
 62
     7
370
    25
100
AcDbCircle
 10
393.2954301471
 20
208.4603737441
 30
0.0
 40
2.000000000000028
100
AcDbArc
 50
270.0
 51
0.0
  0
LINE
  5
EA
330
1F
100
AcDbEntity
  8
0
  6
Continuous
 62
     7
370
    25
100
AcDbLine
 10
374.2954301471
 20
206.4603737441
 30
0.0
 11
393.2954301471
 21
206.4603737441
 31
0.0
  0
ARC
  5
EB
330
1F
100
AcDbEntity
  8
0
  6
Continuous
 62
     7
370
    25
100
AcDbCircle
 10
374.2954301471
 20
208.4603737441
 30
0.0
 40
2.000000000000028
100
AcDbArc
 50
180.0
 51
270.0
  0
LINE
  5
EC
330
1F
100
AcDbEntity
  8
0
  6
Continuous
 62
     7
370
    25
100
AcDbLine
 10
372.2954301471
 20
222.4603737441
 30
0.0
 11
372.2954301471
 21
208.4603737441
 31
0.0
  0
LINE
  5
ED
330
1F
100
AcDbEntity
  8
0
  6
Continuous
 62
     7
370
    25
100
AcDbLine
 10
349.2954301471
 20
222.4603737441
 30
0.0
 11
372.2954301471
 21
222.4603737441
 31
0.0
  0
LINE
  5
EE
330
1F
100
AcDbEntity
  8
0
  6
Continuous
 62
     7
370
    25
100
AcDbLine
 10
347.2954301471
 20
206.4603737441
 30
0.0
 11
328.2954301471
 21
206.4603737441
 31
0.0
  0
LINE
  5
EF
330
1F
100
AcDbEntity
  8
0
  6
Continuous
 62
     7
370
    25
100
AcDbLine
 10
326.2954301471
 20
208.4603737441
 30
0.0
 11
326.2954301471
 21
222.4603737441
 31
0.0
  0
LINE
  5
F0
330
1F
100
AcDbEntity
  8
0
  6
Continuous
 62
     7
370
    25
100
AcDbLine
 10
324.2954301471
 20
222.4603737441
 30
0.0
 11
326.2954301471
 21
222.4603737441
 31
0.0
  0
LINE
  5
F1
330
1F
100
AcDbEntity
  8
0
  6
Continuous
 62
     7
370
    25
100
AcDbLine
 10
326.2954301471
 20
293.4603737441
 30
0.0
 11
324.2954301471
 21
293.4603737441
 31
0.0
  0
LINE
  5
F2
330
1F
100
AcDbEntity
  8
0
  6
Continuous
 62
     7
370
    25
100
AcDbLine
 10
326.2954301471
 20
293.4603737441
 30
0.0
 11
326.2954301471
 21
307.4603737441
 31
0.0
  0
ARC
  5
F3
330
1F
100
AcDbEntity
  8
0
  6
Continuous
 62
     7
370
    25
100
AcDbCircle
 10
328.2954301471
 20
307.4603737441
 30
0.0
 40
2.0
100
AcDbArc
 50
90.0
 51
180.0
  0
LINE
  5
F4
330
1F
100
AcDbEntity
  8
0
  6
Continuous
 62
     7
370
    25
100
AcDbLine
 10
328.2954301471
 20
309.4603737441
 30
0.0
 11
347.2954301471
 21
309.4603737441
 31
0.0
  0
ARC
  5
F5
330
1F
100
AcDbEntity
  8
0
  6
Continuous
 62
     7
370
    25
100
AcDbCircle
 10
347.2954301471
 20
307.4603737441
 30
0.0
 40
2.0
100
AcDbArc
 50
0.0
 51
90.0
  0
LINE
  5
F6
330
1F
100
AcDbEntity
  8
0
  6
Continuous
 62
     7
370
    25
100
AcDbLine
 10
349.2954301471
 20
307.4603737441
 30
0.0
 11
349.2954301471
 21
293.4603737441
 31
0.0
  0
LINE
  5
F7
330
1F
100
AcDbEntity
  8
0
  6
Continuous
 62
     7
370
    25
100
AcDbLine
 10
372.2954301471
 20
293.4603737441
 30
0.0
 11
349.2954301471
 21
293.4603737441
 31
0.0
  0
LINE
  5
F8
330
1F
100
AcDbEntity
  8
0
  6
Continuous
 62
     7
370
    25
100
AcDbLine
 10
404.2954301471
 20
229.4603737441
 30
0.0
 11
404.2954301471
 21
286.4603737441
 31
0.0
  0
ARC
  5
F9
330
1F
100
AcDbEntity
  8
0
  6
Continuous
 62
     7
370
    25
100
AcDbCircle
 10
336.2954301471
 20
299.6103737441
 30
0.0
 40
2.250000000000057
100
AcDbArc
 50
90.0
 51
270.0
  0
ARC
  5
FA
330
1F
100
AcDbEntity
  8
0
  6
Continuous
 62
     7
370
    25
100
AcDbCircle
 10
397.2954301471
 20
286.4603737441
 30
0.0
 40
7.0
100
AcDbArc
 50
0.0
 51
90.0
  0
ARC
  5
FB
330
1F
100
AcDbEntity
  8
0
  6
Continuous
 62
     7
370
    25
100
AcDbCircle
 10
324.2954301471
 20
286.4603737441
 30
0.0
 40
7.0
100
AcDbArc
 50
90.0
 51
180.0
  0
ARC
  5
FC
330
1F
100
AcDbEntity
  8
0
  6
Continuous
 62
     7
370
    25
100
AcDbCircle
 10
347.2954301471
 20
208.4603737441
 30
0.0
 40
2.000000000000028
100
AcDbArc
 50
270.0
 51
0.0
  0
ARC
  5
FD
330
1F
100
AcDbEntity
  8
0
  6
Continuous
 62
     7
370
    25
100
AcDbCircle
 10
328.2954301471
 20
208.4603737441
 30
0.0
 40
2.000000000000057
100
AcDbArc
 50
180.0
 51
270.0
  0
LINE
  5
FE
330
1F
100
AcDbEntity
  8
0
  6
Continuous
 62
     7
370
    25
100
AcDbLine
 10
349.2954301471
 20
222.4603737441
 30
0.0
 11
349.2954301471
 21
208.4603737441
 31
0.0
  0
LINE
  5
FF
330
1F
100
AcDbEntity
  8
0
  6
Continuous
 62
     7
370
    25
100
AcDbLine
 10
317.2954301471
 20
286.4603737441
 30
0.0
 11
317.2954301471
 21
229.4603737441
 31
0.0
  0
ARC
  5
100
330
1F
100
AcDbEntity
  8
0
  6
Continuous
 62
     7
370
    25
100
AcDbCircle
 10
324.2954301471
 20
229.4603737441
 30
0.0
 40
7.0
100
AcDbArc
 50
180.0
 51
270.0
  0
ARC
  5
101
330
1F
100
AcDbEntity
  8
0
  6
Continuous
 62
     7
370
    25
100
AcDbCircle
 10
397.2954301471
 20
229.4603737441
 30
0.0
 40
7.0
100
AcDbArc
 50
270.0
 51
0.0
  0
DIMENSION
  5
102
330
1F
100
AcDbEntity
  8
SLD-0
100
AcDbDimension
  2
_D
 10
385.2954301471
 20
299.6103737441
 30
0.0
 11
455.686071011
 21
323.8087939201
 31
0.0
 70
   164
  1
4X <> X 7.50[0.295]\P
 71
     1
 42
-1.0
  3
SLDDIMSTYLE0
100
AcDbRadialDimension
 15
386.8864204048
 25
301.2013640017
 35
0.0
 40
0.0
  0
DIMENSION
  5
11A
330
1F
100
AcDbEntity
  8
SLD-0
100
AcDbDimension
  2
_D_1
 10
261.2954301471
 20
209.5603737441
 30
0.0
 11
261.2954301471
 21
260.2122183157
 31
0.0
 70
   160
  1
2X <>
 71
     2
 42
-1.0
  3
SLDDIMSTYLE1
100
AcDbAlignedDimension
 13
337.7954301471
 23
306.3603737441
 33
0.0
 14
337.7954301471
 24
209.5603737441
 34
0.0
 50
90.0
100
AcDbRotatedDimension
  0
DIMENSION
  5
12E
330
1F
100
AcDbEntity
  8
SLD-0
100
AcDbDimension
  2
_D_2
 10
455.686071011
 20
216.3103737441
 30
0.0
 11
455.686071011
 21
260.2122183157
 31
0.0
 70
   160
  1
2X <>
 71
     2
 42
-1.0
  3
SLDDIMSTYLE1
100
AcDbAlignedDimension
 13
385.2954301471
 23
299.6103737441
 33
0.0
 14
385.2954301471
 24
216.3103737441
 34
0.0
 50
90.0
100
AcDbRotatedDimension
  0
DIMENSION
  5
141
330
1F
100
AcDbEntity
  8
SLD-0
100
AcDbDimension
  2
_D_3
 10
338.7853796408
 20
305.3704242504
 30
0.0
 11
297.0412462049
 21
323.8087939201
 31
0.0
 70
   163
  1
4X 6-32 THRU
 71
     1
 42
-1.0
  3
SLDDIMSTYLE2
100
AcDbDiametricDimension
 15
336.8054806534
 25
307.3503232377
 35
0.0
 40
0.0
  0
DIMENSION
  5
14A
330
1F
100
AcDbEntity
  8
SLD-0
100
AcDbDimension
  2
_D_4
 10
383.7954301471
 20
186.4603737441
 30
0.0
 11
360.3510773758
 21
186.4603737441
 31
0.0
 70
   160
  1
4X\P<>
 71
     2
 42
-1.0
  3
SLDDIMSTYLE1
100
AcDbAlignedDimension
 13
337.7954301471
 23
207.5603737441
 33
0.0
 14
383.7954301471
 24
207.5603737441
 34
0.0
100
AcDbRotatedDimension
  0
MTEXT
  5
15D
330
1F
100
AcDbEntity
  8
SLD-0
100
AcDbMText
 10
286.4163434645
 20
229.2547389854
 30
0.0
 40
4.7625
 41
0.0
 71
     1
 72
     1
  1
HDMI
  7
SLDTEXTSTYLE0
 73
     1
 44
1.0
  0
LEADER
  5
15F
330
1F
100
AcDbEntity
  8
SLD-0
100
AcDbLeader
  3
SLDDIMSTYLE3
 76
     3
 10
330.0096721678
 20
236.1139800303
 30
0.0
 10
307.6882054756
 20
226.9956939066
 30
0.0
 10
303.6882054756
 20
226.9956939066
 30
0.0
  0
MTEXT
  5
160
330
1F
100
AcDbEntity
  8
SLD-0
100
AcDbMText
 10
417.0308903307
 20
231.3644599867
 30
0.0
 40
4.7625
 41
0.0
 71
     1
 72
     1
  1
LED
  7
SLDTEXTSTYLE0
 73
     1
 44
1.0
  0
LEADER
  5
161
330
1F
100
AcDbEntity
  8
SLD-0
100
AcDbLeader
  3
SLDDIMSTYLE3
 76
     3
 10
385.0192137259
 20
234.0057957975
 30
0.0
 10
411.9941060904
 20
229.1567941031
 30
0.0
 10
415.9941060904
 20
229.1567941031
 30
0.0
  0
MTEXT
  5
162
330
1F
100
AcDbEntity
  8
SLD-0
100
AcDbMText
 10
414.9036434652
 20
289.0399380947
 30
0.0
 40
4.7625
 41
0.0
 71
     1
 72
     1
  1
INTAKE
  7
SLDTEXTSTYLE0
 73
     1
 44
1.0
  0
LEADER
  5
169
330
1F
100
AcDbEntity
  8
SLD-0
100
AcDbLeader
  3
SLDDIMSTYLE4
 76
     3
 10
383.8912402064
 20
271.8067325099
 30
0.0
 10
409.8330058939
 20
286.7206447907
 30
0.0
 10
413.8330058939
 20
286.7206447907
 30
0.0
  0
MTEXT
  5
16A
330
1F
100
AcDbEntity
  8
SLD-0
100
AcDbMText
 10
302.3200053653
 20
289.0399380947
 30
0.0
 40
4.7625
 41
0.0
 71
     3
 72
     1
  1
EXHAUST
  7
SLDTEXTSTYLE0
 73
     1
 44
1.0
  0
LEADER
  5
16B
330
1F
100
AcDbEntity
  8
SLD-0
100
AcDbLeader
  3
SLDDIMSTYLE4
 76
     3
 10
336.9296009859
 20
269.1485265163
 30
0.0
 10
307.652259332
 20
286.7206447907
 30
0.0
 10
303.652259332
 20
286.7206447907
 30
0.0
  0
INSERT
  5
171
330
1F
100
AcDbEntity
  8
SLD-0
100
AcDbBlockReference
  2
SW_SYMBOL_MOD_CL
 10
356.2837700377
 20
316.633995476
 30
0.0
 41
0.0030416748
 42
0.0030416748
 43
0.0030416748
  0
INSERT
  5
181
330
1F
100
AcDbEntity
  8
SLD-0
100
AcDbBlockReference
  2
SW_CENTERMARKSYMBOL_0
 10
383.7954301471
 20
299.6103737441
 30
0.0
  0
INSERT
  5
189
330
1F
100
AcDbEntity
  8
SLD-0
100
AcDbBlockReference
  2
SW_CENTERMARKSYMBOL_1
 10
337.7954301471
 20
299.6103737441
 30
0.0
  0
INSERT
  5
199
330
1F
100
AcDbEntity
  8
SLD-0
100
AcDbBlockReference
  2
SW_CENTERMARKSYMBOL_2
 10
337.7954301471
 20
216.3103737441
 30
0.0
  0
INSERT
  5
1A1
330
1F
100
AcDbEntity
  8
SLD-0
100
AcDbBlockReference
  2
SW_CENTERMARKSYMBOL_3
 10
383.7954301471
 20
216.3103737441
 30
0.0
  0
LINE
  5
1A2
330
1F
100
AcDbEntity
  8
SLD-0
  6
CENTERX2
370
    18
100
AcDbLine
 10
360.7954301471
 20
202.7658095962
 30
0.0
 11
360.7954301471
 21
315.1239246219
 31
0.0
  0
LINE
  5
1A3
330
1F
100
AcDbEntity
  8
0
  6
Continuous
 62
     7
370
    25
100
AcDbLine
 10
603.3690903149
 20
222.4603737441
 30
0.0
 11
603.3690903149
 21
229.4603737441
 31
0.0
  0
LINE
  5
1A4
330
1F
100
AcDbEntity
  8
0
  6
Continuous
 62
     7
370
    25
100
AcDbLine
 10
603.3690903149
 20
222.4603737441
 30
0.0
 11
561.3690903149
 21
222.4603737441
 31
0.0
  0
LINE
  5
1A5
330
1F
100
AcDbEntity
  8
0
  6
Continuous
 62
     7
370
    25
100
AcDbLine
 10
561.3690903149
 20
222.4603737441
 30
0.0
 11
561.3690903149
 21
229.4603737441
 31
0.0
  0
LINE
  5
1A6
330
1F
100
AcDbEntity
  8
0
  6
Continuous
 62
     7
370
    25
100
AcDbLine
 10
561.3690903149
 20
229.4603737441
 30
0.0
 11
561.3690903149
 21
286.4603737441
 31
0.0
  0
LINE
  5
1A7
330
1F
100
AcDbEntity
  8
0
  6
Continuous
 62
     7
370
    25
100
AcDbLine
 10
603.3690903149
 20
229.4603737441
 30
0.0
 11
603.3690903149
 21
286.4603737441
 31
0.0
  0
LINE
  5
1A8
330
1F
100
AcDbEntity
  8
0
  6
Continuous
 62
     7
370
    25
100
AcDbLine
 10
603.3690903149
 20
293.4603737441
 30
0.0
 11
561.3690903149
 21
293.4603737441
 31
0.0
  0
LINE
  5
1A9
330
1F
100
AcDbEntity
  8
0
  6
Continuous
 62
     7
370
    25
100
AcDbLine
 10
561.3690903149
 20
286.4603737441
 30
0.0
 11
561.3690903149
 21
293.4603737441
 31
0.0
  0
LINE
  5
1AA
330
1F
100
AcDbEntity
  8
0
  6
Continuous
 62
     7
370
    25
100
AcDbLine
 10
603.3690903149
 20
286.4603737441
 30
0.0
 11
603.3690903149
 21
293.4603737441
 31
0.0
  0
LINE
  5
1AB
330
1F
100
AcDbEntity
  8
0
  6
Continuous
 62
     7
370
    25
100
AcDbLine
 10
555.4690903149
 20
227.8103737441
 30
0.0
 11
555.4690903149
 21
288.1103737441
 31
0.0
  0
LINE
  5
1AC
330
1F
100
AcDbEntity
  8
0
  6
Continuous
 62
     7
370
    25
100
AcDbLine
 10
555.4690903149
 20
225.0603737441
 30
0.0
 11
561.3690903149
 21
225.0603737441
 31
0.0
  0
LINE
  5
1AD
330
1F
100
AcDbEntity
  8
0
  6
Continuous
 62
     7
370
    25
100
AcDbLine
 10
555.4690903149
 20
225.0603737441
 30
0.0
 11
555.4690903149
 21
227.8103737441
 31
0.0
  0
LINE
  5
1AE
330
1F
100
AcDbEntity
  8
0
  6
Continuous
 62
     7
370
    25
100
AcDbLine
 10
555.4690903149
 20
288.1103737441
 30
0.0
 11
555.4690903149
 21
290.8603737441
 31
0.0
  0
LINE
  5
1AF
330
1F
100
AcDbEntity
  8
0
  6
Continuous
 62
     7
370
    25
100
AcDbLine
 10
555.4690903149
 20
290.8603737441
 30
0.0
 11
561.3690903149
 21
290.8603737441
 31
0.0
  0
LINE
  5
1B0
330
1F
100
AcDbEntity
  8
0
  6
Continuous
 62
     7
370
    25
100
AcDbLine
 10
562.3690903149
 20
206.4603737441
 30
0.0
 11
561.3690903149
 21
206.4603737441
 31
0.0
  0
LINE
  5
1B1
330
1F
100
AcDbEntity
  8
0
  6
Continuous
 62
     7
370
    25
100
AcDbLine
 10
562.3690903149
 20
206.4603737441
 30
0.0
 11
562.3690903149
 21
208.4603737441
 31
0.0
  0
LINE
  5
1B2
330
1F
100
AcDbEntity
  8
0
  6
Continuous
 62
     7
370
    25
100
AcDbLine
 10
561.3690903149
 20
206.4603737441
 30
0.0
 11
561.3690903149
 21
208.4603737441
 31
0.0
  0
LINE
  5
1B3
330
1F
100
AcDbEntity
  8
0
  6
Continuous
 62
     7
370
    25
100
AcDbLine
 10
562.3690903149
 20
208.4603737441
 30
0.0
 11
562.3690903149
 21
222.4603737441
 31
0.0
  0
LINE
  5
1B4
330
1F
100
AcDbEntity
  8
0
  6
Continuous
 62
     7
370
    25
100
AcDbLine
 10
561.3690903149
 20
208.4603737441
 30
0.0
 11
561.3690903149
 21
222.4603737441
 31
0.0
  0
LINE
  5
1B5
330
1F
100
AcDbEntity
  8
0
  6
Continuous
 62
     7
370
    25
100
AcDbLine
 10
562.3690903149
 20
293.4603737441
 30
0.0
 11
562.3690903149
 21
307.4603737441
 31
0.0
  0
LINE
  5
1B6
330
1F
100
AcDbEntity
  8
0
  6
Continuous
 62
     7
370
    25
100
AcDbLine
 10
561.3690903149
 20
293.4603737441
 30
0.0
 11
561.3690903149
 21
307.4603737441
 31
0.0
  0
LINE
  5
1B7
330
1F
100
AcDbEntity
  8
0
  6
Continuous
 62
     7
370
    25
100
AcDbLine
 10
562.3690903149
 20
309.4603737441
 30
0.0
 11
561.3690903149
 21
309.4603737441
 31
0.0
  0
LINE
  5
1B8
330
1F
100
AcDbEntity
  8
0
  6
Continuous
 62
     7
370
    25
100
AcDbLine
 10
562.3690903149
 20
307.4603737441
 30
0.0
 11
562.3690903149
 21
309.4603737441
 31
0.0
  0
LINE
  5
1B9
330
1F
100
AcDbEntity
  8
0
  6
Continuous
 62
     7
370
    25
100
AcDbLine
 10
561.3690903149
 20
307.4603737441
 30
0.0
 11
561.3690903149
 21
309.4603737441
 31
0.0
  0
LINE
  5
1BA
330
1F
100
AcDbEntity
  8
0
  6
Continuous
 62
     7
370
    25
100
AcDbLine
 10
623.3690903149
 20
250.4603737441
 30
0.0
 11
603.3690903149
 21
250.4603737441
 31
0.0
  0
LINE
  5
1BB
330
1F
100
AcDbEntity
  8
0
  6
Continuous
 62
     7
370
    25
100
AcDbLine
 10
623.3690903149
 20
250.4603737441
 30
0.0
 11
623.3690903149
 21
227.4603737441
 31
0.0
  0
LINE
  5
1BC
330
1F
100
AcDbEntity
  8
0
  6
Continuous
 62
     7
370
    25
100
AcDbLine
 10
623.3690903149
 20
227.4603737441
 30
0.0
 11
603.3690903149
 21
227.4603737441
 31
0.0
  0
DIMENSION
  5
1BD
330
1F
100
AcDbEntity
  8
SLD-0
100
AcDbDimension
  2
_D_5
 10
638.7317953255
 20
227.4603737441
 30
0.0
 11
638.7317953255
 21
197.5475556005
 31
0.0
 70
   160
  1
<>
 71
     2
 42
-1.0
  3
SLDDIMSTYLE5
100
AcDbAlignedDimension
 13
603.3690903149
 23
222.4603737441
 33
0.0
 14
623.3690903149
 24
227.4603737441
 34
0.0
 50
90.0
100
AcDbRotatedDimension
  0
DIMENSION
  5
1D3
330
1F
100
AcDbEntity
  8
SLD-0
100
AcDbDimension
  2
_D_6
 10
638.7317953255
 20
250.4603737441
 30
0.0
 11
638.7317953255
 21
261.6084550439
 31
0.0
 70
   160
  1
<>
 71
     2
 42
-1.0
  3
SLDDIMSTYLE1
100
AcDbAlignedDimension
 13
623.3690903149
 23
227.4603737441
 33
0.0
 14
623.3690903149
 24
250.4603737441
 34
0.0
 50
90.0
100
AcDbRotatedDimension
  0
DIMENSION
  5
1E8
330
1F
100
AcDbEntity
  8
SLD-0
100
AcDbDimension
  2
_D_7
 10
562.3690903149
 20
324.1987338756
 30
0.0
 11
535.4498907247
 21
324.1987338756
 31
0.0
 70
   160
  1
<>
 71
     2
 42
-1.0
  3
SLDDIMSTYLE5
100
AcDbAlignedDimension
 13
555.4690903149
 23
290.8603737441
 33
0.0
 14
562.3690903149
 24
309.4603737441
 34
0.0
100
AcDbRotatedDimension
  0
DIMENSION
  5
1FC
330
1F
100
AcDbEntity
  8
SLD-0
100
AcDbDimension
  2
_D_8
 10
623.3690903149
 20
197.5475556005
 30
0.0
 11
584.2298663492
 21
197.5475556005
 31
0.0
 70
   160
  1
<>
 71
     2
 42
-1.0
  3
SLDDIMSTYLE1
100
AcDbAlignedDimension
 13
603.3690903149
 23
222.4603737441
 33
0.0
 14
623.3690903149
 24
227.4603737441
 34
0.0
100
AcDbRotatedDimension
  0
DIMENSION
  5
210
330
1F
100
AcDbEntity
  8
SLD-0
100
AcDbDimension
  2
_D_9
 10
562.3690903149
 20
324.1987338756
 30
0.0
 11
628.4736227492
 21
324.1987338756
 31
0.0
 70
   160
  1
<>
 71
     2
 42
-1.0
  3
SLDDIMSTYLE1
100
AcDbAlignedDimension
 13
603.3690903149
 23
293.4603737441
 33
0.0
 14
562.3690903149
 24
309.4603737441
 34
0.0
100
AcDbRotatedDimension
  0
LINE
  5
224
330
1F
100
AcDbEntity
  8
0
  6
Continuous
 62
     7
370
    25
100
AcDbLine
 10
769.9131945416
 20
250.4603737441
 30
0.0
 11
769.9131945416
 21
227.4603737441
 31
0.0
  0
LINE
  5
225
330
1F
100
AcDbEntity
  8
0
  6
Continuous
 62
     7
370
    25
100
AcDbLine
 10
789.9131945416
 20
250.4603737441
 30
0.0
 11
789.9131945416
 21
227.4603737441
 31
0.0
  0
LINE
  5
226
330
1F
100
AcDbEntity
  8
0
  6
Continuous
 62
     7
370
    25
100
AcDbLine
 10
789.9131945416
 20
227.4603737441
 30
0.0
 11
769.9131945416
 21
227.4603737441
 31
0.0
  0
LINE
  5
227
330
1F
100
AcDbEntity
  8
0
  6
Continuous
 62
     7
370
    25
100
AcDbLine
 10
789.9131945416
 20
250.4603737441
 30
0.0
 11
769.9131945416
 21
250.4603737441
 31
0.0
  0
LINE
  5
228
330
1F
100
AcDbEntity
  8
0
  6
Continuous
 62
     7
370
    25
100
AcDbLine
 10
750.9131945416
 20
250.4603737441
 30
0.0
 11
750.9131945416
 21
227.4603737441
 31
0.0
  0
LINE
  5
229
330
1F
100
AcDbEntity
  8
0
  6
Continuous
 62
     7
370
    25
100
AcDbLine
 10
769.9131945416
 20
227.4603737441
 30
0.0
 11
750.9131945416
 21
227.4603737441
 31
0.0
  0
LINE
  5
22A
330
1F
100
AcDbEntity
  8
0
  6
Continuous
 62
     7
370
    25
100
AcDbLine
 10
769.9131945416
 20
250.4603737441
 30
0.0
 11
750.9131945416
 21
250.4603737441
 31
0.0
  0
LINE
  5
22B
330
1F
100
AcDbEntity
  8
0
  6
Continuous
 62
     7
370
    25
100
AcDbLine
 10
730.9131945416
 20
250.4603737441
 30
0.0
 11
730.9131945416
 21
227.4603737441
 31
0.0
  0
LINE
  5
22C
330
1F
100
AcDbEntity
  8
0
  6
Continuous
 62
     7
370
    25
100
AcDbLine
 10
750.9131945416
 20
227.4603737441
 30
0.0
 11
730.9131945416
 21
227.4603737441
 31
0.0
  0
LINE
  5
22D
330
1F
100
AcDbEntity
  8
0
  6
Continuous
 62
     7
370
    25
100
AcDbLine
 10
750.9131945416
 20
250.4603737441
 30
0.0
 11
730.9131945416
 21
250.4603737441
 31
0.0
  0
LINE
  5
22E
330
1F
100
AcDbEntity
  8
0
  6
Continuous
 62
     7
370
    25
100
AcDbLine
 10
716.9131945416
 20
229.4603737441
 30
0.0
 11
716.9131945416
 21
286.4603737441
 31
0.0
  0
ARC
  5
22F
330
1F
100
AcDbEntity
  8
0
  6
Continuous
 62
     7
370
    25
100
AcDbCircle
 10
723.9131945416
 20
286.4603737441
 30
0.0
 40
7.0
100
AcDbArc
 50
90.0
 51
180.0
  0
LINE
  5
230
330
1F
100
AcDbEntity
  8
0
  6
Continuous
 62
     7
370
    25
100
AcDbLine
 10
723.9131945416
 20
293.4603737441
 30
0.0
 11
796.9131945416
 21
293.4603737441
 31
0.0
  0
LINE
  5
231
330
1F
100
AcDbEntity
  8
0
  6
Continuous
 62
     7
370
    25
100
AcDbLine
 10
803.9131945416
 20
286.4603737441
 30
0.0
 11
803.9131945416
 21
229.4603737441
 31
0.0
  0
ARC
  5
232
330
1F
100
AcDbEntity
  8
0
  6
Continuous
 62
     7
370
    25
100
AcDbCircle
 10
796.9131945416
 20
229.4603737441
 30
0.0
 40
7.0
100
AcDbArc
 50
270.0
 51
0.0
  0
LINE
  5
233
330
1F
100
AcDbEntity
  8
0
  6
Continuous
 62
     7
370
    25
100
AcDbLine
 10
796.9131945416
 20
222.4603737441
 30
0.0
 11
723.9131945416
 21
222.4603737441
 31
0.0
  0
ARC
  5
234
330
1F
100
AcDbEntity
  8
0
  6
Continuous
 62
     7
370
    25
100
AcDbCircle
 10
723.9131945416
 20
229.4603737441
 30
0.0
 40
7.0
100
AcDbArc
 50
180.0
 51
270.0
  0
ARC
  5
235
330
1F
100
AcDbEntity
  8
0
  6
Continuous
 62
     7
370
    25
100
AcDbCircle
 10
796.9131945416
 20
286.4603737441
 30
0.0
 40
7.0
100
AcDbArc
 50
0.0
 51
90.0
  0
CIRCLE
  5
236
330
1F
100
AcDbEntity
  8
0
  6
Continuous
 62
     7
370
    25
100
AcDbCircle
 10
783.4131945416
 20
209.5603737441
 30
0.0
 40
1.399999999999977
  0
LINE
  5
237
330
1F
100
AcDbEntity
  8
0
  6
Continuous
 62
     7
370
    25
100
AcDbLine
 10
781.9131945416
 20
214.0603737441
 30
0.0
 11
784.9131945416
 21
214.0603737441
 31
0.0
  0
ARC
  5
238
330
1F
100
AcDbEntity
  8
0
  6
Continuous
 62
     7
370
    25
100
AcDbCircle
 10
784.9131945416
 20
216.3103737441
 30
0.0
 40
2.25
100
AcDbArc
 50
270.0
 51
90.0
  0
LINE
  5
239
330
1F
100
AcDbEntity
  8
0
  6
Continuous
 62
     7
370
    25
100
AcDbLine
 10
784.9131945416
 20
218.5603737441
 30
0.0
 11
781.9131945416
 21
218.5603737441
 31
0.0
  0
ARC
  5
23A
330
1F
100
AcDbEntity
  8
0
  6
Continuous
 62
     7
370
    25
100
AcDbCircle
 10
781.9131945416
 20
216.3103737441
 30
0.0
 40
2.25
100
AcDbArc
 50
90.0
 51
270.0
  0
LINE
  5
23B
330
1F
100
AcDbEntity
  8
0
  6
Continuous
 62
     7
370
    25
100
AcDbLine
 10
794.9131945416
 20
208.4603737441
 30
0.0
 11
794.9131945416
 21
222.4603737441
 31
0.0
  0
ARC
  5
23C
330
1F
100
AcDbEntity
  8
0
  6
Continuous
 62
     7
370
    25
100
AcDbCircle
 10
792.9131945416
 20
208.4603737441
 30
0.0
 40
2.000000000000028
100
AcDbArc
 50
270.0
 51
0.0
  0
LINE
  5
23D
330
1F
100
AcDbEntity
  8
0
  6
Continuous
 62
     7
370
    25
100
AcDbLine
 10
773.9131945416
 20
206.4603737441
 30
0.0
 11
792.9131945416
 21
206.4603737441
 31
0.0
  0
ARC
  5
23E
330
1F
100
AcDbEntity
  8
0
  6
Continuous
 62
     7
370
    25
100
AcDbCircle
 10
773.9131945416
 20
208.4603737441
 30
0.0
 40
2.000000000000028
100
AcDbArc
 50
180.0
 51
270.0
  0
LINE
  5
23F
330
1F
100
AcDbEntity
  8
0
  6
Continuous
 62
     7
370
    25
100
AcDbLine
 10
771.9131945416
 20
222.4603737441
 30
0.0
 11
771.9131945416
 21
208.4603737441
 31
0.0
  0
CIRCLE
  5
240
330
1F
100
AcDbEntity
  8
0
  6
Continuous
 62
     7
370
    25
100
AcDbCircle
 10
783.4131945416
 20
306.3603737441
 30
0.0
 40
1.399999999999977
  0
LINE
  5
241
330
1F
100
AcDbEntity
  8
0
  6
Continuous
 62
     7
370
    25
100
AcDbLine
 10
781.9131945416
 20
297.3603737441
 30
0.0
 11
784.9131945416
 21
297.3603737441
 31
0.0
  0
ARC
  5
242
330
1F
100
AcDbEntity
  8
0
  6
Continuous
 62
     7
370
    25
100
AcDbCircle
 10
784.9131945416
 20
299.6103737441
 30
0.0
 40
2.250000000000057
100
AcDbArc
 50
270.0
 51
90.0
  0
LINE
  5
243
330
1F
100
AcDbEntity
  8
0
  6
Continuous
 62
     7
370
    25
100
AcDbLine
 10
784.9131945416
 20
301.8603737441
 30
0.0
 11
781.9131945416
 21
301.8603737441
 31
0.0
  0
ARC
  5
244
330
1F
100
AcDbEntity
  8
0
  6
Continuous
 62
     7
370
    25
100
AcDbCircle
 10
781.9131945416
 20
299.6103737441
 30
0.0
 40
2.250000000000057
100
AcDbArc
 50
90.0
 51
270.0
  0
LINE
  5
245
330
1F
100
AcDbEntity
  8
0
  6
Continuous
 62
     7
370
    25
100
AcDbLine
 10
771.9131945416
 20
307.4603737441
 30
0.0
 11
771.9131945416
 21
293.4603737441
 31
0.0
  0
ARC
  5
246
330
1F
100
AcDbEntity
  8
0
  6
Continuous
 62
     7
370
    25
100
AcDbCircle
 10
773.9131945416
 20
307.4603737441
 30
0.0
 40
2.0
100
AcDbArc
 50
90.0
 51
180.0
  0
LINE
  5
247
330
1F
100
AcDbEntity
  8
0
  6
Continuous
 62
     7
370
    25
100
AcDbLine
 10
792.9131945416
 20
309.4603737441
 30
0.0
 11
773.9131945416
 21
309.4603737441
 31
0.0
  0
LINE
  5
248
330
1F
100
AcDbEntity
  8
0
  6
Continuous
 62
     7
370
    25
100
AcDbLine
 10
794.9131945416
 20
293.4603737441
 30
0.0
 11
794.9131945416
 21
307.4603737441
 31
0.0
  0
ARC
  5
249
330
1F
100
AcDbEntity
  8
0
  6
Continuous
 62
     7
370
    25
100
AcDbCircle
 10
792.9131945416
 20
307.4603737441
 30
0.0
 40
2.0
100
AcDbArc
 50
0.0
 51
90.0
  0
CIRCLE
  5
24A
330
1F
100
AcDbEntity
  8
0
  6
Continuous
 62
     7
370
    25
100
AcDbCircle
 10
737.4131945416
 20
306.3603737441
 30
0.0
 40
1.399999999999977
  0
ARC
  5
24B
330
1F
100
AcDbEntity
  8
0
  6
Continuous
 62
     7
370
    25
100
AcDbCircle
 10
735.9131945416
 20
299.6103737441
 30
0.0
 40
2.250000000000057
100
AcDbArc
 50
90.0
 51
270.0
  0
LINE
  5
24C
330
1F
100
AcDbEntity
  8
0
  6
Continuous
 62
     7
370
    25
100
AcDbLine
 10
738.9131945416
 20
297.3603737441
 30
0.0
 11
735.9131945416
 21
297.3603737441
 31
0.0
  0
ARC
  5
24D
330
1F
100
AcDbEntity
  8
0
  6
Continuous
 62
     7
370
    25
100
AcDbCircle
 10
738.9131945416
 20
299.6103737441
 30
0.0
 40
2.250000000000057
100
AcDbArc
 50
270.0
 51
90.0
  0
LINE
  5
24E
330
1F
100
AcDbEntity
  8
0
  6
Continuous
 62
     7
370
    25
100
AcDbLine
 10
735.9131945416
 20
301.8603737441
 30
0.0
 11
738.9131945416
 21
301.8603737441
 31
0.0
  0
LINE
  5
24F
330
1F
100
AcDbEntity
  8
0
  6
Continuous
 62
     7
370
    25
100
AcDbLine
 10
725.9131945416
 20
293.4603737441
 30
0.0
 11
725.9131945416
 21
307.4603737441
 31
0.0
  0
ARC
  5
250
330
1F
100
AcDbEntity
  8
0
  6
Continuous
 62
     7
370
    25
100
AcDbCircle
 10
727.9131945416
 20
307.4603737441
 30
0.0
 40
2.0
100
AcDbArc
 50
90.0
 51
180.0
  0
LINE
  5
251
330
1F
100
AcDbEntity
  8
0
  6
Continuous
 62
     7
370
    25
100
AcDbLine
 10
727.9131945416
 20
309.4603737441
 30
0.0
 11
746.9131945416
 21
309.4603737441
 31
0.0
  0
LINE
  5
252
330
1F
100
AcDbEntity
  8
0
  6
Continuous
 62
     7
370
    25
100
AcDbLine
 10
748.9131945416
 20
307.4603737441
 30
0.0
 11
748.9131945416
 21
293.4603737441
 31
0.0
  0
ARC
  5
253
330
1F
100
AcDbEntity
  8
0
  6
Continuous
 62
     7
370
    25
100
AcDbCircle
 10
746.9131945416
 20
307.4603737441
 30
0.0
 40
2.0
100
AcDbArc
 50
0.0
 51
90.0
  0
ARC
  5
254
330
1F
100
AcDbEntity
  8
0
  6
Continuous
 62
     7
370
    25
100
AcDbCircle
 10
735.9131945416
 20
216.3103737441
 30
0.0
 40
2.25
100
AcDbArc
 50
90.0
 51
270.0
  0
LINE
  5
255
330
1F
100
AcDbEntity
  8
0
  6
Continuous
 62
     7
370
    25
100
AcDbLine
 10
738.9131945416
 20
214.0603737441
 30
0.0
 11
735.9131945416
 21
214.0603737441
 31
0.0
  0
ARC
  5
256
330
1F
100
AcDbEntity
  8
0
  6
Continuous
 62
     7
370
    25
100
AcDbCircle
 10
738.9131945416
 20
216.3103737441
 30
0.0
 40
2.25
100
AcDbArc
 50
270.0
 51
90.0
  0
LINE
  5
257
330
1F
100
AcDbEntity
  8
0
  6
Continuous
 62
     7
370
    25
100
AcDbLine
 10
735.9131945416
 20
218.5603737441
 30
0.0
 11
738.9131945416
 21
218.5603737441
 31
0.0
  0
CIRCLE
  5
258
330
1F
100
AcDbEntity
  8
0
  6
Continuous
 62
     7
370
    25
100
AcDbCircle
 10
737.4131945416
 20
209.5603737441
 30
0.0
 40
1.399999999999977
  0
LINE
  5
259
330
1F
100
AcDbEntity
  8
0
  6
Continuous
 62
     7
370
    25
100
AcDbLine
 10
746.9131945416
 20
206.4603737441
 30
0.0
 11
727.9131945416
 21
206.4603737441
 31
0.0
  0
ARC
  5
25A
330
1F
100
AcDbEntity
  8
0
  6
Continuous
 62
     7
370
    25
100
AcDbCircle
 10
727.9131945416
 20
208.4603737441
 30
0.0
 40
2.000000000000028
100
AcDbArc
 50
180.0
 51
270.0
  0
LINE
  5
25B
330
1F
100
AcDbEntity
  8
0
  6
Continuous
 62
     7
370
    25
100
AcDbLine
 10
725.9131945416
 20
208.4603737441
 30
0.0
 11
725.9131945416
 21
222.4603737441
 31
0.0
  0
LINE
  5
25C
330
1F
100
AcDbEntity
  8
0
  6
Continuous
 62
     7
370
    25
100
AcDbLine
 10
748.9131945416
 20
222.4603737441
 30
0.0
 11
748.9131945416
 21
208.4603737441
 31
0.0
  0
ARC
  5
25D
330
1F
100
AcDbEntity
  8
0
  6
Continuous
 62
     7
370
    25
100
AcDbCircle
 10
746.9131945416
 20
208.4603737441
 30
0.0
 40
2.000000000000028
100
AcDbArc
 50
270.0
 51
0.0
  0
DIMENSION
  5
25E
330
1F
100
AcDbEntity
  8
SLD-0
100
AcDbDimension
  2
_D_10
 10
828.8199904356
 20
206.4603737441
 30
0.0
 11
828.8199904356
 21
260.3743154744
 31
0.0
 70
   160
  1
2X <>
 71
     2
 42
-1.0
  3
SLDDIMSTYLE1
100
AcDbAlignedDimension
 13
792.9131945416
 23
309.4603737441
 33
0.0
 14
792.9131945416
 24
206.4603737441
 34
0.0
 50
90.0
100
AcDbRotatedDimension
  0
DIMENSION
  5
271
330
1F
100
AcDbEntity
  8
SLD-0
100
AcDbDimension
  2
_D_11
 10
696.9131945416
 20
293.4603737441
 30
0.0
 11
696.9131945416
 21
260.3743154744
 31
0.0
 70
   160
  1
<>
 71
     2
 42
-1.0
  3
SLDDIMSTYLE1
100
AcDbAlignedDimension
 13
723.9131945416
 23
222.4603737441
 33
0.0
 14
723.9131945416
 24
293.4603737441
 34
0.0
 50
90.0
100
AcDbRotatedDimension
  0
LINE
  5
285
330
1F
100
AcDbEntity
  8
0
  6
Continuous
 62
     7
370
    25
100
AcDbLine
 10
395.2954301471
 20
414.6306431957
 30
0.0
 11
393.2954301471
 21
414.6306431957
 31
0.0
  0
LINE
  5
286
330
1F
100
AcDbEntity
  8
0
  6
Continuous
 62
     7
370
    25
100
AcDbLine
 10
395.2954301471
 20
414.6306431957
 30
0.0
 11
395.2954301471
 21
413.6306431957
 31
0.0
  0
LINE
  5
287
330
1F
100
AcDbEntity
  8
0
  6
Continuous
 62
     7
370
    25
100
AcDbLine
 10
395.2954301471
 20
413.6306431957
 30
0.0
 11
393.2954301471
 21
413.6306431957
 31
0.0
  0
LINE
  5
288
330
1F
100
AcDbEntity
  8
0
  6
Continuous
 62
     7
370
    25
100
AcDbLine
 10
326.2954301471
 20
414.6306431957
 30
0.0
 11
326.2954301471
 21
413.6306431957
 31
0.0
  0
LINE
  5
289
330
1F
100
AcDbEntity
  8
0
  6
Continuous
 62
     7
370
    25
100
AcDbLine
 10
326.2954301471
 20
414.6306431957
 30
0.0
 11
328.2954301471
 21
414.6306431957
 31
0.0
  0
LINE
  5
28A
330
1F
100
AcDbEntity
  8
0
  6
Continuous
 62
     7
370
    25
100
AcDbLine
 10
326.2954301471
 20
413.6306431957
 30
0.0
 11
328.2954301471
 21
413.6306431957
 31
0.0
  0
LINE
  5
28B
330
1F
100
AcDbEntity
  8
0
  6
Continuous
 62
     7
370
    25
100
AcDbLine
 10
328.2954301471
 20
414.6306431957
 30
0.0
 11
347.2954301471
 21
414.6306431957
 31
0.0
  0
LINE
  5
28C
330
1F
100
AcDbEntity
  8
0
  6
Continuous
 62
     7
370
    25
100
AcDbLine
 10
328.2954301471
 20
413.6306431957
 30
0.0
 11
347.2954301471
 21
413.6306431957
 31
0.0
  0
LINE
  5
28D
330
1F
100
AcDbEntity
  8
0
  6
Continuous
 62
     7
370
    25
100
AcDbLine
 10
393.2954301471
 20
413.6306431957
 30
0.0
 11
374.2954301471
 21
413.6306431957
 31
0.0
  0
LINE
  5
28E
330
1F
100
AcDbEntity
  8
0
  6
Continuous
 62
     7
370
    25
100
AcDbLine
 10
393.2954301471
 20
414.6306431957
 30
0.0
 11
374.2954301471
 21
414.6306431957
 31
0.0
  0
LINE
  5
28F
330
1F
100
AcDbEntity
  8
0
  6
Continuous
 62
     7
370
    25
100
AcDbLine
 10
372.2954301471
 20
414.6306431957
 30
0.0
 11
372.2954301471
 21
413.6306431957
 31
0.0
  0
LINE
  5
290
330
1F
100
AcDbEntity
  8
0
  6
Continuous
 62
     7
370
    25
100
AcDbLine
 10
374.2954301471
 20
413.6306431957
 30
0.0
 11
372.2954301471
 21
413.6306431957
 31
0.0
  0
LINE
  5
291
330
1F
100
AcDbEntity
  8
0
  6
Continuous
 62
     7
370
    25
100
AcDbLine
 10
374.2954301471
 20
414.6306431957
 30
0.0
 11
372.2954301471
 21
414.6306431957
 31
0.0
  0
LINE
  5
292
330
1F
100
AcDbEntity
  8
0
  6
Continuous
 62
     7
370
    25
100
AcDbLine
 10
349.2954301471
 20
414.6306431957
 30
0.0
 11
349.2954301471
 21
413.6306431957
 31
0.0
  0
LINE
  5
293
330
1F
100
AcDbEntity
  8
0
  6
Continuous
 62
     7
370
    25
100
AcDbLine
 10
347.2954301471
 20
413.6306431957
 30
0.0
 11
349.2954301471
 21
413.6306431957
 31
0.0
  0
LINE
  5
294
330
1F
100
AcDbEntity
  8
0
  6
Continuous
 62
     7
370
    25
100
AcDbLine
 10
347.2954301471
 20
414.6306431957
 30
0.0
 11
349.2954301471
 21
414.6306431957
 31
0.0
  0
LINE
  5
295
330
1F
100
AcDbEntity
  8
0
  6
Continuous
 62
     7
370
    25
100
AcDbLine
 10
404.2954301471
 20
455.6306431957
 30
0.0
 11
397.2954301471
 21
455.6306431957
 31
0.0
  0
LINE
  5
296
330
1F
100
AcDbEntity
  8
0
  6
Continuous
 62
     7
370
    25
100
AcDbLine
 10
404.2954301471
 20
455.6306431957
 30
0.0
 11
404.2954301471
 21
413.6306431957
 31
0.0
  0
LINE
  5
297
330
1F
100
AcDbEntity
  8
0
  6
Continuous
 62
     7
370
    25
100
AcDbLine
 10
404.2954301471
 20
413.6306431957
 30
0.0
 11
397.2954301471
 21
413.6306431957
 31
0.0
  0
LINE
  5
298
330
1F
100
AcDbEntity
  8
0
  6
Continuous
 62
     7
370
    25
100
AcDbLine
 10
397.2954301471
 20
455.6306431957
 30
0.0
 11
324.2954301471
 21
455.6306431957
 31
0.0
  0
LINE
  5
299
330
1F
100
AcDbEntity
  8
0
  6
Continuous
 62
     7
370
    25
100
AcDbLine
 10
397.2954301471
 20
413.6306431957
 30
0.0
 11
395.2954301471
 21
413.6306431957
 31
0.0
  0
LINE
  5
29A
330
1F
100
AcDbEntity
  8
0
  6
Continuous
 62
     7
370
    25
100
AcDbLine
 10
326.2954301471
 20
413.6306431957
 30
0.0
 11
324.2954301471
 21
413.6306431957
 31
0.0
  0
LINE
  5
29B
330
1F
100
AcDbEntity
  8
0
  6
Continuous
 62
     7
370
    25
100
AcDbLine
 10
372.2954301471
 20
413.6306431957
 30
0.0
 11
349.2954301471
 21
413.6306431957
 31
0.0
  0
LINE
  5
29C
330
1F
100
AcDbEntity
  8
0
  6
Continuous
 62
     7
370
    25
100
AcDbLine
 10
317.2954301471
 20
455.6306431957
 30
0.0
 11
317.2954301471
 21
413.6306431957
 31
0.0
  0
LINE
  5
29D
330
1F
100
AcDbEntity
  8
0
  6
Continuous
 62
     7
370
    25
100
AcDbLine
 10
324.2954301471
 20
455.6306431957
 30
0.0
 11
317.2954301471
 21
455.6306431957
 31
0.0
  0
LINE
  5
29E
330
1F
100
AcDbEntity
  8
0
  6
Continuous
 62
     7
370
    25
100
AcDbLine
 10
324.2954301471
 20
413.6306431957
 30
0.0
 11
317.2954301471
 21
413.6306431957
 31
0.0
  0
LINE
  5
29F
330
1F
100
AcDbEntity
  8
0
  6
Continuous
 62
     7
370
    25
100
AcDbLine
 10
370.4454301471
 20
407.7306431957
 30
0.0
 11
367.6954301471
 21
407.7306431957
 31
0.0
  0
LINE
  5
2A0
330
1F
100
AcDbEntity
  8
0
  6
Continuous
 62
     7
370
    25
100
AcDbLine
 10
367.6954301471
 20
407.7306431957
 30
0.0
 11
367.6954301471
 21
413.6306431957
 31
0.0
  0
LINE
  5
2A1
330
1F
100
AcDbEntity
  8
0
  6
Continuous
 62
     7
370
    25
100
AcDbLine
 10
324.4454301471
 20
407.7306431957
 30
0.0
 11
351.1454301471
 21
407.7306431957
 31
0.0
  0
LINE
  5
2A2
330
1F
100
AcDbEntity
  8
0
  6
Continuous
 62
     7
370
    25
100
AcDbLine
 10
397.1454301471
 20
407.7306431957
 30
0.0
 11
370.4454301471
 21
407.7306431957
 31
0.0
  0
LINE
  5
2A3
330
1F
100
AcDbEntity
  8
0
  6
Continuous
 62
     7
370
    25
100
AcDbLine
 10
321.6954301471
 20
407.7306431957
 30
0.0
 11
324.4454301471
 21
407.7306431957
 31
0.0
  0
LINE
  5
2A4
330
1F
100
AcDbEntity
  8
0
  6
Continuous
 62
     7
370
    25
100
AcDbLine
 10
321.6954301471
 20
407.7306431957
 30
0.0
 11
321.6954301471
 21
413.6306431957
 31
0.0
  0
LINE
  5
2A5
330
1F
100
AcDbEntity
  8
0
  6
Continuous
 62
     7
370
    25
100
AcDbLine
 10
399.8954301471
 20
407.7306431957
 30
0.0
 11
399.8954301471
 21
413.6306431957
 31
0.0
  0
LINE
  5
2A6
330
1F
100
AcDbEntity
  8
0
  6
Continuous
 62
     7
370
    25
100
AcDbLine
 10
399.8954301471
 20
407.7306431957
 30
0.0
 11
397.1454301471
 21
407.7306431957
 31
0.0
  0
LINE
  5
2A7
330
1F
100
AcDbEntity
  8
0
  6
Continuous
 62
     7
370
    25
100
AcDbLine
 10
353.8954301471
 20
407.7306431957
 30
0.0
 11
353.8954301471
 21
413.6306431957
 31
0.0
  0
LINE
  5
2A8
330
1F
100
AcDbEntity
  8
0
  6
Continuous
 62
     7
370
    25
100
AcDbLine
 10
351.1454301471
 20
407.7306431957
 30
0.0
 11
353.8954301471
 21
407.7306431957
 31
0.0
  0
LINE
  5
2A9
330
1F
100
AcDbEntity
  8
0
  6
Continuous
 62
     7
370
    25
100
AcDbLine
 10
331.2954301471
 20
455.6306431957
 30
0.0
 11
351.2954301471
 21
475.6306431957
 31
0.0
  0
LINE
  5
2AA
330
1F
100
AcDbEntity
  8
0
  6
Continuous
 62
     7
370
    25
100
AcDbLine
 10
351.2954301471
 20
475.6306431957
 30
0.0
 11
370.2954301471
 21
475.6306431957
 31
0.0
  0
LINE
  5
2AB
330
1F
100
AcDbEntity
  8
0
  6
Continuous
 62
     7
370
    25
100
AcDbLine
 10
370.2954301471
 20
475.6306431957
 30
0.0
 11
390.2954301471
 21
455.6306431957
 31
0.0
  0
LINE
  5
2AC
330
1F
100
AcDbEntity
  8
0
  6
Continuous
 62
     7
370
    25
100
AcDbLine
 10
354.5754301471
 20
469.3906431957
 30
0.0
 11
354.5754301471
 21
462.0306431957
 31
0.0
  0
LINE
  5
2AD
330
1F
100
AcDbEntity
  8
0
  6
Continuous
 62
     7
370
    25
100
AcDbLine
 10
354.5754301471
 20
462.0306431957
 30
0.0
 11
367.0154301471
 21
462.0306431957
 31
0.0
  0
LINE
  5
2AE
330
1F
100
AcDbEntity
  8
0
  6
Continuous
 62
     7
370
    25
100
AcDbLine
 10
367.0154301471
 20
462.0306431957
 30
0.0
 11
367.0154301471
 21
469.3906431957
 31
0.0
  0
LINE
  5
2AF
330
1F
100
AcDbEntity
  8
0
  6
Continuous
 62
     7
370
    25
100
AcDbLine
 10
367.0154301471
 20
469.3906431957
 30
0.0
 11
363.9454301471
 21
469.3906431957
 31
0.0
  0
LINE
  5
2B0
330
1F
100
AcDbEntity
  8
0
  6
Continuous
 62
     7
370
    25
100
AcDbLine
 10
363.9454301471
 20
469.3906431957
 30
0.0
 11
363.9454301471
 21
471.0306431957
 31
0.0
  0
LINE
  5
2B1
330
1F
100
AcDbEntity
  8
0
  6
Continuous
 62
     7
370
    25
100
AcDbLine
 10
363.9454301471
 20
471.0306431957
 30
0.0
 11
357.6454301471
 21
471.0306431957
 31
0.0
  0
LINE
  5
2B2
330
1F
100
AcDbEntity
  8
0
  6
Continuous
 62
     7
370
    25
100
AcDbLine
 10
357.6454301471
 20
471.0306431957
 30
0.0
 11
357.6454301471
 21
469.3906431957
 31
0.0
  0
LINE
  5
2B3
330
1F
100
AcDbEntity
  8
0
  6
Continuous
 62
     7
370
    25
100
AcDbLine
 10
357.6454301471
 20
469.3906431957
 30
0.0
 11
354.5754301471
 21
469.3906431957
 31
0.0
  0
DIMENSION
  5
2B4
330
1F
100
AcDbEntity
  8
SLD-0
100
AcDbDimension
  2
_D_12
 10
404.2954301471
 20
375.7114436055
 30
0.0
 11
360.7103199544
 21
375.7114436055
 31
0.0
 70
   160
  1
<>
 71
     2
 42
-1.0
  3
SLDDIMSTYLE1
100
AcDbAlignedDimension
 13
317.2954301471
 23
413.6306431957
 33
0.0
 14
404.2954301471
 24
413.6306431957
 34
0.0
100
AcDbRotatedDimension
  0
DIMENSION
  5
2C8
330
1F
100
AcDbEntity
  8
SLD-0
100
AcDbDimension
  2
_D_13
 10
351.2954301471
 20
494.0549661542
 30
0.0
 11
330.6284688083
 21
494.0549661542
 31
0.0
 70
   160
  1
<>
 71
     2
 42
-1.0
  3
SLDDIMSTYLE1
100
AcDbAlignedDimension
 13
370.2954301471
 23
475.6306431957
 33
0.0
 14
351.2954301471
 24
475.6306431957
 34
0.0
100
AcDbRotatedDimension
  0
MTEXT
  5
2DC
330
1F
100
AcDbEntity
  8
SLD-0
100
AcDbMText
 10
391.3037622393
 20
495.4894532142
 30
0.0
 40
4.7625
 41
0.0
 71
     1
 72
     1
  1
RJ45
  7
SLDTEXTSTYLE0
 73
     1
 44
1.0
  0
LEADER
  5
2DD
330
1F
100
AcDbEntity
  8
SLD-0
100
AcDbLeader
  3
SLDDIMSTYLE3
 76
     3
 10
367.0154301471
 20
469.3906431957
 30
0.0
 10
386.257367387
 20
493.2039453801
 30
0.0
 10
390.257367387
 20
493.2039453801
 30
0.0
  0
LINE
  5
2DE
330
1F
100
AcDbEntity
  8
0
  6
Continuous
 62
     7
370
    25
100
AcDbLine
 10
153.8486872499
 20
288.3603737441
 30
0.0
 11
153.8486872499
 21
227.5603737441
 31
0.0
  0
LINE
  5
2DF
330
1F
100
AcDbEntity
  8
0
  6
Continuous
 62
     7
370
    25
100
AcDbLine
 10
138.0486872499
 20
291.3603737441
 30
0.0
 11
110.8486872499
 21
291.3603737441
 31
0.0
  0
ARC
  5
2E0
330
1F
100
AcDbEntity
  8
0
  6
Continuous
 62
     7
370
    25
100
AcDbCircle
 10
110.8486872499
 20
288.3603737441
 30
0.0
 40
3.000000000000057
100
AcDbArc
 50
90.0
 51
180.0
  0
LINE
  5
2E1
330
1F
100
AcDbEntity
  8
0
  6
Continuous
 62
     7
370
    25
100
AcDbLine
 10
107.8486872499
 20
288.3603737441
 30
0.0
 11
107.8486872499
 21
227.5603737441
 31
0.0
  0
ARC
  5
2E2
330
1F
100
AcDbEntity
  8
0
  6
Continuous
 62
     7
370
    25
100
AcDbCircle
 10
110.8486872499
 20
227.5603737441
 30
0.0
 40
3.000000000000028
100
AcDbArc
 50
180.0
 51
270.0
  0
LINE
  5
2E3
330
1F
100
AcDbEntity
  8
0
  6
Continuous
 62
     7
370
    25
100
AcDbLine
 10
110.8486872499
 20
224.5603737441
 30
0.0
 11
138.0486872499
 21
224.5603737441
 31
0.0
  0
ARC
  5
2E4
330
1F
100
AcDbEntity
  8
0
  6
Continuous
 62
     7
370
    25
100
AcDbCircle
 10
138.0486872499
 20
227.5603737441
 30
0.0
 40
3.000000000000028
100
AcDbArc
 50
270.0
 51
0.0
  0
LINE
  5
2E5
330
1F
100
AcDbEntity
  8
0
  6
Continuous
 62
     7
370
    25
100
AcDbLine
 10
141.0486872499
 20
227.5603737441
 30
0.0
 11
141.0486872499
 21
288.3603737441
 31
0.0
  0
ARC
  5
2E6
330
1F
100
AcDbEntity
  8
0
  6
Continuous
 62
     7
370
    25
100
AcDbCircle
 10
138.0486872499
 20
288.3603737441
 30
0.0
 40
3.000000000000057
100
AcDbArc
 50
0.0
 51
90.0
  0
ARC
  5
2E7
330
1F
100
AcDbEntity
  8
0
  6
Continuous
 62
     7
370
    25
100
AcDbCircle
 10
184.0486872499
 20
227.5603737441
 30
0.0
 40
3.000000000000057
100
AcDbArc
 50
270.0
 51
0.0
  0
ARC
  5
2E8
330
1F
100
AcDbEntity
  8
0
  6
Continuous
 62
     7
370
    25
100
AcDbCircle
 10
207.7056872499
 20
197.7033737441
 30
0.0
 40
2.100000000000051
100
AcDbArc
 50
270.0
 51
0.0
  0
LINE
  5
2E9
330
1F
100
AcDbEntity
  8
0
  6
Continuous
 62
     7
370
    25
100
AcDbLine
 10
156.8486872499
 20
224.5603737441
 30
0.0
 11
184.0486872499
 21
224.5603737441
 31
0.0
  0
ARC
  5
2EA
330
1F
100
AcDbEntity
  8
0
  6
Continuous
 62
     7
370
    25
100
AcDbCircle
 10
156.8486872499
 20
227.5603737441
 30
0.0
 40
3.000000000000028
100
AcDbArc
 50
180.0
 51
270.0
  0
LINE
  5
2EB
330
1F
100
AcDbEntity
  8
0
  6
Continuous
 62
     7
370
    25
100
AcDbLine
 10
85.0916872499
 20
318.2173737441
 30
0.0
 11
85.0916872499
 21
197.7033737441
 31
0.0
  0
ARC
  5
2EC
330
1F
100
AcDbEntity
  8
0
  6
Continuous
 62
     7
370
    25
100
AcDbCircle
 10
156.8486872499
 20
288.3603737441
 30
0.0
 40
3.000000000000057
100
AcDbArc
 50
90.0
 51
180.0
  0
LINE
  5
2ED
330
1F
100
AcDbEntity
  8
0
  6
Continuous
 62
     7
370
    25
100
AcDbLine
 10
184.0486872499
 20
291.3603737441
 30
0.0
 11
156.8486872499
 21
291.3603737441
 31
0.0
  0
ARC
  5
2EE
330
1F
100
AcDbEntity
  8
0
  6
Continuous
 62
     7
370
    25
100
AcDbCircle
 10
184.0486872499
 20
288.3603737441
 30
0.0
 40
3.000000000000057
100
AcDbArc
 50
0.0
 51
90.0
  0
LINE
  5
2EF
330
1F
100
AcDbEntity
  8
0
  6
Continuous
 62
     7
370
    25
100
AcDbLine
 10
187.0486872499
 20
227.5603737441
 30
0.0
 11
187.0486872499
 21
288.3603737441
 31
0.0
  0
ARC
  5
2F0
330
1F
100
AcDbEntity
  8
0
  6
Continuous
 62
     7
370
    25
100
AcDbCircle
 10
87.1916872499
 20
318.2173737441
 30
0.0
 40
2.10000000000008
100
AcDbArc
 50
90.0
 51
180.0
  0
LINE
  5
2F1
330
1F
100
AcDbEntity
  8
0
  6
Continuous
 62
     7
370
    25
100
AcDbLine
 10
87.1916872499
 20
195.6033737441
 30
0.0
 11
207.7056872499
 21
195.6033737441
 31
0.0
  0
ARC
  5
2F2
330
1F
100
AcDbEntity
  8
0
  6
Continuous
 62
     7
370
    25
100
AcDbCircle
 10
87.1916872499
 20
197.7033737441
 30
0.0
 40
2.100000000000023
100
AcDbArc
 50
180.0
 51
270.0
  0
LINE
  5
2F3
330
1F
100
AcDbEntity
  8
0
  6
Continuous
 62
     7
370
    25
100
AcDbLine
 10
209.8056872499
 20
197.7033737441
 30
0.0
 11
209.8056872499
 21
318.2173737441
 31
0.0
  0
ARC
  5
2F4
330
1F
100
AcDbEntity
  8
0
  6
Continuous
 62
     7
370
    25
100
AcDbCircle
 10
207.7056872499
 20
318.2173737441
 30
0.0
 40
2.10000000000008
100
AcDbArc
 50
0.0
 51
90.0
  0
LINE
  5
2F5
330
1F
100
AcDbEntity
  8
0
  6
Continuous
 62
     7
370
    25
100
AcDbLine
 10
207.7056872499
 20
320.3173737441
 30
0.0
 11
87.1916872499
 21
320.3173737441
 31
0.0
  0
LINE
  5
2F6
330
1F
100
AcDbEntity
  8
0
  6
Continuous
 62
     7
370
    25
100
AcDbLine
 10
137.7986872499
 20
225.0603737441
 30
0.0
 11
111.0986872499
 21
225.0603737441
 31
0.0
  0
ARC
  5
2F7
330
1F
100
AcDbEntity
  8
0
  6
Continuous
 62
     7
370
    25
100
AcDbCircle
 10
111.0986872499
 20
227.8103737441
 30
0.0
 40
2.75
100
AcDbArc
 50
180.0
 51
270.0
  0
LINE
  5
2F8
330
1F
100
AcDbEntity
  8
0
  6
Continuous
 62
     7
370
    25
100
AcDbLine
 10
108.3486872499
 20
227.8103737441
 30
0.0
 11
108.3486872499
 21
288.1103737441
 31
0.0
  0
ARC
  5
2F9
330
1F
100
AcDbEntity
  8
0
  6
Continuous
 62
     7
370
    25
100
AcDbCircle
 10
111.0986872499
 20
288.1103737441
 30
0.0
 40
2.75
100
AcDbArc
 50
90.0
 51
180.0
  0
LINE
  5
2FA
330
1F
100
AcDbEntity
  8
0
  6
Continuous
 62
     7
370
    25
100
AcDbLine
 10
111.0986872499
 20
290.8603737441
 30
0.0
 11
137.7986872499
 21
290.8603737441
 31
0.0
  0
ARC
  5
2FB
330
1F
100
AcDbEntity
  8
0
  6
Continuous
 62
     7
370
    25
100
AcDbCircle
 10
137.7986872499
 20
288.1103737441
 30
0.0
 40
2.75
100
AcDbArc
 50
0.0
 51
90.0
  0
LINE
  5
2FC
330
1F
100
AcDbEntity
  8
0
  6
Continuous
 62
     7
370
    25
100
AcDbLine
 10
140.5486872499
 20
288.1103737441
 30
0.0
 11
140.5486872499
 21
227.8103737441
 31
0.0
  0
ARC
  5
2FD
330
1F
100
AcDbEntity
  8
0
  6
Continuous
 62
     7
370
    25
100
AcDbCircle
 10
137.7986872499
 20
227.8103737441
 30
0.0
 40
2.75
100
AcDbArc
 50
270.0
 51
0.0
  0
LINE
  5
2FE
330
1F
100
AcDbEntity
  8
0
  6
Continuous
 62
     7
370
    25
100
AcDbLine
 10
130.9892018567
 20
239.5603737441
 30
0.0
 11
117.9081726432
 21
239.5603737441
 31
0.0
  0
SPLINE
  5
2FF
330
1F
100
AcDbEntity
  8
0
  6
Continuous
 62
     7
370
    25
100
AcDbSpline
210
0.0
220
0.0
230
1.0
 70
     8
 71
     3
 72
     8
 73
     4
 74
     0
 42
0.00000001
 43
0.00000001
 40
0.0
 40
0.0
 40
0.0
 40
0.0
 40
1.0
 40
1.0
 40
1.0
 40
1.0
 10
117.0267690365008
 20
239.1965339781311
 30
0.0
 10
117.2584149500549
 20
239.4281798916844
 30
0.0
 10
117.5791286169823
 20
239.5605720737266
 30
0.0
 10
117.9081726431848
 20
239.5603737440618
 30
0.0
  0
SPLINE
  5
300
330
1F
100
AcDbEntity
  8
0
  6
Continuous
 62
     7
370
    25
100
AcDbSpline
210
0.0
220
0.0
230
1.0
 70
     8
 71
     3
 72
     8
 73
     4
 74
     0
 42
0.00000001
 43
0.00000001
 40
0.0
 40
0.0
 40
0.0
 40
0.0
 40
1.0
 40
1.0
 40
1.0
 40
1.0
 10
116.6629292705701
 20
238.3151303714472
 30
0.0
 10
116.6627309409053
 20
238.6441743976496
 30
0.0
 10
116.7951231229476
 20
238.9648880645771
 30
0.0
 10
117.0267690365008
 20
239.1965339781311
 30
0.0
  0
LINE
  5
301
330
1F
100
AcDbEntity
  8
0
  6
Continuous
 62
     7
370
    25
100
AcDbLine
 10
116.6629292706
 20
238.3151303714
 30
0.0
 11
116.6629292706
 21
236.1139800303
 31
0.0
  0
SPLINE
  5
302
330
1F
100
AcDbEntity
  8
0
  6
Continuous
 62
     7
370
    25
100
AcDbSpline
210
0.0
220
0.0
230
1.0
 70
     8
 71
     3
 72
    10
 73
     6
 74
     0
 42
0.00000001
 43
0.00000001
 40
0.0
 40
0.0
 40
0.0
 40
0.0
 40
0.5
 40
0.5
 40
1.0
 40
1.0
 40
1.0
 40
1.0
 10
117.5419641889391
 20
234.923802553994
 30
0.0
 10
117.2887911138655
 20
235.0015781447725
 30
0.0
 10
117.0628823938754
 20
235.16160511544
 30
0.0
 10
116.7493247906561
 20
235.5861493389675
 30
0.0
 10
116.6628109289411
 20
235.8491298189271
 30
0.0
 10
116.6629292705701
 20
236.1139800302889
 30
0.0
  0
LINE
  5
303
330
1F
100
AcDbEntity
  8
0
  6
Continuous
 62
     7
370
    25
100
AcDbLine
 10
117.5419641889
 20
234.923802554
 30
0.0
 11
117.6442299533
 21
234.892336165
 31
0.0
  0
SPLINE
  5
304
330
1F
100
AcDbEntity
  8
0
  6
Continuous
 62
     7
370
    25
100
AcDbSpline
210
0.0
220
0.0
230
1.0
 70
     8
 71
     3
 72
     8
 73
     4
 74
     0
 42
0.00000001
 43
0.00000001
 40
0.0
 40
0.0
 40
0.0
 40
0.0
 40
1.0
 40
1.0
 40
1.0
 40
1.0
 10
118.2128425307643
 20
234.5248011965343
 30
0.0
 10
118.0615080964295
 20
234.6967126619427
 30
0.0
 10
117.86312238403
 20
234.8249435337781
 30
0.0
 10
117.6442299533295
 20
234.8923361649507
 30
0.0
  0
LINE
  5
305
330
1F
100
AcDbEntity
  8
0
  6
Continuous
 62
     7
370
    25
100
AcDbLine
 10
118.2128425308
 20
234.5248011965
 30
0.0
 11
118.7965839716
 21
233.8614586501
 31
0.0
  0
SPLINE
  5
306
330
1F
100
AcDbEntity
  8
0
  6
Continuous
 62
     7
370
    25
100
AcDbSpline
210
0.0
220
0.0
230
1.0
 70
     8
 71
     3
 72
     8
 73
     4
 74
     0
 42
0.00000001
 43
0.00000001
 40
0.0
 40
0.0
 40
0.0
 40
0.0
 40
1.0
 40
1.0
 40
1.0
 40
1.0
 10
119.7314050033182
 20
233.4388577853508
 30
0.0
 10
119.3760613401214
 20
233.4387603301609
 30
0.0
 10
119.0312607468903
 20
233.5946329773552
 30
0.0
 10
118.7965839716378
 20
233.8614586500869
 30
0.0
  0
LINE
  5
307
330
1F
100
AcDbEntity
  8
0
  6
Continuous
 62
     7
370
    25
100
AcDbLine
 10
119.7314050033
 20
233.4388577854
 30
0.0
 11
129.1659694965
 21
233.4388577854
 31
0.0
  0
SPLINE
  5
308
330
1F
100
AcDbEntity
  8
0
  6
Continuous
 62
     7
370
    25
100
AcDbSpline
210
0.0
220
0.0
230
1.0
 70
     8
 71
     3
 72
     8
 73
     4
 74
     0
 42
0.00000001
 43
0.00000001
 40
0.0
 40
0.0
 40
0.0
 40
0.0
 40
1.0
 40
1.0
 40
1.0
 40
1.0
 10
130.1007905282129
 20
233.8614586500864
 30
0.0
 10
129.8661137529604
 20
233.5946329773549
 30
0.0
 10
129.5213131597295
 20
233.4387603301609
 30
0.0
 10
129.165969496533
 20
233.4388577853508
 30
0.0
  0
LINE
  5
309
330
1F
100
AcDbEntity
  8
0
  6
Continuous
 62
     7
370
    25
100
AcDbLine
 10
130.1007905282
 20
233.8614586501
 30
0.0
 11
130.6845319691
 21
234.5248011965
 31
0.0
  0
SPLINE
  5
30A
330
1F
100
AcDbEntity
  8
0
  6
Continuous
 62
     7
370
    25
100
AcDbSpline
210
0.0
220
0.0
230
1.0
 70
     8
 71
     3
 72
     8
 73
     4
 74
     0
 42
0.00000001
 43
0.00000001
 40
0.0
 40
0.0
 40
0.0
 40
0.0
 40
1.0
 40
1.0
 40
1.0
 40
1.0
 10
131.2531445465227
 20
234.892336164951
 30
0.0
 10
131.0342521158225
 20
234.8249435337785
 30
0.0
 10
130.8358664034231
 20
234.6967126619433
 30
0.0
 10
130.6845319690884
 20
234.5248011965352
 30
0.0
  0
SPLINE
  5
30B
330
1F
100
AcDbEntity
  8
0
  6
Continuous
 62
     7
370
    25
100
AcDbSpline
210
0.0
220
0.0
230
1.0
 70
     8
 71
     3
 72
    14
 73
    10
 74
     0
 42
0.00000001
 43
0.00000001
 40
0.0
 40
0.0
 40
0.0
 40
0.0
 40
0.25
 40
0.25
 40
0.5
 40
0.5
 40
0.75
 40
0.75
 40
1.0
 40
1.0
 40
1.0
 40
1.0
 10
130.9892018566665
 20
239.5603737440618
 30
0.0
 10
131.1527812999561
 20
239.5604723407649
 30
0.0
 10
131.3159718578688
 20
239.5282117163755
 30
0.0
 10
131.6173869109608
 20
239.4037888282305
 30
0.0
 10
131.7554649100832
 20
239.3116745313984
 30
0.0
 10
131.9857460166177
 20
239.0813934248639
 30
0.0
 10
132.0778603134497
 20
238.9433154257418
 30
0.0
 10
132.2022832015949
 20
238.6419003726493
 30
0.0
 10
132.2345438259842
 20
238.478709814737
 30
0.0
 10
132.2344452292812
 20
238.3151303714472
 30
0.0
  0
LINE
  5
30C
330
1F
100
AcDbEntity
  8
0
  6
Continuous
 62
     7
370
    25
100
AcDbLine
 10
131.2531445465
 20
234.892336165
 30
0.0
 11
131.3554103109
 21
234.923802554
 31
0.0
  0
SPLINE
  5
30D
330
1F
100
AcDbEntity
  8
0
  6
Continuous
 62
     7
370
    25
100
AcDbSpline
210
0.0
220
0.0
230
1.0
 70
     8
 71
     3
 72
    10
 73
     6
 74
     0
 42
0.00000001
 43
0.00000001
 40
0.0
 40
0.0
 40
0.0
 40
0.0
 40
0.5
 40
0.5
 40
1.0
 40
1.0
 40
1.0
 40
1.0
 10
132.2344452292812
 20
236.1139800302889
 30
0.0
 10
132.2345635709101
 20
235.8491298189268
 30
0.0
 10
132.1480497091953
 20
235.5861493389677
 30
0.0
 10
131.8344921059757
 20
235.1616051154398
 30
0.0
 10
131.608583385986
 20
235.0015781447726
 30
0.0
 10
131.3554103109122
 20
234.923802553994
 30
0.0
  0
LINE
  5
30E
330
1F
100
AcDbEntity
  8
0
  6
Continuous
 62
     7
370
    25
100
AcDbLine
 10
132.2344452293
 20
236.1139800303
 30
0.0
 11
132.2344452293
 21
238.3151303714
 31
0.0
  0
CIRCLE
  5
30F
330
1F
100
AcDbEntity
  8
0
  6
Continuous
 62
     7
370
    25
100
AcDbCircle
 10
170.4486872499
 20
234.0603737441
 30
0.0
 40
1.224999999999994
  0
CIRCLE
  5
310
330
1F
100
AcDbEntity
  8
0
  6
Continuous
 62
     7
370
    25
100
AcDbCircle
 10
170.4486872499
 20
234.0603737441
 30
0.0
 40
0.8249999999999886
  0
LINE
  5
311
330
1F
100
AcDbEntity
  8
0
  6
Continuous
 62
     7
370
    25
100
AcDbLine
 10
154.3486872499
 20
288.1103737441
 30
0.0
 11
154.3486872499
 21
227.8103737441
 31
0.0
  0
ARC
  5
312
330
1F
100
AcDbEntity
  8
0
  6
Continuous
 62
     7
370
    25
100
AcDbCircle
 10
157.0986872499
 20
288.1103737441
 30
0.0
 40
2.75
100
AcDbArc
 50
90.0
 51
180.0
  0
LINE
  5
313
330
1F
100
AcDbEntity
  8
0
  6
Continuous
 62
     7
370
    25
100
AcDbLine
 10
183.7986872499
 20
290.8603737441
 30
0.0
 11
157.0986872499
 21
290.8603737441
 31
0.0
  0
ARC
  5
314
330
1F
100
AcDbEntity
  8
0
  6
Continuous
 62
     7
370
    25
100
AcDbCircle
 10
183.7986872499
 20
288.1103737441
 30
0.0
 40
2.750000000000028
100
AcDbArc
 50
0.0
 51
90.0
  0
LINE
  5
315
330
1F
100
AcDbEntity
  8
0
  6
Continuous
 62
     7
370
    25
100
AcDbLine
 10
186.5486872499
 20
227.8103737441
 30
0.0
 11
186.5486872499
 21
288.1103737441
 31
0.0
  0
ARC
  5
316
330
1F
100
AcDbEntity
  8
0
  6
Continuous
 62
     7
370
    25
100
AcDbCircle
 10
183.7986872499
 20
227.8103737441
 30
0.0
 40
2.75
100
AcDbArc
 50
270.0
 51
0.0
  0
LINE
  5
317
330
1F
100
AcDbEntity
  8
0
  6
Continuous
 62
     7
370
    25
100
AcDbLine
 10
157.0986872499
 20
225.0603737441
 30
0.0
 11
183.7986872499
 21
225.0603737441
 31
0.0
  0
ARC
  5
318
330
1F
100
AcDbEntity
  8
0
  6
Continuous
 62
     7
370
    25
100
AcDbCircle
 10
157.0986872499
 20
227.8103737441
 30
0.0
 40
2.749999999999972
100
AcDbArc
 50
180.0
 51
270.0
  0
DIMENSION
  5
319
330
1F
100
AcDbEntity
  8
SLD-0
100
AcDbDimension
  2
_D_14
 10
53.0916872499
 20
195.6033737441
 30
0.0
 11
53.0916872499
 21
258.9549394332
 31
0.0
 70
   160
  1
({\fGDT;o}<>)
 71
     2
 42
-1.0
  3
SLDDIMSTYLE6
100
AcDbAlignedDimension
 13
87.1916872499
 23
320.3173737441
 33
0.0
 14
87.1916872499
 24
195.6033737441
 34
0.0
 50
90.0
100
AcDbRotatedDimension
  0
MTEXT
  5
336
330
1F
100
AcDbEntity
  8
SLD-0
100
AcDbMText
 10
142.1330892669
 20
157.9280936393
 30
0.0
 40
4.7625
 41
0.0
 71
     2
 72
     1
  1
WALLPLATE INSTALLED
  7
SLDTEXTSTYLE0
 73
     1
 44
1.0
  0
OLE2FRAME
  5
337
330
1F
100
AcDbEntity
  8
0
100
AcDbOle2Frame
 70
     2
  3
Picture (Enhanced Metafile)
 10
13.4047356173
 20
31.1336361838
 30
0.0
 11
87.8295611312
 21
15.3393002226
 31
0.0
 71
     3
 72
     0
 73
     1
 90
     5248
310
80554E67BF8139CF2A4087E11EFB35223F4000000000000000006221928717F5
310
554087E11EFB35223F4000000000000000006221928717F55540725E3FC2B8AD
310
2E4000000000000000004E67BF8139CF2A40725E3FC2B8AD2E40000000000000
310
0000000000000100000000010000010000000100000000000100000000140000
310
D0CF11E0A1B11AE1000000000000000000000000000000003E000300FEFF0900
310
0600000000000000000000000100000001000000000000000010000002000000
310
01000000FEFFFFFF0000000000000000FFFFFFFFFFFFFFFFFFFFFFFFFFFFFFFF
310
FFFFFFFFFFFFFFFFFFFFFFFFFFFFFFFFFFFFFFFFFFFFFFFFFFFFFFFFFFFFFFFF
310
FFFFFFFFFFFFFFFFFFFFFFFFFFFFFFFFFFFFFFFFFFFFFFFFFFFFFFFFFFFFFFFF
310
FFFFFFFFFFFFFFFFFFFFFFFFFFFFFFFFFFFFFFFFFFFFFFFFFFFFFFFFFFFFFFFF
310
FFFFFFFFFFFFFFFFFFFFFFFFFFFFFFFFFFFFFFFFFFFFFFFFFFFFFFFFFFFFFFFF
310
FFFFFFFFFFFFFFFFFFFFFFFFFFFFFFFFFFFFFFFFFFFFFFFFFFFFFFFFFFFFFFFF
310
FFFFFFFFFFFFFFFFFFFFFFFFFFFFFFFFFFFFFFFFFFFFFFFFFFFFFFFFFFFFFFFF
310
FFFFFFFFFFFFFFFFFFFFFFFFFFFFFFFFFFFFFFFFFFFFFFFFFFFFFFFFFFFFFFFF
310
FFFFFFFFFFFFFFFFFFFFFFFFFFFFFFFFFFFFFFFFFFFFFFFFFFFFFFFFFFFFFFFF
310
FFFFFFFFFFFFFFFFFFFFFFFFFFFFFFFFFFFFFFFFFFFFFFFFFFFFFFFFFFFFFFFF
310
FFFFFFFFFFFFFFFFFFFFFFFFFFFFFFFFFFFFFFFFFFFFFFFFFFFFFFFFFFFFFFFF
310
FFFFFFFFFFFFFFFFFFFFFFFFFFFFFFFFFFFFFFFFFFFFFFFFFFFFFFFFFFFFFFFF
310
FFFFFFFFFFFFFFFFFFFFFFFFFFFFFFFFFFFFFFFFFFFFFFFFFFFFFFFFFFFFFFFF
310
FFFFFFFFFFFFFFFFFFFFFFFFFFFFFFFFFFFFFFFFFFFFFFFFFFFFFFFFFFFFFFFF
310
FDFFFFFFFEFFFFFFFEFFFFFF0400000005000000060000000700000008000000
310
FEFFFFFFFFFFFFFFFFFFFFFFFFFFFFFFFFFFFFFFFFFFFFFFFFFFFFFFFFFFFFFF
310
FFFFFFFFFFFFFFFFFFFFFFFFFFFFFFFFFFFFFFFFFFFFFFFFFFFFFFFFFFFFFFFF
310
FFFFFFFFFFFFFFFFFFFFFFFFFFFFFFFFFFFFFFFFFFFFFFFFFFFFFFFFFFFFFFFF
310
FFFFFFFFFFFFFFFFFFFFFFFFFFFFFFFFFFFFFFFFFFFFFFFFFFFFFFFFFFFFFFFF
310
FFFFFFFFFFFFFFFFFFFFFFFFFFFFFFFFFFFFFFFFFFFFFFFFFFFFFFFFFFFFFFFF
310
FFFFFFFFFFFFFFFFFFFFFFFFFFFFFFFFFFFFFFFFFFFFFFFFFFFFFFFFFFFFFFFF
310
FFFFFFFFFFFFFFFFFFFFFFFFFFFFFFFFFFFFFFFFFFFFFFFFFFFFFFFFFFFFFFFF
310
FFFFFFFFFFFFFFFFFFFFFFFFFFFFFFFFFFFFFFFFFFFFFFFFFFFFFFFFFFFFFFFF
310
FFFFFFFFFFFFFFFFFFFFFFFFFFFFFFFFFFFFFFFFFFFFFFFFFFFFFFFFFFFFFFFF
310
FFFFFFFFFFFFFFFFFFFFFFFFFFFFFFFFFFFFFFFFFFFFFFFFFFFFFFFFFFFFFFFF
310
FFFFFFFFFFFFFFFFFFFFFFFFFFFFFFFFFFFFFFFFFFFFFFFFFFFFFFFFFFFFFFFF
310
FFFFFFFFFFFFFFFFFFFFFFFFFFFFFFFFFFFFFFFFFFFFFFFFFFFFFFFFFFFFFFFF
310
FFFFFFFFFFFFFFFFFFFFFFFFFFFFFFFFFFFFFFFFFFFFFFFFFFFFFFFFFFFFFFFF
310
FFFFFFFFFFFFFFFFFFFFFFFFFFFFFFFFFFFFFFFFFFFFFFFFFFFFFFFFFFFFFFFF
310
FFFFFFFFFFFFFFFFFFFFFFFFFFFFFFFFFFFFFFFFFFFFFFFFFFFFFFFFFFFFFFFF
310
52006F006F007400200045006E00740072007900000000000000000000000000
310
0000000000000000000000000000000000000000000000000000000000000000
310
16000500FFFFFFFFFFFFFFFF020000001903000000000000C000000000000046
310
000000000000000000000000F007ACE2AB96DA0103000000000C000000000000
310
01004F006C006500000000000000000000000000000000000000000000000000
310
0000000000000000000000000000000000000000000000000000000000000000
310
0A000200FFFFFFFFFFFFFFFFFFFFFFFF00000000000000000000000000000000
310
0000000000000000000000000000000000000000000000001400000000000000
310
010043006F006D0070004F0062006A0000000000000000000000000000000000
310
0000000000000000000000000000000000000000000000000000000000000000
310
120002010100000003000000FFFFFFFF00000000000000000000000000000000
310
0000000000000000000000000000000000000000010000005800000000000000
310
43004F004E00540045004E005400530000000000000000000000000000000000
310
0000000000000000000000000000000000000000000000000000000000000000
310
12000200FFFFFFFFFFFFFFFFFFFFFFFF00000000000000000000000000000000
310
000000000000000000000000000000000000000003000000040B000000000000
310
FEFFFFFF02000000FEFFFFFF0400000005000000060000000700000008000000
310
090000000A0000000B0000000C0000000D0000000E0000000F00000010000000
310
1100000012000000130000001400000015000000160000001700000018000000
310
190000001A0000001B0000001C0000001D0000001E0000001F00000020000000
310
2100000022000000230000002400000025000000260000002700000028000000
310
290000002A0000002B0000002C0000002D0000002E0000002F000000FEFFFFFF
310
FFFFFFFFFFFFFFFFFFFFFFFFFFFFFFFFFFFFFFFFFFFFFFFFFFFFFFFFFFFFFFFF
310
FFFFFFFFFFFFFFFFFFFFFFFFFFFFFFFFFFFFFFFFFFFFFFFFFFFFFFFFFFFFFFFF
310
FFFFFFFFFFFFFFFFFFFFFFFFFFFFFFFFFFFFFFFFFFFFFFFFFFFFFFFFFFFFFFFF
310
FFFFFFFFFFFFFFFFFFFFFFFFFFFFFFFFFFFFFFFFFFFFFFFFFFFFFFFFFFFFFFFF
310
FFFFFFFFFFFFFFFFFFFFFFFFFFFFFFFFFFFFFFFFFFFFFFFFFFFFFFFFFFFFFFFF
310
FFFFFFFFFFFFFFFFFFFFFFFFFFFFFFFFFFFFFFFFFFFFFFFFFFFFFFFFFFFFFFFF
310
FFFFFFFFFFFFFFFFFFFFFFFFFFFFFFFFFFFFFFFFFFFFFFFFFFFFFFFFFFFFFFFF
310
FFFFFFFFFFFFFFFFFFFFFFFFFFFFFFFFFFFFFFFFFFFFFFFFFFFFFFFFFFFFFFFF
310
FFFFFFFFFFFFFFFFFFFFFFFFFFFFFFFFFFFFFFFFFFFFFFFFFFFFFFFFFFFFFFFF
310
FFFFFFFFFFFFFFFFFFFFFFFFFFFFFFFFFFFFFFFFFFFFFFFFFFFFFFFFFFFFFFFF
310
0100000200000000000000000000000000000000000000000000000000000000
310
0000000000000000000000000000000000000000000000000000000000000000
310
0100FEFF030A0000FFFFFFFF1903000000000000C0000000000000461C000000
310
506963747572652028456E68616E636564204D65746166696C652900FFFFFFFF
310
0E00000000000000F439B2710000000000000000000000000000000000000000
310
0000000000000000000000000000000000000000000000000000000000000000
310
74000000010000006C000000FD0A000094000000870B0000B200000062570100
310
111200003B680100BB15000020454D46000001008C0A00003800000003000000
310
0D0000005800000000000000000400000003000040010000F000000041006400
310
6F00620065002000530079007300740000000000625BBA4F0100000074000000
310
FD0A000094000000870B0000B200000062570100111200003B680100BB150000
310
20454D46000001008C0A000038000000030000000D0000005800000000000000
310
000400000003000040010000F0000000410064006F0062006500200053007900
310
7300740065006D0073000000110000000C00000008000000120000000C000000
310
010000000A0000001000000000000000000000000C0000001000000000000000
310
000000000900000010000000D7040000110100000B000000100000009D010000
310
5B000000130000000C0000000200000027000000180000000100000000000000
310
0000000000000000250000000C000000010000005F0000003400000002000000
310
2C000000000000002C0000000000000005000000000000000000000000000000
310
0000000000000000250000000C000000020000003B000000080000001B000000
310
100000003D210000F20100005800000048010000FC0A000093000000190B0000
310
B30000004B0000004921F9014921F9014921F9014921DA014921DA014921DA01
310
4921D5014621D0014221CD012821BE012821BE012821BE012321BB011D21BB01
310
1821BE01FE20CD01FE20CD01FE20CD01FA20D001F720D501F720DA01F720F801
310
F720F801F720F801F720FE01FA200302FE200602182115021821150218211502
310
1D21170223211702282115024321050243210502432105023721FE013721FE01
310
3721FE013521FD013521FD013521FD0122210902222109022221090221210902
310
1F2109021E2109020621FA010621FA010621FA010521FA010421F9010421F701
310
0421DB010421DB010421DB010421DA010521D9010621D8011E21CA011E21CA01
310
1E21CA011F21CA012121CA012221CA013A21D8013A21D8013A21D8013B21D901
310
3C21DA013C21DB013C21F2013C21F2013C21F2013D000000080000003C000000
310
080000003E000000180000009F8601009F8601006179FEFF6179FEFF13000000
310
0C000000020000003B000000080000001B000000100000002F210000E4010000
310
58000000C4000000050B00009D000000100B0000A90000002A0000002F21EF01
310
2F21EF012F21EF012F21F1012E21F2012C21F3012321F9012321F9012321F901
310
2221FA012121FA012021FA011F21FA011E21FA011D21F9011421F4011421F401
310
1421F4011221F3011121F1011121EF011121E4011121E4011121E4011121E201
310
1221E0011321DF011D21DA011D21DA011D21DA011E21D9011F21D9012021D901
310
2121D9012221D9012321DA012C21DF012C21DF012C21DF012E21E0012F21E201
310
2F21E4013D000000080000003C000000080000003E000000180000009F860100
310
9F8601006179FEFF6179FEFF130000000C000000020000005B00000038000000
310
3D0B0000A3000000430B0000A6000000010000000500000005000000B821F001
310
C821F001C821EB01B821EB01B821F001130000000C000000020000003B000000
310
080000001B0000001000000004220000E70100005800000084010000450B0000
310
9B000000590B0000AA0000005A0000000122E601FD21E501F621E501E421E501
310
E421E501E421E501D921E501D921E301D921E001D921DD01DA21DB01DC21DA01
310
DE21DA01E221D901E921D901EF21D901EF21D901EF21D9010022D9010022DB01
310
0022E0010022E1010022E1010022E1010722E1010722E1010722E1010722DF01
310
0722DF010722DF010722DB010622D8010322D6010022D401FB21D401F321D401
310
E521D401E521D401E521D401D921D401D121D601D121DF01D121E501D321E801
310
D721E901DB21EB01E221EB01EC21EB01F821EB01F821EB01F821EB010022EB01
310
0122ED010122F1010122F5010022F701F621F701E221F701E221F701E221F701
310
DA21F701D921F501D921F201D921EF01D921EF01D921EF01D121EF01D121EF01
310
D121EF01D121F201D121F201D121F201D121FC01DB21FD01E421FD01F521FD01
310
F521FD01F521FD01F921FD01FE21FD010222FB010622FA010922F6010922F201
310
0922EF010922EF010922EF010922EC010722E9010422E7013C00000008000000
310
3E000000180000009F8601009F8601006179FEFF6179FEFF130000000C000000
310
020000005B0000004C000000590B00009B0000006F0B0000AA00000001000000
310
0A0000000A0000002C22E6011722D4010C22D4012822EC012822FC013022FC01
310
3022EC014C22D4014122D4012C22E601130000000C000000020000003B000000
310
080000001B0000001000000082220000E701000058000000780100006F0B0000
310
9B000000830B0000AA000000570000007F22E6017B22E5017422E5016122E501
310
6122E5016122E5015722E5015722E3015722E0015722DB015822D9016622D901
310
6D22D9016D22D9016D22D9017E22D9017E22DB017E22E0017E22E1017E22E101
310
7E22E1018522E1018522E1018522E1018522DF018522DF018522DF018522DB01
310
8422D8018122D6017E22D4017922D4017122D4016322D4016322D4016322D401
310
5722D4014F22D6014F22DF014F22E5015122E8015522E9015922EB015F22EB01
310
6A22EB017622EB017622EB017622EB017E22EB017F22ED017F22F1017F22F501
310
7D22F7017422F7016022F7016022F7016022F7015822F7015722F5015722F201
310
5722EF015722EF015722EF014F22EF014F22EF014F22EF014F22F2014F22F201
310
4F22F2014F22FC015822FD016122FD017322FD017322FD017322FD017722FD01
310
7C22FD018022FB018422FA018622F6018622F2018622EF018622EF018622EF01
310
8622EC018522E9018222E7013C000000080000003E000000180000009F860100
310
9F8601006179FEFF6179FEFF130000000C000000020000005B00000038000000
310
300B0000A6000000340B0000AC00000001000000050000000500000093210202
310
9A2102029A21F3019321F30193210202130000000C000000020000003B000000
310
080000001B000000100000009B210000D40100005800000018010000240B0000
310
9B0000003A0B0000AA0000003F0000008021D4018021D4018021D4017421D401
310
6F21D8016F21E3016F21EE016F21EE016F21EE016F21F8017421FD018021FD01
310
8F21FD018F21FD018F21FD018F21F7018F21F7018F21F7018121F7018121F701
310
8121F7017921F7017621F5017621F0017621E1017621E1017621E1017621DC01
310
7921D9018121D9019A21D9019A21D9019A21D901A121D901A421DC01A421E101
310
A421F001A421F001A421F001A421F401A321F6019E21F7019E21F7019E21F701
310
9E21F7019E21FD019E21FD019E21FD019F21FD019F21FD019F21FD01A421FC01
310
A721FB01A921F801AB21F601AC21F201AC21EE01AC21E301AC21E301AC21E301
310
AC21D801A721D4019B21D4013C000000080000003E000000180000009F860100
310
9F8601006179FEFF6179FEFF130000000C000000020000005B0000006C000000
310
840B00009B000000870B00009F0000000100000012000000120000009222D401
310
9122D8019022D4018E22D4018E22DA018F22DA018F22D6018F22D5019022D601
310
9122DA019122DA019222D6019322D5019322D6019322DA019422DA019422D401
310
9222D401130000000C000000020000005B00000048000000830B00009B000000
310
850B00009F0000000100000009000000090000008A22D5018B22D5018B22DA01
310
8C22DA018C22D5018E22D5018E22D4018A22D4018A22D501280000000C000000
310
01000000280000000C000000020000000E000000140000000000000010000000
310
1400000000000000000000000000000000000000000000000000000000000000
310
0000000000000000000000000000000000000000000000000000000000000000
  1
OLE
  0
ENDSEC
  0
SECTION
  2
OBJECTS
  0
DICTIONARY
  5
C
330
0
100
AcDbDictionary
281
     1
  3
ACAD_GROUP
350
D
  3
ACAD_LAYOUT
350
1A
  3
ACAD_MLINESTYLE
350
17
  3
ACAD_PLOTSETTINGS
350
19
  3
ACAD_PLOTSTYLENAME
350
E
  3
ACAD_SCALELIST
350
47
  3
DWGPROPS
350
338
  0
DICTIONARY
  5
D
102
{ACAD_REACTORS
330
C
102
}
330
C
100
AcDbDictionary
281
     1
  0
DICTIONARY
  5
1A
102
{ACAD_REACTORS
330
C
102
}
330
C
100
AcDbDictionary
281
     1
  3
Layout1
350
1E
  3
Layout2
350
26
  3
Model
350
22
  0
DICTIONARY
  5
17
102
{ACAD_REACTORS
330
C
102
}
330
C
100
AcDbDictionary
281
     1
  3
Standard
350
18
  0
DICTIONARY
  5
19
102
{ACAD_REACTORS
330
C
102
}
330
C
100
AcDbDictionary
281
     1
  0
ACDBDICTIONARYWDFLT
  5
E
102
{ACAD_REACTORS
330
C
102
}
330
C
100
AcDbDictionary
281
     1
  3
Normal
350
F
100
AcDbDictionaryWithDefault
340
F
  0
DICTIONARY
  5
47
102
{ACAD_REACTORS
330
C
102
}
330
C
100
AcDbDictionary
281
     1
  3
A0
350
48
  3
A1
350
49
  3
A2
350
4A
  3
A3
350
4B
  3
A4
350
4C
  3
A5
350
4D
  3
A6
350
4E
  3
A7
350
4F
  3
A8
350
50
  3
A9
350
51
  3
B0
350
52
  3
B1
350
53
  3
B2
350
54
  3
B3
350
55
  3
B4
350
56
  3
B5
350
57
  3
B6
350
58
  0
XRECORD
  5
338
102
{ACAD_REACTORS
330
C
102
}
330
C
100
AcDbXrecord
280
     1
  1
DWGPROPS COOKIE
  2

  3

  4

  6

  7

  8
Tim.Gossard
  9

300
=
301
=
302
=
303
=
304
=
305
=
306
=
307
=
308
=
309
=
 40
0.0
 41
2460426.041603438
 42
2460426.041605799
  1

 90
        0
  0
LAYOUT
  5
1E
102
{ACAD_REACTORS
330
1A
102
}
330
1A
100
AcDbPlotSettings
  1

  2
none_device
  4

  6

 40
0.0
 41
0.0
 42
0.0
 43
0.0
 44
0.0
 45
0.0
 46
0.0
 47
0.0
 48
0.0
 49
0.0
140
0.0
141
0.0
142
1.0
143
1.0
 70
   688
 72
     1
 73
     0
 74
     5
  7

 75
    16
147
1.0
148
0.0
149
0.0
100
AcDbLayout
  1
Layout1
 70
     1
 71
     1
 10
0.0
 20
0.0
 11
420.0
 21
297.0
 12
0.0
 22
0.0
 32
0.0
 14
1.0000000000E+20
 24
1.0000000000E+20
 34
1.0000000000E+20
 15
-1.0000000000E+20
 25
-1.0000000000E+20
 35
-1.0000000000E+20
146
0.0
 13
0.0
 23
0.0
 33
0.0
 16
1.0
 26
0.0
 36
0.0
 17
0.0
 27
1.0
 37
0.0
 76
     0
330
1B
  0
LAYOUT
  5
26
102
{ACAD_REACTORS
330
1A
102
}
330
1A
100
AcDbPlotSettings
  1

  2
none_device
  4

  6

 40
0.0
 41
0.0
 42
0.0
 43
0.0
 44
0.0
 45
0.0
 46
0.0
 47
0.0
 48
0.0
 49
0.0
140
0.0
141
0.0
142
1.0
143
1.0
 70
   688
 72
     1
 73
     0
 74
     5
  7

 75
    16
147
1.0
148
0.0
149
0.0
100
AcDbLayout
  1
Layout2
 70
     1
 71
     2
 10
0.0
 20
0.0
 11
0.0
 21
0.0
 12
0.0
 22
0.0
 32
0.0
 14
0.0
 24
0.0
 34
0.0
 15
0.0
 25
0.0
 35
0.0
146
0.0
 13
0.0
 23
0.0
 33
0.0
 16
1.0
 26
0.0
 36
0.0
 17
0.0
 27
1.0
 37
0.0
 76
     0
330
23
  0
LAYOUT
  5
22
102
{ACAD_REACTORS
330
1A
102
}
330
1A
100
AcDbPlotSettings
  1

  2
none_device
  4
Letter_(8.50_x_11.00_Inches)
  6

 40
6.35
 41
6.35
 42
6.35000508
 43
6.35000508
 44
215.9
 45
279.4
 46
0.0
 47
0.0
 48
0.0
 49
0.0
140
0.0
141
0.0
142
1.0
143
1.0
 70
  1712
 72
     1
 73
     0
 74
     0
  7

 75
     0
147
1.0
148
0.0
149
0.0
100
AcDbLayout
  1
Model
 70
     1
 71
     0
 10
0.0
 20
0.0
 11
863.6
 21
558.8
 12
0.0
 22
0.0
 32
0.0
 14
0.0
 24
0.0
 34
0.0
 15
863.6
 25
558.8
 35
0.0
146
0.0
 13
0.0
 23
0.0
 33
0.0
 16
1.0
 26
0.0
 36
0.0
 17
0.0
 27
1.0
 37
0.0
 76
     0
330
1F
331
29
  0
MLINESTYLE
  5
18
102
{ACAD_REACTORS
330
17
102
}
330
17
100
AcDbMlineStyle
  2
Standard
 70
     0
  3

 62
   256
 51
90.0
 52
90.0
 71
     2
 49
0.5
 62
   256
  6
BYLAYER
 49
-0.5
 62
   256
  6
BYLAYER
  0
ACDBPLACEHOLDER
  5
F
102
{ACAD_REACTORS
330
E
102
}
330
E
  0
SCALE
  5
48
102
{ACAD_REACTORS
330
47
102
}
330
47
100
AcDbScale
 70
     0
300
1:1
140
1.0
141
1.0
290
     1
  0
SCALE
  5
49
102
{ACAD_REACTORS
330
47
102
}
330
47
100
AcDbScale
 70
     0
300
1:2
140
1.0
141
2.0
290
     0
  0
SCALE
  5
4A
102
{ACAD_REACTORS
330
47
102
}
330
47
100
AcDbScale
 70
     0
300
1:4
140
1.0
141
4.0
290
     0
  0
SCALE
  5
4B
102
{ACAD_REACTORS
330
47
102
}
330
47
100
AcDbScale
 70
     0
300
1:5
140
1.0
141
5.0
290
     0
  0
SCALE
  5
4C
102
{ACAD_REACTORS
330
47
102
}
330
47
100
AcDbScale
 70
     0
300
1:8
140
1.0
141
8.0
290
     0
  0
SCALE
  5
4D
102
{ACAD_REACTORS
330
47
102
}
330
47
100
AcDbScale
 70
     0
300
1:10
140
1.0
141
10.0
290
     0
  0
SCALE
  5
4E
102
{ACAD_REACTORS
330
47
102
}
330
47
100
AcDbScale
 70
     0
300
1:16
140
1.0
141
16.0
290
     0
  0
SCALE
  5
4F
102
{ACAD_REACTORS
330
47
102
}
330
47
100
AcDbScale
 70
     0
300
1:20
140
1.0
141
20.0
290
     0
  0
SCALE
  5
50
102
{ACAD_REACTORS
330
47
102
}
330
47
100
AcDbScale
 70
     0
300
1:30
140
1.0
141
30.0
290
     0
  0
SCALE
  5
51
102
{ACAD_REACTORS
330
47
102
}
330
47
100
AcDbScale
 70
     0
300
1:40
140
1.0
141
40.0
290
     0
  0
SCALE
  5
52
102
{ACAD_REACTORS
330
47
102
}
330
47
100
AcDbScale
 70
     0
300
1:50
140
1.0
141
50.0
290
     0
  0
SCALE
  5
53
102
{ACAD_REACTORS
330
47
102
}
330
47
100
AcDbScale
 70
     0
300
1:100
140
1.0
141
100.0
290
     0
  0
SCALE
  5
54
102
{ACAD_REACTORS
330
47
102
}
330
47
100
AcDbScale
 70
     0
300
2:1
140
2.0
141
1.0
290
     0
  0
SCALE
  5
55
102
{ACAD_REACTORS
330
47
102
}
330
47
100
AcDbScale
 70
     0
300
4:1
140
4.0
141
1.0
290
     0
  0
SCALE
  5
56
102
{ACAD_REACTORS
330
47
102
}
330
47
100
AcDbScale
 70
     0
300
8:1
140
8.0
141
1.0
290
     0
  0
SCALE
  5
57
102
{ACAD_REACTORS
330
47
102
}
330
47
100
AcDbScale
 70
     0
300
10:1
140
10.0
141
1.0
290
     0
  0
SCALE
  5
58
102
{ACAD_REACTORS
330
47
102
}
330
47
100
AcDbScale
 70
     0
300
100:1
140
100.0
141
1.0
290
     0
  0
ENDSEC
  0
EOF
